  0
SECTION
  2
HEADER
  9
$ACADVER
  1
AC1014
  9
$DWGCODEPAGE
  3
ANSI_932
  9
$LTSCALE
 40
20.0
  9
$FILLMODE
 70
     1
  9
$CLAYER
  8
0
  9
$PDMODE
 70
     0
  9
$SPLFRAME
 70
     0
  9
$SPLINETYPE
 70
     6
  9
$SPLINESEGS
 70
     8
  9
$DIMASZ
 40
2.000000
  9
$DIMEXE
 40
2.000000
  9
$DIMEXO
 40
0.800000
  9
$DIMTAD
 70
     1
  9
$DIMTIH
 70
     0
  9
$DIMTOH
 70
     0
  9
$DIMTVP
 40
0.500000
  9
$DIMTXT
 40
3.100000
  9
$EXTMIN
 10
0.000000
 20
0.000000
 30
0.000000
  9
$EXTMAX
 10
297.000000
 20
420.000000
 30
0.000000
  9
$MEASUREMENT
 70
  1
  9
$LIMMIN
 10
0.000000
 20
0.000000
  9
$LIMMAX
 10
297.000000
 20
420.000000
  9
$HANDLING
 70
     1
  9
$HANDSEED
  5
3A8
  9
$DIMBLK
  1
_OPEN
  9
$DIMDEC
 70
     3
  9
$DIMAUNIT
 70
     1
  9
$DIMZIN
 70
     8
  9
$DIMTOFL
 70
     1
  0
ENDSEC
  0
SECTION
  2
CLASSES
  0
ENDSEC
  0
SECTION
  2
TABLES
  0
TABLE
  2
VPORT
  5
367
100
AcDbSymbolTable
 70
     1
  0
VPORT
  5
368
100
AcDbSymbolTableRecord
100
AcDbViewportTableRecord
  2
*ACTIVE
 70
     0
 12
210.120582
 22
148.500000
 40
297.000000
 41
1.414953
  0
ENDTAB
  0
TABLE
  2
LTYPE
  5
369
100
AcDbSymbolTable
 70
     3
  0
LTYPE
  5
36A
100
AcDbSymbolTableRecord
100
AcDbLinetypeTableRecord
  2
BYBLOCK
 70
     0
  3

 72
    65
 73
     0
 40
0.0
  0
LTYPE
  5
36B
100
AcDbSymbolTableRecord
100
AcDbLinetypeTableRecord
  2
BYLAYER
 70
     0
  3

 72
    65
 73
     0
 40
0.0
  0
LTYPE
  5
36C
100
AcDbSymbolTableRecord
100
AcDbLinetypeTableRecord
  2
CONTINUOUS
 70
     0
  3
Solid line (NEC CAE2D for Win R14.2 : 2021.05.17)
 72
    65
 73
     0
 40
0.0
  0
LTYPE
  5
36D
100
AcDbSymbolTableRecord
100
AcDbLinetypeTableRecord
  2
HIDDEN
 70
     0
  3
__ __ __ __ __ __ __ __ __ __ __ __ __ __
 72
    65
 73
     2
 40
0.375
 49
0.25
 74
     0
 49
-0.125
 74
     0
  0
LTYPE
  5
36E
100
AcDbSymbolTableRecord
100
AcDbLinetypeTableRecord
  2
CENTER
 70
     0
  3
____ _ ____ _ ____ _ ____ _ ____ _ ____
 72
    65
 73
     4
 40
2.0
 49
1.25
 74
     0
 49
-0.25
 74
     0
 49
0.25
 74
     0
 49
-0.25
 74
     0
  0
ENDTAB
  0
TABLE
  2
LAYER
  5
36F
100
AcDbSymbolTable
 70
     7
  0
LAYER
  5
370
100
AcDbSymbolTableRecord
100
AcDbLayerTableRecord
  2
0
 70
     0
 62
     7
  6
CONTINUOUS
  0
LAYER
  5
371
100
AcDbSymbolTableRecord
100
AcDbLayerTableRecord
  2
MAIN0
 70
     0
 62
     7
  6
CONTINUOUS
  0
LAYER
  5
372
100
AcDbSymbolTableRecord
100
AcDbLayerTableRecord
  2
MAIN1
 70
     0
 62
     7
  6
CONTINUOUS
  0
LAYER
  5
373
100
AcDbSymbolTableRecord
100
AcDbLayerTableRecord
  2
MAIN2
 70
     0
 62
     7
  6
CONTINUOUS
  0
LAYER
  5
374
100
AcDbSymbolTableRecord
100
AcDbLayerTableRecord
  2
MAIN1023
 70
     0
 62
    16
  6
CONTINUOUS
  0
LAYER
  5
375
100
AcDbSymbolTableRecord
100
AcDbLayerTableRecord
  2
WAKU0
 70
     0
 62
     7
  6
CONTINUOUS
  0
LAYER
  5
376
100
AcDbSymbolTableRecord
100
AcDbLayerTableRecord
  2
WAKU1023
 70
     0
 62
    16
  6
CONTINUOUS
  0
ENDTAB
  0
TABLE
  2
STYLE
  5
377
100
AcDbSymbolTable
 70
     4
  0
STYLE
  5
378
100
AcDbSymbolTableRecord
100
AcDbTextStyleTableRecord
  2
STANDARD
 70
    64
 40
0.0
 41
1.0
 50
0.0
 71
     0
 42
3.140094041824341
  3
TXT
  4

  0
STYLE
  5
379
100
AcDbSymbolTableRecord
100
AcDbTextStyleTableRecord
  2
ANKTATE
 70
    68
 40
0.0
 41
1.0
 50
0.0
 71
     0
 42
3.140094041824341
  3
TXT
  4

  0
STYLE
  5
50
100
AcDbSymbolTableRecord
100
AcDbTextStyleTableRecord
  2
KNJYOKO
 70
    64
 40
0.0
 41
1.0
 50
0.0
 71
     0
 42
3.140094041824341
  3
TXT
  4
BIGFONT
  0
STYLE
  5
37A
100
AcDbSymbolTableRecord
100
AcDbTextStyleTableRecord
  2
KNJTATE
 70
    68
 40
0.0
 41
1.0
 50
0.0
 71
     0
 42
3.140094041824341
  3
TXT
  4
BIGFONT
  0
ENDTAB
  0
TABLE
  2
VIEW
  5
37B
100
AcDbSymbolTable
 70
     0
  0
ENDTAB
  0
TABLE
  2
UCS
  5
37C
100
AcDbSymbolTable
 70
     0
  0
ENDTAB
  0
TABLE
  2
APPID
  5
37D
100
AcDbSymbolTable
 70
     1
  0
APPID
  5
37E
100
AcDbSymbolTableRecord
100
AcDbRegAppTableRecord
  2
ACAD
 70
     0
  0
ENDTAB
  0
TABLE
  2
DIMSTYLE
  5
37F
100
AcDbSymbolTable
 70
     1
  0
DIMSTYLE
105
380
100
AcDbSymbolTableRecord
100
AcDbDimStyleTableRecord
  2
STANDARD
 70
     0
 41
2.000000
 44
2.000000
 42
0.800000
145
0.661290
140
3.100000
144
1.000000
146
0.903226
340
378
  0
DIMSTYLE
105
381
100
AcDbSymbolTableRecord
100
AcDbDimStyleTableRecord
  2
MAIN001
 70
     0
 41
2.000000
 44
2.000000
 42
0.800000
145
0.661290
140
3.100000
144
1.000000
146
0.903226
 77
     1
 73
     0
 74
     0
271
     3
275
     1
 78
     8
172
     1
340
378
  0
DIMSTYLE
105
382
100
AcDbSymbolTableRecord
100
AcDbDimStyleTableRecord
  2
WAKU002
 70
     0
 41
2.000000
 44
2.000000
 42
0.800000
145
0.661290
140
3.100000
144
1.000000
146
0.903226
 77
     1
 73
     0
 74
     0
271
     3
275
     1
 78
     8
172
     1
340
378
  0
ENDTAB
  0
TABLE
  2
BLOCK_RECORD
  5
383
100
AcDbSymbolTable
 70
    38
  0
BLOCK_RECORD
  5
384
100
AcDbSymbolTableRecord
100
AcDbBlockTableRecord
  2
*MODEL_SPACE
  0
BLOCK_RECORD
  5
385
100
AcDbSymbolTableRecord
100
AcDbBlockTableRecord
  2
*PAPER_SPACE
  0
BLOCK_RECORD
  5
1
100
AcDbSymbolTableRecord
100
AcDbBlockTableRecord
  2
_NONE
  0
BLOCK_RECORD
  5
4
100
AcDbSymbolTableRecord
100
AcDbBlockTableRecord
  2
_CLOSED
  0
BLOCK_RECORD
  5
B
100
AcDbSymbolTableRecord
100
AcDbBlockTableRecord
  2
_DOT
  0
BLOCK_RECORD
  5
13
100
AcDbSymbolTableRecord
100
AcDbBlockTableRecord
  2
_OPEN
  0
BLOCK_RECORD
  5
19
100
AcDbSymbolTableRecord
100
AcDbBlockTableRecord
  2
_ORIGIN
  0
BLOCK_RECORD
  5
1E
100
AcDbSymbolTableRecord
100
AcDbBlockTableRecord
  2
_OPEN30
  0
BLOCK_RECORD
  5
24
100
AcDbSymbolTableRecord
100
AcDbBlockTableRecord
  2
_BOXFILLED
  0
BLOCK_RECORD
  5
29
100
AcDbSymbolTableRecord
100
AcDbBlockTableRecord
  2
_BOXBLANK
  0
BLOCK_RECORD
  5
31
100
AcDbSymbolTableRecord
100
AcDbBlockTableRecord
  2
_OBLIQUE
  0
BLOCK_RECORD
  5
35
100
AcDbSymbolTableRecord
100
AcDbBlockTableRecord
  2
_OPEN90
  0
BLOCK_RECORD
  5
3B
100
AcDbSymbolTableRecord
100
AcDbBlockTableRecord
  2
_CLOSEDBLANK
  0
BLOCK_RECORD
  5
41
100
AcDbSymbolTableRecord
100
AcDbBlockTableRecord
  2
_DOTBLANK
  0
BLOCK_RECORD
  5
386
100
AcDbSymbolTableRecord
100
AcDbBlockTableRecord
  2
*D0
  0
BLOCK_RECORD
  5
387
100
AcDbSymbolTableRecord
100
AcDbBlockTableRecord
  2
D1
  0
BLOCK_RECORD
  5
388
100
AcDbSymbolTableRecord
100
AcDbBlockTableRecord
  2
D2
  0
BLOCK_RECORD
  5
389
100
AcDbSymbolTableRecord
100
AcDbBlockTableRecord
  2
*D3
  0
BLOCK_RECORD
  5
38A
100
AcDbSymbolTableRecord
100
AcDbBlockTableRecord
  2
*D4
  0
BLOCK_RECORD
  5
38B
100
AcDbSymbolTableRecord
100
AcDbBlockTableRecord
  2
*D5
  0
BLOCK_RECORD
  5
38C
100
AcDbSymbolTableRecord
100
AcDbBlockTableRecord
  2
*D6
  0
BLOCK_RECORD
  5
38D
100
AcDbSymbolTableRecord
100
AcDbBlockTableRecord
  2
*D7
  0
BLOCK_RECORD
  5
38E
100
AcDbSymbolTableRecord
100
AcDbBlockTableRecord
  2
*D8
  0
BLOCK_RECORD
  5
38F
100
AcDbSymbolTableRecord
100
AcDbBlockTableRecord
  2
*D9
  0
BLOCK_RECORD
  5
390
100
AcDbSymbolTableRecord
100
AcDbBlockTableRecord
  2
*D10
  0
BLOCK_RECORD
  5
391
100
AcDbSymbolTableRecord
100
AcDbBlockTableRecord
  2
*D11
  0
BLOCK_RECORD
  5
392
100
AcDbSymbolTableRecord
100
AcDbBlockTableRecord
  2
*D12
  0
BLOCK_RECORD
  5
393
100
AcDbSymbolTableRecord
100
AcDbBlockTableRecord
  2
*D13
  0
BLOCK_RECORD
  5
394
100
AcDbSymbolTableRecord
100
AcDbBlockTableRecord
  2
*D14
  0
BLOCK_RECORD
  5
395
100
AcDbSymbolTableRecord
100
AcDbBlockTableRecord
  2
*D15
  0
BLOCK_RECORD
  5
396
100
AcDbSymbolTableRecord
100
AcDbBlockTableRecord
  2
*D16
  0
BLOCK_RECORD
  5
397
100
AcDbSymbolTableRecord
100
AcDbBlockTableRecord
  2
*D17
  0
BLOCK_RECORD
  5
398
100
AcDbSymbolTableRecord
100
AcDbBlockTableRecord
  2
*D18
  0
BLOCK_RECORD
  5
399
100
AcDbSymbolTableRecord
100
AcDbBlockTableRecord
  2
*D19
  0
BLOCK_RECORD
  5
39A
100
AcDbSymbolTableRecord
100
AcDbBlockTableRecord
  2
*D20
  0
BLOCK_RECORD
  5
39B
100
AcDbSymbolTableRecord
100
AcDbBlockTableRecord
  2
*D21
  0
BLOCK_RECORD
  5
39C
100
AcDbSymbolTableRecord
100
AcDbBlockTableRecord
  2
*D22
  0
BLOCK_RECORD
  5
39D
100
AcDbSymbolTableRecord
100
AcDbBlockTableRecord
  2
*D23
  0
BLOCK_RECORD
  5
39E
100
AcDbSymbolTableRecord
100
AcDbBlockTableRecord
  2
*D24
  0
BLOCK_RECORD
  5
39F
100
AcDbSymbolTableRecord
100
AcDbBlockTableRecord
  2
*D25
  0
ENDTAB
  0
ENDSEC
  0
SECTION
  2
BLOCKS
  0
BLOCK
  5
3A0
100
AcDbEntity
  8
0
100
AcDbBlockBegin
  2
*MODEL_SPACE
 70
     0
 10
0.0
 20
0.0
 30
0.0
  3
*MODEL_SPACE
  1

  0
ENDBLK
  5
3A1
100
AcDbEntity
  8
0
100
AcDbBlockEnd
  0
BLOCK
  5
3A2
100
AcDbEntity
  8
0
100
AcDbBlockBegin
  2
*PAPER_SPACE
 70
     0
 10
0.0
 20
0.0
 30
0.0
  3
*PAPER_SPACE
  1

  0
ENDBLK
  5
3A3
100
AcDbEntity
  8
0
100
AcDbBlockEnd
  0
BLOCK
  5
2
100
AcDbEntity
  8
0
100
AcDbBlockBegin
  2
_NONE
 70
     0
 10
0.0
 20
0.0
 30
0.0
  3
_NONE
  1

  0
ENDBLK
  5
3
100
AcDbEntity
  8
0
100
AcDbBlockEnd
  0
BLOCK
  5
5
100
AcDbEntity
  8
0
100
AcDbBlockBegin
  2
_CLOSED
 70
     0
 10
0.0
 20
0.0
 30
0.0
  3
_CLOSED
  1

  0
LINE
  5
6
100
AcDbEntity
  8
0
  6
BYBLOCK
 62
     0
100
AcDbLine
 10
-1.0
 20
0.166667
 30
0.0
 11
0.0
 21
0.0
 31
0.0
  0
LINE
  5
7
100
AcDbEntity
  8
0
  6
BYBLOCK
 62
     0
100
AcDbLine
 10
0.0
 20
0.0
 30
0.0
 11
-1.0
 21
-0.166667
 31
0.0
  0
LINE
  5
8
100
AcDbEntity
  8
0
  6
BYBLOCK
 62
     0
100
AcDbLine
 10
-1.0
 20
0.166667
 30
0.0
 11
-1.0
 21
-0.166667
 31
0.0
  0
LINE
  5
9
100
AcDbEntity
  8
0
  6
BYBLOCK
 62
     0
100
AcDbLine
 10
0.0
 20
0.0
 30
0.0
 11
-1.0
 21
0.0
 31
0.0
  0
ENDBLK
  5
A
100
AcDbEntity
  8
0
100
AcDbBlockEnd
  0
BLOCK
  5
C
100
AcDbEntity
  8
0
100
AcDbBlockBegin
  2
_DOT
 70
     0
 10
0.0
 20
0.0
 30
0.0
  3
_DOT
  1

  0
POLYLINE
  5
D
100
AcDbEntity
  8
0
  6
BYBLOCK
 62
     0
100
AcDb2dPolyline
 66
     1
 10
0.0
 20
0.0
 30
0.0
 70
     1
 40
0.5
 41
0.5
  0
VERTEX
  5
E
100
AcDbEntity
  8
0
  6
BYBLOCK
 62
     0
100
AcDbVertex
100
AcDb2dVertex
 10
-0.25
 20
0.0
 30
0.0
 42
1.0
  0
VERTEX
  5
F
100
AcDbEntity
  8
0
  6
BYBLOCK
 62
     0
100
AcDbVertex
100
AcDb2dVertex
 10
0.25
 20
0.0
 30
0.0
 42
1.0
  0
SEQEND
  5
10
100
AcDbEntity
  8
0
  6
BYBLOCK
 62
     0
  0
LINE
  5
11
100
AcDbEntity
  8
0
  6
BYBLOCK
 62
     0
100
AcDbLine
 10
-0.5
 20
0.0
 30
0.0
 11
-1.0
 21
0.0
 31
0.0
  0
ENDBLK
  5
12
100
AcDbEntity
  8
0
100
AcDbBlockEnd
  0
BLOCK
  5
14
100
AcDbEntity
  8
0
100
AcDbBlockBegin
  2
_OPEN
 70
     0
 10
0.0
 20
0.0
 30
0.0
  3
_OPEN
  1

  0
LINE
  5
15
100
AcDbEntity
  8
0
  6
BYBLOCK
 62
     0
100
AcDbLine
 10
-1.0
 20
0.166667
 30
0.0
 11
0.0
 21
0.0
 31
0.0
  0
LINE
  5
16
100
AcDbEntity
  8
0
  6
BYBLOCK
 62
     0
100
AcDbLine
 10
0.0
 20
0.0
 30
0.0
 11
-1.0
 21
-0.166667
 31
0.0
  0
LINE
  5
17
100
AcDbEntity
  8
0
  6
BYBLOCK
 62
     0
100
AcDbLine
 10
0.0
 20
0.0
 30
0.0
 11
-1.0
 21
0.0
 31
0.0
  0
ENDBLK
  5
18
100
AcDbEntity
  8
0
100
AcDbBlockEnd
  0
BLOCK
  5
1A
100
AcDbEntity
  8
0
100
AcDbBlockBegin
  2
_ORIGIN
 70
     0
 10
0.0
 20
0.0
 30
0.0
  3
_ORIGIN
  1

  0
CIRCLE
  5
1B
100
AcDbEntity
  8
0
  6
BYBLOCK
 62
     0
100
AcDbCircle
 10
0.0
 20
0.0
 30
0.0
 40
0.5
  0
LINE
  5
1C
100
AcDbEntity
  8
0
  6
BYBLOCK
 62
     0
100
AcDbLine
 10
0.0
 20
0.0
 30
0.0
 11
-1.0
 21
0.0
 31
0.0
  0
ENDBLK
  5
1D
100
AcDbEntity
  8
0
100
AcDbBlockEnd
  0
BLOCK
  5
1F
100
AcDbEntity
  8
0
100
AcDbBlockBegin
  2
_OPEN30
 70
     0
 10
0.0
 20
0.0
 30
0.0
  3
_OPEN30
  1

  0
LINE
  5
20
100
AcDbEntity
  8
0
  6
BYBLOCK
 62
     0
100
AcDbLine
 10
-1.0
 20
0.267949
 30
0.0
 11
0.0
 21
0.0
 31
0.0
  0
LINE
  5
21
100
AcDbEntity
  8
0
  6
BYBLOCK
 62
     0
100
AcDbLine
 10
0.0
 20
0.0
 30
0.0
 11
-1.0
 21
-0.267949
 31
0.0
  0
LINE
  5
22
100
AcDbEntity
  8
0
  6
BYBLOCK
 62
     0
100
AcDbLine
 10
0.0
 20
0.0
 30
0.0
 11
-1.0
 21
0.0
 31
0.0
  0
ENDBLK
  5
23
100
AcDbEntity
  8
0
100
AcDbBlockEnd
  0
BLOCK
  5
25
100
AcDbEntity
  8
0
100
AcDbBlockBegin
  2
_BOXFILLED
 70
     0
 10
0.0
 20
0.0
 30
0.0
  3
_BOXFILLED
  1

  0
SOLID
  5
26
100
AcDbEntity
  8
0
  6
BYBLOCK
 62
     0
100
AcDbTrace
 10
-0.5
 20
0.5
 30
0.0
 11
0.5
 21
0.5
 31
0.0
 12
-0.5
 22
-0.5
 32
0.0
 13
0.5
 23
-0.5
 33
0.0
  0
LINE
  5
27
100
AcDbEntity
  8
0
  6
BYBLOCK
 62
     0
100
AcDbLine
 10
-0.5
 20
0.0
 30
0.0
 11
-1.0
 21
0.0
 31
0.0
  0
ENDBLK
  5
28
100
AcDbEntity
  8
0
100
AcDbBlockEnd
  0
BLOCK
  5
2A
100
AcDbEntity
  8
0
100
AcDbBlockBegin
  2
_BOXBLANK
 70
     0
 10
0.0
 20
0.0
 30
0.0
  3
_BOXBLANK
  1

  0
LINE
  5
2B
100
AcDbEntity
  8
0
  6
BYBLOCK
 62
     0
100
AcDbLine
 10
-0.5
 20
-0.5
 30
0.0
 11
0.5
 21
-0.5
 31
0.0
  0
LINE
  5
2C
100
AcDbEntity
  8
0
  6
BYBLOCK
 62
     0
100
AcDbLine
 10
0.5
 20
-0.5
 30
0.0
 11
0.5
 21
0.5
 31
0.0
  0
LINE
  5
2D
100
AcDbEntity
  8
0
  6
BYBLOCK
 62
     0
100
AcDbLine
 10
0.5
 20
0.5
 30
0.0
 11
-0.5
 21
0.5
 31
0.0
  0
LINE
  5
2E
100
AcDbEntity
  8
0
  6
BYBLOCK
 62
     0
100
AcDbLine
 10
-0.5
 20
0.5
 30
0.0
 11
-0.5
 21
-0.5
 31
0.0
  0
LINE
  5
2F
100
AcDbEntity
  8
0
  6
BYBLOCK
 62
     0
100
AcDbLine
 10
-0.5
 20
0.0
 30
0.0
 11
-1.0
 21
0.0
 31
0.0
  0
ENDBLK
  5
30
100
AcDbEntity
  8
0
100
AcDbBlockEnd
  0
BLOCK
  5
32
100
AcDbEntity
  8
0
100
AcDbBlockBegin
  2
_OBLIQUE
 70
     0
 10
0.0
 20
0.0
 30
0.0
  3
_OBLIQUE
  1

  0
LINE
  5
33
100
AcDbEntity
  8
0
  6
BYBLOCK
 62
     0
100
AcDbLine
 10
-0.5
 20
-0.5
 30
0.0
 11
0.5
 21
0.5
 31
0.0
  0
ENDBLK
  5
34
100
AcDbEntity
  8
0
100
AcDbBlockEnd
  0
BLOCK
  5
36
100
AcDbEntity
  8
0
100
AcDbBlockBegin
  2
_OPEN90
 70
     0
 10
0.0
 20
0.0
 30
0.0
  3
_OPEN90
  1

  0
LINE
  5
37
100
AcDbEntity
  8
0
  6
BYBLOCK
 62
     0
100
AcDbLine
 10
-0.5
 20
0.5
 30
0.0
 11
0.0
 21
0.0
 31
0.0
  0
LINE
  5
38
100
AcDbEntity
  8
0
  6
BYBLOCK
 62
     0
100
AcDbLine
 10
0.0
 20
0.0
 30
0.0
 11
-0.5
 21
-0.5
 31
0.0
  0
LINE
  5
39
100
AcDbEntity
  8
0
  6
BYBLOCK
 62
     0
100
AcDbLine
 10
0.0
 20
0.0
 30
0.0
 11
-1.0
 21
0.0
 31
0.0
  0
ENDBLK
  5
3A
100
AcDbEntity
  8
0
100
AcDbBlockEnd
  0
BLOCK
  5
3C
100
AcDbEntity
  8
0
100
AcDbBlockBegin
  2
_CLOSEDBLANK
 70
     0
 10
0.0
 20
0.0
 30
0.0
  3
_CLOSEDBLANK
  1

  0
LINE
  5
3D
100
AcDbEntity
  8
0
  6
BYBLOCK
 62
     0
100
AcDbLine
 10
-1.0
 20
0.1666666666666666
 30
0.0
 11
0.0
 21
0.0
 31
0.0
  0
LINE
  5
3E
100
AcDbEntity
  8
0
  6
BYBLOCK
 62
     0
100
AcDbLine
 10
0.0
 20
0.0
 30
0.0
 11
-1.0
 21
-0.1666666666666666
 31
0.0
  0
LINE
  5
3F
100
AcDbEntity
  8
0
  6
BYBLOCK
 62
     0
100
AcDbLine
 10
-1.0
 20
0.1666666666666666
 30
0.0
 11
-1.0
 21
-0.1666666666666666
 31
0.0
  0
ENDBLK
  5
40
100
AcDbEntity
  8
0
100
AcDbBlockEnd
  0
BLOCK
  5
42
100
AcDbEntity
  8
0
100
AcDbBlockBegin
  2
_DOTBLANK
 70
     0
 10
0.0
 20
0.0
 30
0.0
  3
_DOTBLANK
  1

  0
CIRCLE
  5
43
100
AcDbEntity
  8
0
  6
BYBLOCK
 62
     0
100
AcDbCircle
 10
0.0
 20
0.0
 30
0.0
 40
0.5
  0
LINE
  5
44
100
AcDbEntity
  8
0
  6
BYBLOCK
 62
     0
100
AcDbLine
 10
-0.5
 20
0.0
 30
0.0
 11
-1.0
 21
0.0
 31
0.0
  0
ENDBLK
  5
45
100
AcDbEntity
  8
0
100
AcDbBlockEnd
  0
BLOCK
  5
47
100
AcDbEntity
  8
MAIN0
  6
CONTINUOUS
 62
3
100
AcDbBlockBegin
  2
*D0
 70
    65
 10
0.0
 20
0.0
 30
0.0
  0
LINE
  5
48
100
AcDbEntity
  8
MAIN0
  6
BYBLOCK
 62
0
100
AcDbLine
 10
195.4154967037525
 20
206.7187686735119
 30
0.0000000000000000
 11
182.8298560693779
 21
206.7187686735207
 31
0.0000000000000000
  0
LINE
  5
49
100
AcDbEntity
  8
MAIN0
  6
BYBLOCK
 62
0
100
AcDbLine
 10
184.8298560693779
 20
204.7187686735193
 30
0.0000000000000000
 11
184.8298560693779
 21
181.7187686735113
 31
0.0000000000000000
  0
INSERT
  5
4A
100
AcDbEntity
  8
MAIN0
  6
BYBLOCK
 62
0
100
AcDbBlockReference
  2
_OPEN
 10
184.8298560693779
 20
206.7187686735193
 30
0.0000000000000000
 41
2.000000000000000
 42
2.000000000000000
 43
2.000000000000000
 50
90.00000000000000
  0
INSERT
  5
4B
100
AcDbEntity
  8
MAIN0
  6
BYBLOCK
 62
0
100
AcDbBlockReference
  2
_OPEN
 10
184.8298560693779
 20
179.7187686735113
 30
0.0000000000000000
 41
2.000000000000000
 42
2.000000000000000
 43
2.000000000000000
 50
270.0000000000000
  0
LINE
  5
4C
100
AcDbEntity
  8
MAIN0
  6
BYBLOCK
 62
0
100
AcDbLine
 10
195.4154967049826
 20
179.7187686735113
 30
0.0000000000000000
 11
182.8298560693779
 21
179.7187686735113
 31
0.0000000000000000
  0
MTEXT
  5
4D
100
AcDbEntity
  8
MAIN0
  6
BYBLOCK
 62
0
100
AcDbMText
 10
182.7798561170616
 20
193.2187687498838
 30
0.0000000000000000
 40
3.099999904632568
 41
0.0000000000000000
 71
     5
 72
     1
  1
\A1;\U+220527h7\H0.903226x;\S　0^ －0.021;
 11
6.123233995736766e-017
 21
1.000000000000000
 31
0.0000000000000000
  7
KNJYOKO
  0
ENDBLK
  5
4E
100
AcDbEntity
  8
MAIN0
  6
CONTINUOUS
 62
3
100
AcDbBlockEnd
  0
BLOCK
  5
51
100
AcDbEntity
  8
MAIN0
  6
CONTINUOUS
 62
3
100
AcDbBlockBegin
  2
D1
 70
    64
 10
0.0
 20
0.0
 30
0.0
  0
LINE
  5
52
100
AcDbEntity
  8
MAIN0
  6
BYBLOCK
 62
0
100
AcDbLine
 10
-18.37855550103419
 20
5.453990341349431
 30
0.0000000000000000
 11
-18.37855550108145
 21
-23.49999999953609
 31
0.0000000000000000
  0
LINE
  5
53
100
AcDbEntity
  8
MAIN0
  6
BYBLOCK
 62
0
100
AcDbLine
 10
-17.77855547723633
 20
-21.49999999953707
 30
0.0000000000000000
 11
-18.37855550108145
 21
-23.49999999953609
 31
0.0000000000000000
  0
LINE
  5
54
100
AcDbEntity
  8
MAIN0
  6
BYBLOCK
 62
0
100
AcDbLine
 10
-18.37855550108145
 20
-23.49999999953609
 30
0.0000000000000000
 11
-18.97855552492004
 21
-21.49999999953511
 31
0.0000000000000000
  0
LINE
  5
55
100
AcDbEntity
  8
MAIN0
  6
BYBLOCK
 62
0
100
AcDbLine
 10
6.221444487038696
 20
-23.49999999957624
 30
0.0000000000000000
 11
-20.37855550108145
 21
-23.49999999953283
 31
0.0000000000000000
  0
MTEXT
  5
56
100
AcDbEntity
  8
MAIN0
  6
BYBLOCK
 62
0
100
AcDbMText
 10
-20.42855545335928
 20
0.05399033911507273
 30
0.0000000000000000
 40
3.099999904632568
 41
0.0000000000000000
 71
     5
 72
     1
  1
\A1;\U+220547
 11
6.123233995736766e-017
 21
1.000000000000000
 31
0.0000000000000000
  7
STANDARD
  0
ENDBLK
  5
57
100
AcDbEntity
  8
MAIN0
  6
CONTINUOUS
 62
3
100
AcDbBlockEnd
  0
BLOCK
  5
59
100
AcDbEntity
  8
MAIN0
  6
CONTINUOUS
 62
3
100
AcDbBlockBegin
  2
D2
 70
    64
 10
0.0
 20
0.0
 30
0.0
  0
LINE
  5
5A
100
AcDbEntity
  8
MAIN0
  6
BYBLOCK
 62
0
100
AcDbLine
 10
-28.37855550105087
 20
-4.772510909946303
 30
0.0000000000000000
 11
-28.37855550099982
 21
26.50000000048551
 31
0.0000000000000000
  0
LINE
  5
5B
100
AcDbEntity
  8
MAIN0
  6
BYBLOCK
 62
0
100
AcDbLine
 10
-28.97855552484495
 20
24.50000000048649
 30
0.0000000000000000
 11
-28.37855550099982
 21
26.50000000048551
 31
0.0000000000000000
  0
LINE
  5
5C
100
AcDbEntity
  8
MAIN0
  6
BYBLOCK
 62
0
100
AcDbLine
 10
-28.37855550099982
 20
26.50000000048551
 30
0.0000000000000000
 11
-27.77855547716123
 21
24.50000000048453
 31
0.0000000000000000
  0
LINE
  5
5D
100
AcDbEntity
  8
MAIN0
  6
BYBLOCK
 62
0
100
AcDbLine
 10
6.221444487031789
 20
26.50000000042393
 30
0.0000000000000000
 11
-30.37855550099982
 21
26.50000000048907
 31
0.0000000000000000
  0
MTEXT
  5
5E
100
AcDbEntity
  8
MAIN0
  6
BYBLOCK
 62
0
100
AcDbMText
 10
-30.42855545335834
 20
0.6274890922896871
 30
0.0000000000000000
 40
3.099999904632568
 41
0.0000000000000000
 71
     5
 72
     1
  1
\A1;\U+220553
 11
6.123233995736766e-017
 21
1.000000000000000
 31
0.0000000000000000
  7
STANDARD
  0
ENDBLK
  5
5F
100
AcDbEntity
  8
MAIN0
  6
CONTINUOUS
 62
3
100
AcDbBlockEnd
  0
BLOCK
  5
61
100
AcDbEntity
  8
MAIN0
  6
CONTINUOUS
 62
3
100
AcDbBlockBegin
  2
*D3
 70
    65
 10
0.0
 20
0.0
 30
0.0
  0
LINE
  5
62
100
AcDbEntity
  8
MAIN0
  6
BYBLOCK
 62
0
100
AcDbLine
 10
210.2298560575221
 20
234.2187686739932
 30
0.0000000000000000
 11
152.8298560693779
 21
234.2187686739932
 31
0.0000000000000000
  0
LINE
  5
63
100
AcDbEntity
  8
MAIN0
  6
BYBLOCK
 62
0
100
AcDbLine
 10
154.8298560693779
 20
232.2187686739932
 30
0.0000000000000000
 11
154.8298560693779
 21
154.2187686739932
 31
0.0000000000000000
  0
INSERT
  5
64
100
AcDbEntity
  8
MAIN0
  6
BYBLOCK
 62
0
100
AcDbBlockReference
  2
_OPEN
 10
154.8298560693779
 20
234.2187686739932
 30
0.0000000000000000
 41
2.000000000000000
 42
2.000000000000000
 43
2.000000000000000
 50
90.00000000000000
  0
INSERT
  5
65
100
AcDbEntity
  8
MAIN0
  6
BYBLOCK
 62
0
100
AcDbBlockReference
  2
_OPEN
 10
154.8298560693779
 20
152.2187686739932
 30
0.0000000000000000
 41
2.000000000000000
 42
2.000000000000000
 43
2.000000000000000
 50
270.0000000000000
  0
LINE
  5
66
100
AcDbEntity
  8
MAIN0
  6
BYBLOCK
 62
0
100
AcDbLine
 10
210.4298560575222
 20
152.2187686739932
 30
0.0000000000000000
 11
152.8298560693779
 21
152.2187686739932
 31
0.0000000000000000
  0
MTEXT
  5
67
100
AcDbEntity
  8
MAIN0
  6
BYBLOCK
 62
0
100
AcDbMText
 10
152.7798561170616
 20
193.2187686739932
 30
0.0000000000000000
 40
3.099999904632568
 41
0.0000000000000000
 71
     5
 72
     1
  1
\A1;\U+220582
 11
6.123233995736766e-017
 21
1.000000000000000
 31
0.0000000000000000
  7
STANDARD
  0
ENDBLK
  5
68
100
AcDbEntity
  8
MAIN0
  6
CONTINUOUS
 62
3
100
AcDbBlockEnd
  0
BLOCK
  5
6A
100
AcDbEntity
  8
MAIN0
  6
CONTINUOUS
 62
3
100
AcDbBlockBegin
  2
*D4
 70
    65
 10
0.0
 20
0.0
 30
0.0
  0
LINE
  5
6B
100
AcDbEntity
  8
MAIN0
  6
BYBLOCK
 62
0
100
AcDbLine
 10
199.8298560693737
 20
220.1187686859084
 30
0.0000000000000000
 11
199.8298560693737
 21
224.1975090167881
 31
0.0000000000000000
  0
LINE
  5
6C
100
AcDbEntity
  8
MAIN0
  6
BYBLOCK
 62
0
100
AcDbLine
 10
199.8298560693737
 20
222.1975090167881
 30
0.0000000000000000
 11
203.8298560693808
 21
222.1975090167881
 31
0.0000000000000000
  0
INSERT
  5
6D
100
AcDbEntity
  8
MAIN0
  6
BYBLOCK
 62
0
100
AcDbBlockReference
  2
_OPEN
 10
199.8298560693737
 20
222.1975090167881
 30
0.0000000000000000
 41
2.000000000000000
 42
2.000000000000000
 43
2.000000000000000
 50
0.0000000000000000
  0
INSERT
  5
6E
100
AcDbEntity
  8
MAIN0
  6
BYBLOCK
 62
0
100
AcDbBlockReference
  2
_OPEN
 10
203.8298560693808
 20
222.1975090167881
 30
0.0000000000000000
 41
2.000000000000000
 42
2.000000000000000
 43
2.000000000000000
 50
180.0000000000000
  0
LINE
  5
6F
100
AcDbEntity
  8
MAIN0
  6
BYBLOCK
 62
0
100
AcDbLine
 10
197.8298560693737
 20
222.1975090167881
 30
0.0000000000000000
 11
196.8298560693737
 21
222.1975090167881
 31
0.0000000000000000
  0
LINE
  5
70
100
AcDbEntity
  8
MAIN0
  6
BYBLOCK
 62
0
100
AcDbLine
 10
205.8298560693808
 20
222.1975090167881
 30
0.0000000000000000
 11
206.8298560693808
 21
222.1975090167881
 31
0.0000000000000000
  0
LINE
  5
71
100
AcDbEntity
  8
MAIN0
  6
BYBLOCK
 62
0
100
AcDbLine
 10
203.8298560693808
 20
220.1187686859088
 30
0.0000000000000000
 11
203.8298560693808
 21
224.1975090167881
 31
0.0000000000000000
  0
MTEXT
  5
72
100
AcDbEntity
  8
MAIN0
  6
BYBLOCK
 62
0
100
AcDbMText
 10
201.8298560693772
 20
224.2475089691043
 30
0.0000000000000000
 40
3.099999904632568
 41
0.0000000000000000
 71
     5
 72
     1
  1
\A1;4
 11
1.000000000000000
 21
0.0000000000000000
 31
0.0000000000000000
  7
STANDARD
  0
ENDBLK
  5
73
100
AcDbEntity
  8
MAIN0
  6
CONTINUOUS
 62
3
100
AcDbBlockEnd
  0
BLOCK
  5
75
100
AcDbEntity
  8
MAIN0
  6
CONTINUOUS
 62
3
100
AcDbBlockBegin
  2
*D5
 70
    65
 10
0.0
 20
0.0
 30
0.0
  0
LINE
  5
76
100
AcDbEntity
  8
MAIN0
  6
BYBLOCK
 62
0
100
AcDbLine
 10
194.8298560693795
 20
179.7187686624361
 30
0.0000000000000000
 11
194.8298560693795
 21
134.3566017624530
 31
0.0000000000000000
  0
LINE
  5
77
100
AcDbEntity
  8
MAIN0
  6
BYBLOCK
 62
0
100
AcDbLine
 10
194.8298560693795
 20
136.3566017624530
 30
0.0000000000000000
 11
199.8298560693806
 21
136.3566017624530
 31
0.0000000000000000
  0
INSERT
  5
78
100
AcDbEntity
  8
MAIN0
  6
BYBLOCK
 62
0
100
AcDbBlockReference
  2
_OPEN
 10
194.8298560693795
 20
136.3566017624530
 30
0.0000000000000000
 41
2.000000000000000
 42
2.000000000000000
 43
2.000000000000000
 50
0.0000000000000000
  0
INSERT
  5
79
100
AcDbEntity
  8
MAIN0
  6
BYBLOCK
 62
0
100
AcDbBlockReference
  2
_OPEN
 10
199.8298560693806
 20
136.3566017624530
 30
0.0000000000000000
 41
2.000000000000000
 42
2.000000000000000
 43
2.000000000000000
 50
180.0000000000000
  0
LINE
  5
7A
100
AcDbEntity
  8
MAIN0
  6
BYBLOCK
 62
0
100
AcDbLine
 10
192.8298560693795
 20
136.3566017624530
 30
0.0000000000000000
 11
191.8298560693795
 21
136.3566017624530
 31
0.0000000000000000
  0
LINE
  5
7B
100
AcDbEntity
  8
MAIN0
  6
BYBLOCK
 62
0
100
AcDbLine
 10
201.8298560693806
 20
136.3566017624530
 30
0.0000000000000000
 11
202.8298560693806
 21
136.3566017624530
 31
0.0000000000000000
  0
LINE
  5
7C
100
AcDbEntity
  8
MAIN0
  6
BYBLOCK
 62
0
100
AcDbLine
 10
199.8298560693806
 20
169.3187686620664
 30
0.0000000000000000
 11
199.8298560693806
 21
134.3566017624530
 31
0.0000000000000000
  0
MTEXT
  5
7D
100
AcDbEntity
  8
MAIN0
  6
BYBLOCK
 62
0
100
AcDbMText
 10
197.3298560693800
 20
138.4066017147693
 30
0.0000000000000000
 40
3.099999904632568
 41
0.0000000000000000
 71
     5
 72
     1
  1
\A1;5
 11
1.000000000000000
 21
0.0000000000000000
 31
0.0000000000000000
  7
STANDARD
  0
ENDBLK
  5
7E
100
AcDbEntity
  8
MAIN0
  6
CONTINUOUS
 62
3
100
AcDbBlockEnd
  0
BLOCK
  5
80
100
AcDbEntity
  8
MAIN0
  6
CONTINUOUS
 62
3
100
AcDbBlockBegin
  2
*D6
 70
    65
 10
0.0
 20
0.0
 30
0.0
  0
LINE
  5
81
100
AcDbEntity
  8
MAIN0
  6
BYBLOCK
 62
0
100
AcDbLine
 10
199.8298560693806
 20
169.3187686620664
 30
0.0000000000000000
 11
199.8298560693806
 21
134.3566017624530
 31
0.0000000000000000
  0
LINE
  5
82
100
AcDbEntity
  8
MAIN0
  6
BYBLOCK
 62
0
100
AcDbLine
 10
201.8298560693806
 20
136.3566017624530
 30
0.0000000000000000
 11
229.4298560694430
 21
136.3566017624530
 31
0.0000000000000000
  0
INSERT
  5
83
100
AcDbEntity
  8
MAIN0
  6
BYBLOCK
 62
0
100
AcDbBlockReference
  2
_OPEN
 10
199.8298560693806
 20
136.3566017624530
 30
0.0000000000000000
 41
2.000000000000000
 42
2.000000000000000
 43
2.000000000000000
 50
180.0000000000000
  0
INSERT
  5
84
100
AcDbEntity
  8
MAIN0
  6
BYBLOCK
 62
0
100
AcDbBlockReference
  2
_OPEN
 10
231.4298560694430
 20
136.3566017624530
 30
0.0000000000000000
 41
2.000000000000000
 42
2.000000000000000
 43
2.000000000000000
 50
0.0000000000000000
  0
LINE
  5
85
100
AcDbEntity
  8
MAIN0
  6
BYBLOCK
 62
0
100
AcDbLine
 10
231.4298560694430
 20
164.4187686620723
 30
0.0000000000000000
 11
231.4298560694430
 21
134.3566017624530
 31
0.0000000000000000
  0
MTEXT
  5
86
100
AcDbEntity
  8
MAIN0
  6
BYBLOCK
 62
0
100
AcDbMText
 10
215.6298560694118
 20
138.4066017147693
 30
0.0000000000000000
 40
3.099999904632568
 41
0.0000000000000000
 71
     5
 72
     1
  1
\A1;31.6
 11
1.000000000000000
 21
0.0000000000000000
 31
0.0000000000000000
  7
STANDARD
  0
ENDBLK
  5
87
100
AcDbEntity
  8
MAIN0
  6
CONTINUOUS
 62
3
100
AcDbBlockEnd
  0
BLOCK
  5
89
100
AcDbEntity
  8
MAIN0
  6
CONTINUOUS
 62
3
100
AcDbBlockBegin
  2
*D7
 70
    65
 10
0.0
 20
0.0
 30
0.0
  0
LINE
  5
8A
100
AcDbEntity
  8
MAIN0
  6
BYBLOCK
 62
0
100
AcDbLine
 10
231.4298560694430
 20
164.4187686620723
 30
0.0000000000000000
 11
231.4298560694430
 21
134.3566017624530
 31
0.0000000000000000
  0
LINE
  5
8B
100
AcDbEntity
  8
MAIN0
  6
BYBLOCK
 62
0
100
AcDbLine
 10
231.4298560694430
 20
136.3566017624530
 30
0.0000000000000000
 11
231.9298560694430
 21
136.3566017624530
 31
0.0000000000000000
  0
INSERT
  5
8C
100
AcDbEntity
  8
MAIN0
  6
BYBLOCK
 62
0
100
AcDbBlockReference
  2
_OPEN
 10
231.4298560694430
 20
136.3566017624530
 30
0.0000000000000000
 41
2.000000000000000
 42
2.000000000000000
 43
2.000000000000000
 50
0.0000000000000000
  0
INSERT
  5
8D
100
AcDbEntity
  8
MAIN0
  6
BYBLOCK
 62
0
100
AcDbBlockReference
  2
_OPEN
 10
231.9298560694430
 20
136.3566017624530
 30
0.0000000000000000
 41
2.000000000000000
 42
2.000000000000000
 43
2.000000000000000
 50
180.0000000000000
  0
LINE
  5
8E
100
AcDbEntity
  8
MAIN0
  6
BYBLOCK
 62
0
100
AcDbLine
 10
229.4298560694430
 20
136.3566017624530
 30
0.0000000000000000
 11
228.4298560694430
 21
136.3566017624530
 31
0.0000000000000000
  0
LINE
  5
8F
100
AcDbEntity
  8
MAIN0
  6
BYBLOCK
 62
0
100
AcDbLine
 10
233.9298560694430
 20
136.3566017624530
 30
0.0000000000000000
 11
240.0595424250338
 21
136.3566017624530
 31
0.0000000000000000
  0
LINE
  5
90
100
AcDbEntity
  8
MAIN0
  6
BYBLOCK
 62
0
100
AcDbLine
 10
231.9298560694430
 20
186.6819083825593
 30
0.0000000000000000
 11
231.9298560694430
 21
134.3566017624530
 31
0.0000000000000000
  0
MTEXT
  5
91
100
AcDbEntity
  8
MAIN0
  6
BYBLOCK
 62
0
100
AcDbMText
 10
237.4095425614298
 20
138.4066017147693
 30
0.0000000000000000
 40
3.099999904632568
 41
0.0000000000000000
 71
     5
 72
     1
  1
\A1;0.5
 11
1.000000000000000
 21
0.0000000000000000
 31
0.0000000000000000
  7
STANDARD
  0
ENDBLK
  5
92
100
AcDbEntity
  8
MAIN0
  6
CONTINUOUS
 62
3
100
AcDbBlockEnd
  0
BLOCK
  5
94
100
AcDbEntity
  8
MAIN0
  6
CONTINUOUS
 62
3
100
AcDbBlockBegin
  2
*D8
 70
    65
 10
0.0
 20
0.0
 30
0.0
  0
LINE
  5
95
100
AcDbEntity
  8
MAIN0
  6
BYBLOCK
 62
0
100
AcDbLine
 10
199.8298560693818
 20
169.3187686620664
 30
0.0000000000000000
 11
199.8298560694220
 21
142.0199539277127
 31
0.0000000000000000
  0
LINE
  5
96
100
AcDbEntity
  8
MAIN0
  6
BYBLOCK
 62
0
100
AcDbLine
 10
201.8298560694190
 20
144.0199539277127
 30
0.0000000000000000
 11
210.8298560695478
 21
144.0199539277127
 31
0.0000000000000000
  0
INSERT
  5
97
100
AcDbEntity
  8
MAIN0
  6
BYBLOCK
 62
0
100
AcDbBlockReference
  2
_OPEN
 10
199.8298560694190
 20
144.0199539277127
 30
0.0000000000000000
 41
2.000000000000000
 42
2.000000000000000
 43
2.000000000000000
 50
180.0000000000000
  0
INSERT
  5
98
100
AcDbEntity
  8
MAIN0
  6
BYBLOCK
 62
0
100
AcDbBlockReference
  2
_OPEN
 10
212.8298560695478
 20
144.0199539277127
 30
0.0000000000000000
 41
2.000000000000000
 42
2.000000000000000
 43
2.000000000000000
 50
0.0000000000000000
  0
LINE
  5
99
100
AcDbEntity
  8
MAIN0
  6
BYBLOCK
 62
0
100
AcDbLine
 10
212.8298560695478
 20
155.3187686614508
 30
0.0000000000000000
 11
212.8298560695478
 21
142.0199539277127
 31
0.0000000000000000
  0
MTEXT
  5
9A
100
AcDbEntity
  8
MAIN0
  6
BYBLOCK
 62
0
100
AcDbMText
 10
206.3298560694834
 20
146.0699538800290
 30
0.0000000000000000
 40
3.099999904632568
 41
0.0000000000000000
 71
     5
 72
     1
  1
\A1;13
 11
1.000000000000000
 21
0.0000000000000000
 31
0.0000000000000000
  7
STANDARD
  0
ENDBLK
  5
9B
100
AcDbEntity
  8
MAIN0
  6
CONTINUOUS
 62
3
100
AcDbBlockEnd
  0
BLOCK
  5
9D
100
AcDbEntity
  8
MAIN0
  6
CONTINUOUS
 62
3
100
AcDbBlockBegin
  2
*D9
 70
    65
 10
0.0
 20
0.0
 30
0.0
  0
LINE
  5
9E
100
AcDbEntity
  8
MAIN0
  6
BYBLOCK
 62
0
100
AcDbLine
 10
232.4298560694430
 20
234.8187686856191
 30
0.0000000000000000
 11
232.4298560694430
 21
248.4225747287146
 31
0.0000000000000000
  0
LINE
  5
9F
100
AcDbEntity
  8
MAIN0
  6
BYBLOCK
 62
0
100
AcDbLine
 10
232.4298560694430
 20
246.4225747287146
 30
0.0000000000000000
 11
229.4298560694430
 21
246.4225747287146
 31
0.0000000000000000
  0
INSERT
  5
A0
100
AcDbEntity
  8
MAIN0
  6
BYBLOCK
 62
0
100
AcDbBlockReference
  2
_OPEN
 10
232.4298560694430
 20
246.4225747287146
 30
0.0000000000000000
 41
2.000000000000000
 42
2.000000000000000
 43
2.000000000000000
 50
180.0000000000000
  0
INSERT
  5
A1
100
AcDbEntity
  8
MAIN0
  6
BYBLOCK
 62
0
100
AcDbBlockReference
  2
_OPEN
 10
229.4298560694430
 20
246.4225747287146
 30
0.0000000000000000
 41
2.000000000000000
 42
2.000000000000000
 43
2.000000000000000
 50
360.0000000000000
  0
LINE
  5
A2
100
AcDbEntity
  8
MAIN0
  6
BYBLOCK
 62
0
100
AcDbLine
 10
234.4298560694430
 20
246.4225747287146
 30
0.0000000000000000
 11
235.4298560694430
 21
246.4225747287146
 31
0.0000000000000000
  0
LINE
  5
A3
100
AcDbEntity
  8
MAIN0
  6
BYBLOCK
 62
0
100
AcDbLine
 10
227.4298560694430
 20
246.4225747287146
 30
0.0000000000000000
 11
224.8893849924777
 21
246.4225747287146
 31
0.0000000000000000
  0
LINE
  5
A4
100
AcDbEntity
  8
MAIN0
  6
BYBLOCK
 62
0
100
AcDbLine
 10
229.4298560694430
 20
227.0187686856191
 30
0.0000000000000000
 11
229.4298560694430
 21
248.4225747287146
 31
0.0000000000000000
  0
MTEXT
  5
A5
100
AcDbEntity
  8
MAIN0
  6
BYBLOCK
 62
0
100
AcDbMText
 10
225.9393849135822
 20
248.4725746810309
 30
0.0000000000000000
 40
3.099999904632568
 41
0.0000000000000000
 71
     5
 72
     1
  1
\A1;3
 11
1.000000000000000
 21
0.0000000000000000
 31
0.0000000000000000
  7
STANDARD
  0
ENDBLK
  5
A6
100
AcDbEntity
  8
MAIN0
  6
CONTINUOUS
 62
3
100
AcDbBlockEnd
  0
BLOCK
  5
A8
100
AcDbEntity
  8
MAIN0
  6
CONTINUOUS
 62
3
100
AcDbBlockBegin
  2
*D10
 70
    65
 10
0.0
 20
0.0
 30
0.0
  0
LINE
  5
A9
100
AcDbEntity
  8
MAIN0
  6
BYBLOCK
 62
0
100
AcDbLine
 10
218.9298560694428
 20
234.6187686856193
 30
0.0000000000000000
 11
218.9298560694428
 21
241.7701301883556
 31
0.0000000000000000
  0
LINE
  5
AA
100
AcDbEntity
  8
MAIN0
  6
BYBLOCK
 62
0
100
AcDbLine
 10
218.9298560694428
 20
239.7701301883556
 30
0.0000000000000000
 11
222.9298560694427
 21
239.7701301883556
 31
0.0000000000000000
  0
INSERT
  5
AB
100
AcDbEntity
  8
MAIN0
  6
BYBLOCK
 62
0
100
AcDbBlockReference
  2
_OPEN
 10
218.9298560694428
 20
239.7701301883556
 30
0.0000000000000000
 41
2.000000000000000
 42
2.000000000000000
 43
2.000000000000000
 50
0.0000000000000000
  0
INSERT
  5
AC
100
AcDbEntity
  8
MAIN0
  6
BYBLOCK
 62
0
100
AcDbBlockReference
  2
_OPEN
 10
222.9298560694427
 20
239.7701301883556
 30
0.0000000000000000
 41
2.000000000000000
 42
2.000000000000000
 43
2.000000000000000
 50
180.0000000000000
  0
LINE
  5
AD
100
AcDbEntity
  8
MAIN0
  6
BYBLOCK
 62
0
100
AcDbLine
 10
216.9298560694428
 20
239.7701301883556
 30
0.0000000000000000
 11
211.5596773699494
 21
239.7701301883556
 31
0.0000000000000000
  0
LINE
  5
AE
100
AcDbEntity
  8
MAIN0
  6
BYBLOCK
 62
0
100
AcDbLine
 10
224.9298560694427
 20
239.7701301883556
 30
0.0000000000000000
 11
225.9298560694427
 21
239.7701301883556
 31
0.0000000000000000
  0
LINE
  5
AF
100
AcDbEntity
  8
MAIN0
  6
BYBLOCK
 62
0
100
AcDbLine
 10
222.9298560694427
 20
234.6187686856193
 30
0.0000000000000000
 11
222.9298560694427
 21
241.7701301883556
 31
0.0000000000000000
  0
MTEXT
  5
B0
100
AcDbEntity
  8
MAIN0
  6
BYBLOCK
 62
0
100
AcDbMText
 10
213.9096772201018
 20
241.8201301406719
 30
0.0000000000000000
 40
3.099999904632568
 41
0.0000000000000000
 71
     5
 72
     1
  1
\A1;\U+22054
 11
1.000000000000000
 21
0.0000000000000000
 31
0.0000000000000000
  7
STANDARD
  0
ENDBLK
  5
B1
100
AcDbEntity
  8
MAIN0
  6
CONTINUOUS
 62
3
100
AcDbBlockEnd
  0
BLOCK
  5
B3
100
AcDbEntity
  8
MAIN0
  6
CONTINUOUS
 62
3
100
AcDbBlockBegin
  2
*D11
 70
    65
 10
0.0
 20
0.0
 30
0.0
  0
LINE
  5
B4
100
AcDbEntity
  8
MAIN0
  6
BYBLOCK
 62
0
100
AcDbLine
 10
210.2298560575221
 20
234.2187686739932
 30
0.0000000000000000
 11
204.5632955390387
 21
234.2187686739932
 31
0.0000000000000000
  0
LINE
  5
B5
100
AcDbEntity
  8
MAIN0
  6
BYBLOCK
 62
0
100
AcDbLine
 10
206.5632955390387
 20
232.2187686739932
 30
0.0000000000000000
 11
206.5632955390387
 21
228.2187686736982
 31
0.0000000000000000
  0
INSERT
  5
B6
100
AcDbEntity
  8
MAIN0
  6
BYBLOCK
 62
0
100
AcDbBlockReference
  2
_OPEN
 10
206.5632955390387
 20
234.2187686739932
 30
0.0000000000000000
 41
2.000000000000000
 42
2.000000000000000
 43
2.000000000000000
 50
90.00000000000000
  0
INSERT
  5
B7
100
AcDbEntity
  8
MAIN0
  6
BYBLOCK
 62
0
100
AcDbBlockReference
  2
_OPEN
 10
206.5632955390387
 20
226.2187686736982
 30
0.0000000000000000
 41
2.000000000000000
 42
2.000000000000000
 43
2.000000000000000
 50
270.0000000000000
  0
LINE
  5
B8
100
AcDbEntity
  8
MAIN0
  6
BYBLOCK
 62
0
100
AcDbLine
 10
218.1298560575223
 20
226.2187686736982
 30
0.0000000000000000
 11
204.5632955390387
 21
226.2187686736982
 31
0.0000000000000000
  0
MTEXT
  5
B9
100
AcDbEntity
  8
MAIN0
  6
BYBLOCK
 62
0
100
AcDbMText
 10
204.5132955867224
 20
230.2187686738457
 30
0.0000000000000000
 40
3.099999904632568
 41
0.0000000000000000
 71
     5
 72
     1
  1
\A1;8
 11
6.123233995736766e-017
 21
1.000000000000000
 31
0.0000000000000000
  7
STANDARD
  0
ENDBLK
  5
BA
100
AcDbEntity
  8
MAIN0
  6
CONTINUOUS
 62
3
100
AcDbBlockEnd
  0
BLOCK
  5
BC
100
AcDbEntity
  8
MAIN0
  6
CONTINUOUS
 62
3
100
AcDbBlockBegin
  2
*D12
 70
    65
 10
0.0
 20
0.0
 30
0.0
  0
LINE
  5
BD
100
AcDbEntity
  8
MAIN0
  6
BYBLOCK
 62
0
100
AcDbLine
 10
233.0298560813639
 20
234.2187686736983
 30
0.0000000000000000
 11
253.1813000125973
 21
234.2187686737001
 31
0.0000000000000000
  0
LINE
  5
BE
100
AcDbEntity
  8
MAIN0
  6
BYBLOCK
 62
0
100
AcDbLine
 10
251.1813000125973
 20
234.2187686736999
 30
0.0000000000000000
 11
251.1813000125973
 21
230.2187686737378
 31
0.0000000000000000
  0
INSERT
  5
BF
100
AcDbEntity
  8
MAIN0
  6
BYBLOCK
 62
0
100
AcDbBlockReference
  2
_OPEN
 10
251.1813000125973
 20
234.2187686736999
 30
0.0000000000000000
 41
2.000000000000000
 42
2.000000000000000
 43
2.000000000000000
 50
270.0000000000000
  0
INSERT
  5
C0
100
AcDbEntity
  8
MAIN0
  6
BYBLOCK
 62
0
100
AcDbBlockReference
  2
_OPEN
 10
251.1813000125973
 20
230.2187686737378
 30
0.0000000000000000
 41
2.000000000000000
 42
2.000000000000000
 43
2.000000000000000
 50
90.00000000000000
  0
LINE
  5
C1
100
AcDbEntity
  8
MAIN0
  6
BYBLOCK
 62
0
100
AcDbLine
 10
251.1813000125973
 20
236.2187686736999
 30
0.0000000000000000
 11
251.1813000125973
 21
237.2187686736999
 31
0.0000000000000000
  0
LINE
  5
C2
100
AcDbEntity
  8
MAIN0
  6
BYBLOCK
 62
0
100
AcDbLine
 10
251.1813000125973
 20
228.2187686737378
 30
0.0000000000000000
 11
251.1813000125973
 21
227.2187686737378
 31
0.0000000000000000
  0
LINE
  5
C3
100
AcDbEntity
  8
MAIN0
  6
BYBLOCK
 62
0
100
AcDbLine
 10
235.0396667076468
 20
230.2187686737378
 30
0.0000000000000000
 11
253.1813000125973
 21
230.2187686737378
 31
0.0000000000000000
  0
MTEXT
  5
C4
100
AcDbEntity
  8
MAIN0
  6
BYBLOCK
 62
0
100
AcDbMText
 10
249.1313000602810
 20
232.2187686737188
 30
0.0000000000000000
 40
3.099999904632568
 41
0.0000000000000000
 71
     5
 72
     1
  1
\A1;4
 11
6.123233995736766e-017
 21
1.000000000000000
 31
0.0000000000000000
  7
STANDARD
  0
ENDBLK
  5
C5
100
AcDbEntity
  8
MAIN0
  6
CONTINUOUS
 62
3
100
AcDbBlockEnd
  0
BLOCK
  5
C7
100
AcDbEntity
  8
MAIN0
  6
CONTINUOUS
 62
3
100
AcDbBlockBegin
  2
*D13
 70
    65
 10
0.0
 20
0.0
 30
0.0
  0
LINE
  5
C8
100
AcDbEntity
  8
MAIN0
  6
BYBLOCK
 62
0
100
AcDbLine
 10
235.0396667076468
 20
230.2187686737378
 30
0.0000000000000000
 11
253.1813000125973
 21
230.2187686737378
 31
0.0000000000000000
  0
LINE
  5
C9
100
AcDbEntity
  8
MAIN0
  6
BYBLOCK
 62
0
100
AcDbLine
 10
251.1813000125973
 20
228.2187686737361
 30
0.0000000000000000
 11
251.1813000125973
 21
219.2187686737396
 31
0.0000000000000000
  0
INSERT
  5
CA
100
AcDbEntity
  8
MAIN0
  6
BYBLOCK
 62
0
100
AcDbBlockReference
  2
_OPEN
 10
251.1813000125973
 20
230.2187686737361
 30
0.0000000000000000
 41
2.000000000000000
 42
2.000000000000000
 43
2.000000000000000
 50
90.00000000000000
  0
INSERT
  5
CB
100
AcDbEntity
  8
MAIN0
  6
BYBLOCK
 62
0
100
AcDbBlockReference
  2
_OPEN
 10
251.1813000125973
 20
217.2187686737396
 30
0.0000000000000000
 41
2.000000000000000
 42
2.000000000000000
 43
2.000000000000000
 50
270.0000000000000
  0
LINE
  5
CC
100
AcDbEntity
  8
MAIN0
  6
BYBLOCK
 62
0
100
AcDbLine
 10
235.0396667076520
 20
217.2187686737396
 30
0.0000000000000000
 11
253.1813000125973
 21
217.2187686737396
 31
0.0000000000000000
  0
MTEXT
  5
CD
100
AcDbEntity
  8
MAIN0
  6
BYBLOCK
 62
0
100
AcDbMText
 10
249.1313000602810
 20
226.4737291888592
 30
0.0000000000000000
 40
3.099999904632568
 41
0.0000000000000000
 71
     5
 72
     1
  1
\A1;13
 11
6.123233995736766e-017
 21
1.000000000000000
 31
0.0000000000000000
  7
STANDARD
  0
ENDBLK
  5
CE
100
AcDbEntity
  8
MAIN0
  6
CONTINUOUS
 62
3
100
AcDbBlockEnd
  0
BLOCK
  5
D0
100
AcDbEntity
  8
MAIN0
  6
CONTINUOUS
 62
3
100
AcDbBlockBegin
  2
*D14
 70
    65
 10
0.0
 20
0.0
 30
0.0
  0
LINE
  5
D1
100
AcDbEntity
  8
MAIN0
  6
BYBLOCK
 62
0
100
AcDbLine
 10
233.0298560813639
 20
226.2187686736985
 30
0.0000000000000000
 11
244.5200835587938
 21
226.2187686737023
 31
0.0000000000000000
  0
LINE
  5
D2
100
AcDbEntity
  8
MAIN0
  6
BYBLOCK
 62
0
100
AcDbLine
 10
242.5200835587938
 20
226.2187686737016
 30
0.0000000000000000
 11
242.5200835587938
 21
221.2187686737783
 31
0.0000000000000000
  0
INSERT
  5
D3
100
AcDbEntity
  8
MAIN0
  6
BYBLOCK
 62
0
100
AcDbBlockReference
  2
_OPEN
 10
242.5200835587938
 20
226.2187686737016
 30
0.0000000000000000
 41
2.000000000000000
 42
2.000000000000000
 43
2.000000000000000
 50
270.0000000000000
  0
INSERT
  5
D4
100
AcDbEntity
  8
MAIN0
  6
BYBLOCK
 62
0
100
AcDbBlockReference
  2
_OPEN
 10
242.5200835587938
 20
221.2187686737783
 30
0.0000000000000000
 41
2.000000000000000
 42
2.000000000000000
 43
2.000000000000000
 50
90.00000000000000
  0
LINE
  5
D5
100
AcDbEntity
  8
MAIN0
  6
BYBLOCK
 62
0
100
AcDbLine
 10
242.5200835587938
 20
228.2187686737016
 30
0.0000000000000000
 11
242.5200835587938
 21
241.7285629089311
 31
0.0000000000000000
  0
LINE
  5
D6
100
AcDbEntity
  8
MAIN0
  6
BYBLOCK
 62
0
100
AcDbLine
 10
242.5200835587938
 20
219.2187686737783
 30
0.0000000000000000
 11
242.5200835587938
 21
218.2187686737783
 31
0.0000000000000000
  0
LINE
  5
D7
100
AcDbEntity
  8
MAIN0
  6
BYBLOCK
 62
0
100
AcDbLine
 10
233.0298560813664
 20
221.2187686737783
 30
0.0000000000000000
 11
244.5200835587938
 21
221.2187686737783
 31
0.0000000000000000
  0
MTEXT
  5
D8
100
AcDbEntity
  8
MAIN0
  6
BYBLOCK
 62
0
100
AcDbMText
 10
240.4700836064775
 20
238.5785633338434
 30
0.0000000000000000
 40
3.099999904632568
 41
0.0000000000000000
 71
     5
 72
     1
  1
\A1;5H8
 11
6.123233995736766e-017
 21
1.000000000000000
 31
0.0000000000000000
  7
STANDARD
  0
ENDBLK
  5
D9
100
AcDbEntity
  8
MAIN0
  6
CONTINUOUS
 62
3
100
AcDbBlockEnd
  0
BLOCK
  5
DB
100
AcDbEntity
  8
MAIN0
  6
CONTINUOUS
 62
3
100
AcDbBlockBegin
  2
*D15
 70
    65
 10
0.0
 20
0.0
 30
0.0
  0
LINE
  5
DC
100
AcDbEntity
  8
MAIN0
  6
BYBLOCK
 62
0
100
AcDbLine
 10
235.3484615371643
 20
193.2187686734976
 30
0.0000000000000000
 11
260.4859370860554
 21
193.2187686734976
 31
0.0000000000000000
  0
LINE
  5
DD
100
AcDbEntity
  8
MAIN0
  6
BYBLOCK
 62
0
100
AcDbLine
 10
258.4859370860554
 20
195.2187686734976
 30
0.0000000000000000
 11
258.4859370860554
 21
221.7187686737411
 31
0.0000000000000000
  0
INSERT
  5
DE
100
AcDbEntity
  8
MAIN0
  6
BYBLOCK
 62
0
100
AcDbBlockReference
  2
_OPEN
 10
258.4859370860554
 20
193.2187686734976
 30
0.0000000000000000
 41
2.000000000000000
 42
2.000000000000000
 43
2.000000000000000
 50
270.0000000000000
  0
INSERT
  5
DF
100
AcDbEntity
  8
MAIN0
  6
BYBLOCK
 62
0
100
AcDbBlockReference
  2
_OPEN
 10
258.4859370860554
 20
223.7187686737411
 30
0.0000000000000000
 41
2.000000000000000
 42
2.000000000000000
 43
2.000000000000000
 50
90.00000000000000
  0
LINE
  5
E0
100
AcDbEntity
  8
MAIN0
  6
BYBLOCK
 62
0
100
AcDbLine
 10
234.9992984289085
 20
223.7187686737411
 30
0.0000000000000000
 11
260.4859370860554
 21
223.7187686737411
 31
0.0000000000000000
  0
MTEXT
  5
E1
100
AcDbEntity
  8
MAIN0
  6
BYBLOCK
 62
0
100
AcDbMText
 10
256.4359371337391
 20
208.4687686736193
 30
0.0000000000000000
 40
3.099999904632568
 41
0.0000000000000000
 71
     5
 72
     1
  1
\A1;MAX 30.5
 11
6.123233995736766e-017
 21
1.000000000000000
 31
0.0000000000000000
  7
STANDARD
  0
ENDBLK
  5
E2
100
AcDbEntity
  8
MAIN0
  6
CONTINUOUS
 62
3
100
AcDbBlockEnd
  0
BLOCK
  5
E5
100
AcDbEntity
  8
MAIN0
  6
CONTINUOUS
 62
3
100
AcDbBlockBegin
  2
*D16
 70
    65
 10
0.0
 20
0.0
 30
0.0
  0
LINE
  5
E6
100
AcDbEntity
  8
MAIN0
  6
BYBLOCK
 62
0
100
AcDbLine
 10
333.9324279224985
 20
112.8187686735057
 30
0.0000000000000000
 11
333.9324279224985
 21
101.8187686735056
 31
0.0000000000000000
  0
INSERT
  5
E7
100
AcDbEntity
  8
MAIN0
  6
BYBLOCK
 62
0
100
AcDbBlockReference
  2
_OPEN
 10
333.9324279224985
 20
114.8187686735057
 30
0.0000000000000000
 41
2.000000000000000
 42
2.000000000000000
 43
2.000000000000000
 50
90.00000000000000
  0
INSERT
  5
E8
100
AcDbEntity
  8
MAIN0
  6
BYBLOCK
 62
0
100
AcDbBlockReference
  2
_OPEN
 10
333.9324279224985
 20
99.81876867350565
 30
0.0000000000000000
 41
2.000000000000000
 42
2.000000000000000
 43
2.000000000000000
 50
270.0000000000000
  0
LINE
  5
E9
100
AcDbEntity
  8
MAIN0
  6
BYBLOCK
 62
0
100
AcDbLine
 10
335.1798560579736
 20
99.81876867350565
 30
0.0000000000000000
 11
331.9324279224985
 21
99.81876867350565
 31
0.0000000000000000
  0
MTEXT
  5
EA
100
AcDbEntity
  8
MAIN0
  6
BYBLOCK
 62
0
100
AcDbMText
 10
331.8824279701822
 20
107.3187686735057
 30
0.0000000000000000
 40
3.099999904632568
 41
0.0000000000000000
 71
     5
 72
     1
  1
\A1;15
 11
6.123233995736766e-017
 21
1.000000000000000
 31
0.0000000000000000
  7
STANDARD
  0
ENDBLK
  5
EB
100
AcDbEntity
  8
MAIN0
  6
CONTINUOUS
 62
3
100
AcDbBlockEnd
  0
BLOCK
  5
ED
100
AcDbEntity
  8
MAIN0
  6
CONTINUOUS
 62
3
100
AcDbBlockBegin
  2
*D17
 70
    65
 10
0.0
 20
0.0
 30
0.0
  0
LINE
  5
EE
100
AcDbEntity
  8
MAIN0
  6
BYBLOCK
 62
0
100
AcDbLine
 10
329.8298560697270
 20
150.8500159804766
 30
0.0000000000000000
 11
329.8298560697385
 21
145.6521047696290
 31
0.0000000000000000
  0
LINE
  5
EF
100
AcDbEntity
  8
MAIN0
  6
BYBLOCK
 62
0
100
AcDbLine
 10
342.4756574272129
 20
166.0997601474705
 30
0.0000000000000000
 11
349.9323968856857
 21
150.1087307740322
 31
0.0000000000000000
  0
ARC
  5
F0
100
AcDbEntity
  8
MAIN0
  6
BYBLOCK
 62
0
100
AcDbCircle
 10
329.8298560696330
 20
193.2187686747098
 30
0.0000000000000000
 40
45.56666390508079
100
AcDbArc
 50
272.5148112504057
 51
292.4851887493005
  0
INSERT
  5
F1
100
AcDbEntity
  8
MAIN0
  6
BYBLOCK
 62
0
100
AcDbBlockReference
  2
_OPEN
 10
329.8298560697341
 20
147.6521047696290
 30
0.0000000000000000
 41
2.000000000000000
 42
2.000000000000000
 43
2.000000000000000
 50
180.0000000001271
  0
INSERT
  5
F2
100
AcDbEntity
  8
MAIN0
  6
BYBLOCK
 62
0
100
AcDbBlockReference
  2
_OPEN
 10
349.0871603622176
 20
151.9213463481118
 30
0.0000000000000000
 41
2.000000000000000
 42
2.000000000000000
 43
2.000000000000000
 50
24.99999999957913
  0
MTEXT
  5
F3
100
AcDbEntity
  8
MAIN0
  6
BYBLOCK
 62
0
100
AcDbMText
 10
339.2485860153346
 20
150.7336234144217
 30
0.0000000000000000
 40
3.099999904632568
 41
0.0000000000000000
 71
     5
 72
     1
  1
\A1;25\U+00B0
 11
0.9762960071204884
 21
0.2164396139355992
 31
0.0000000000000000
  7
STANDARD
  0
ENDBLK
  5
F4
100
AcDbEntity
  8
MAIN0
  6
CONTINUOUS
 62
3
100
AcDbBlockEnd
  0
BLOCK
  5
F6
100
AcDbEntity
  8
MAIN0
  6
CONTINUOUS
 62
3
100
AcDbBlockBegin
  2
*D18
 70
    65
 10
0.0
 20
0.0
 30
0.0
  0
LINE
  5
F7
100
AcDbEntity
  8
MAIN0
  6
BYBLOCK
 62
0
100
AcDbLine
 10
329.8298560697270
 20
150.8500159804766
 30
0.0000000000000000
 11
329.8298560697520
 21
139.5738108657688
 31
0.0000000000000000
  0
LINE
  5
F8
100
AcDbEntity
  8
MAIN0
  6
BYBLOCK
 62
0
100
AcDbLine
 10
368.7585901561321
 20
170.7432535693677
 30
0.0000000000000000
 11
376.2877523160528
 21
166.3962897695375
 31
0.0000000000000000
  0
ARC
  5
F9
100
AcDbEntity
  8
MAIN0
  6
BYBLOCK
 62
0
100
AcDbCircle
 10
329.8298560696330
 20
193.2187686735625
 30
0.0000000000000000
 40
51.64495780779369
100
AcDbArc
 50
272.2188334330566
 51
327.7811665669125
  0
INSERT
  5
FA
100
AcDbEntity
  8
MAIN0
  6
BYBLOCK
 62
0
100
AcDbBlockReference
  2
_OPEN
 10
329.8298560697476
 20
141.5738108657688
 30
0.0000000000000000
 41
2.000000000000000
 42
2.000000000000000
 43
2.000000000000000
 50
180.0000000001271
  0
INSERT
  5
FB
100
AcDbEntity
  8
MAIN0
  6
BYBLOCK
 62
0
100
AcDbBlockReference
  2
_OPEN
 10
374.5557015084866
 20
167.3962897695423
 30
0.0000000000000000
 41
2.000000000000000
 42
2.000000000000000
 43
2.000000000000000
 50
59.99999999984198
  0
MTEXT
  5
FC
100
AcDbEntity
  8
MAIN0
  6
BYBLOCK
 62
0
100
AcDbMText
 10
354.6273349973601
 20
150.2682752710937
 30
0.0000000000000000
 40
3.099999904632568
 41
0.0000000000000000
 71
     5
 72
     1
  1
\A1;60\U+00B0
 11
0.8660254037845739
 21
0.4999999999997656
 31
0.0000000000000000
  7
STANDARD
  0
ENDBLK
  5
FD
100
AcDbEntity
  8
MAIN0
  6
CONTINUOUS
 62
3
100
AcDbBlockEnd
  0
BLOCK
  5
FF
100
AcDbEntity
  8
MAIN0
  6
CONTINUOUS
 62
3
100
AcDbBlockBegin
  2
*D19
 70
    65
 10
0.0
 20
0.0
 30
0.0
  0
LINE
  5
100
100
AcDbEntity
  8
MAIN0
  6
BYBLOCK
 62
0
100
AcDbLine
 10
368.7585901561321
 20
170.7432535693677
 30
0.0000000000000000
 11
376.2877523160528
 21
166.3962897695375
 31
0.0000000000000000
  0
LINE
  5
101
100
AcDbEntity
  8
MAIN0
  6
BYBLOCK
 62
0
100
AcDbLine
 10
374.8263443237377
 20
193.2187686736448
 30
0.0000000000000000
 11
383.4748138774267
 21
193.2187686735377
 31
0.0000000000000000
  0
ARC
  5
102
100
AcDbEntity
  8
MAIN0
  6
BYBLOCK
 62
0
100
AcDbCircle
 10
329.8298560696330
 20
193.2187686735625
 30
0.0000000000000000
 40
51.64495780779369
100
AcDbArc
 50
332.2188334327714
 51
357.7811665670706
  0
INSERT
  5
103
100
AcDbEntity
  8
MAIN0
  6
BYBLOCK
 62
0
100
AcDbBlockReference
  2
_OPEN
 10
374.5557015084866
 20
167.3962897695423
 30
0.0000000000000000
 41
2.000000000000000
 42
2.000000000000000
 43
2.000000000000000
 50
239.9999999998420
  0
INSERT
  5
104
100
AcDbEntity
  8
MAIN0
  6
BYBLOCK
 62
0
100
AcDbBlockReference
  2
_OPEN
 10
381.4748138774267
 20
193.2187686735625
 30
0.0000000000000000
 41
2.000000000000000
 42
2.000000000000000
 43
2.000000000000000
 50
90.00000000000000
  0
MTEXT
  5
105
100
AcDbEntity
  8
MAIN0
  6
BYBLOCK
 62
0
100
AcDbMText
 10
377.7349067159389
 20
180.3826490394420
 30
0.0000000000000000
 40
3.099999904632568
 41
0.0000000000000000
 71
     5
 72
     1
  1
\A1;30\U+00B0
 11
0.2588190451038528
 21
0.9659258262887114
 31
0.0000000000000000
  7
STANDARD
  0
ENDBLK
  5
106
100
AcDbEntity
  8
MAIN0
  6
CONTINUOUS
 62
3
100
AcDbBlockEnd
  0
BLOCK
  5
108
100
AcDbEntity
  8
MAIN0
  6
CONTINUOUS
 62
3
100
AcDbBlockBegin
  2
*D20
 70
    65
 10
0.0
 20
0.0
 30
0.0
  0
LINE
  5
109
100
AcDbEntity
  8
MAIN0
  6
BYBLOCK
 62
0
100
AcDbLine
 10
374.8263443237377
 20
193.2187686736448
 30
0.0000000000000000
 11
383.4748138774267
 21
193.2187686735377
 31
0.0000000000000000
  0
LINE
  5
10A
100
AcDbEntity
  8
MAIN0
  6
BYBLOCK
 62
0
100
AcDbLine
 10
368.9141743412038
 20
215.7841103491214
 30
0.0000000000000000
 11
376.2877523159340
 21
220.0412475777932
 31
0.0000000000000000
  0
ARC
  5
10B
100
AcDbEntity
  8
MAIN0
  6
BYBLOCK
 62
0
100
AcDbCircle
 10
329.8298560696330
 20
193.2187686735625
 30
0.0000000000000000
 40
51.64495780779369
100
AcDbArc
 50
2.218833432929473
 51
27.78116656748231
  0
INSERT
  5
10C
100
AcDbEntity
  8
MAIN0
  6
BYBLOCK
 62
0
100
AcDbBlockReference
  2
_OPEN
 10
381.4748138774267
 20
193.2187686735625
 30
0.0000000000000000
 41
2.000000000000000
 42
2.000000000000000
 43
2.000000000000000
 50
270.0000000000000
  0
INSERT
  5
10D
100
AcDbEntity
  8
MAIN0
  6
BYBLOCK
 62
0
100
AcDbBlockReference
  2
_OPEN
 10
374.5557015083723
 20
219.0412475777808
 30
0.0000000000000000
 41
2.000000000000000
 42
2.000000000000000
 43
2.000000000000000
 50
120.0000000004118
  0
MTEXT
  5
10E
100
AcDbEntity
  8
MAIN0
  6
BYBLOCK
 62
0
100
AcDbMText
 10
377.7349067159104
 20
206.0548883077890
 30
0.0000000000000000
 40
3.099999904632568
 41
0.0000000000000000
 71
     5
 72
     1
  1
\A1;30\U+00B0
 11
-0.2588190451059917
 21
0.9659258262881383
 31
0.0000000000000000
  7
STANDARD
  0
ENDBLK
  5
10F
100
AcDbEntity
  8
MAIN0
  6
CONTINUOUS
 62
3
100
AcDbBlockEnd
  0
BLOCK
  5
111
100
AcDbEntity
  8
MAIN0
  6
CONTINUOUS
 62
3
100
AcDbBlockBegin
  2
*D21
 70
    65
 10
0.0
 20
0.0
 30
0.0
  0
LINE
  5
112
100
AcDbEntity
  8
MAIN0
  6
BYBLOCK
 62
0
100
AcDbLine
 10
368.9141743412038
 20
215.7841103491214
 30
0.0000000000000000
 11
376.2877523159340
 21
220.0412475777932
 31
0.0000000000000000
  0
LINE
  5
113
100
AcDbEntity
  8
MAIN0
  6
BYBLOCK
 62
0
100
AcDbLine
 10
329.8298560695319
 20
238.8369863723079
 30
0.0000000000000000
 11
329.8298560695141
 21
246.8637264813562
 31
0.0000000000000000
  0
ARC
  5
114
100
AcDbEntity
  8
MAIN0
  6
BYBLOCK
 62
0
100
AcDbCircle
 10
329.8298560696330
 20
193.2187686735625
 30
0.0000000000000000
 40
51.64495780779369
100
AcDbArc
 50
32.21883343334126
 51
87.78116656719757
  0
INSERT
  5
115
100
AcDbEntity
  8
MAIN0
  6
BYBLOCK
 62
0
100
AcDbBlockReference
  2
_OPEN
 10
374.5557015083723
 20
219.0412475777808
 30
0.0000000000000000
 41
2.000000000000000
 42
2.000000000000000
 43
2.000000000000000
 50
300.0000000004118
  0
INSERT
  5
116
100
AcDbEntity
  8
MAIN0
  6
BYBLOCK
 62
0
100
AcDbBlockReference
  2
_OPEN
 10
329.8298560695185
 20
244.8637264813561
 30
0.0000000000000000
 41
2.000000000000000
 42
2.000000000000000
 43
2.000000000000000
 50
180.0000000001271
  0
MTEXT
  5
117
100
AcDbEntity
  8
MAIN0
  6
BYBLOCK
 62
0
100
AcDbMText
 10
356.6773349494694
 20
239.7199661490763
 30
0.0000000000000000
 40
3.099999904632568
 41
0.0000000000000000
 71
     5
 72
     1
  1
\A1;60\U+00B0
 11
0.8660254037867898
 21
-0.4999999999959276
 31
0.0000000000000000
  7
STANDARD
  0
ENDBLK
  5
118
100
AcDbEntity
  8
MAIN0
  6
CONTINUOUS
 62
3
100
AcDbBlockEnd
  0
BLOCK
  5
11A
100
AcDbEntity
  8
MAIN0
  6
CONTINUOUS
 62
3
100
AcDbBlockBegin
  2
*D22
 70
    65
 10
0.0
 20
0.0
 30
0.0
  0
LINE
  5
11B
100
AcDbEntity
  8
MAIN0
  6
BYBLOCK
 62
0
100
AcDbLine
 10
324.3298560695341
 20
235.0187686855174
 30
0.0000000000000000
 11
324.3298560695341
 21
241.7642464656576
 31
0.0000000000000000
  0
LINE
  5
11C
100
AcDbEntity
  8
MAIN0
  6
BYBLOCK
 62
0
100
AcDbLine
 10
326.3298560695341
 20
239.7642464656576
 30
0.0000000000000000
 11
333.3298560695341
 21
239.7642464656576
 31
0.0000000000000000
  0
INSERT
  5
11D
100
AcDbEntity
  8
MAIN0
  6
BYBLOCK
 62
0
100
AcDbBlockReference
  2
_OPEN
 10
324.3298560695341
 20
239.7642464656576
 30
0.0000000000000000
 41
2.000000000000000
 42
2.000000000000000
 43
2.000000000000000
 50
180.0000000000000
  0
INSERT
  5
11E
100
AcDbEntity
  8
MAIN0
  6
BYBLOCK
 62
0
100
AcDbBlockReference
  2
_OPEN
 10
335.3298560695341
 20
239.7642464656576
 30
0.0000000000000000
 41
2.000000000000000
 42
2.000000000000000
 43
2.000000000000000
 50
0.0000000000000000
  0
LINE
  5
11F
100
AcDbEntity
  8
MAIN0
  6
BYBLOCK
 62
0
100
AcDbLine
 10
324.3298560695341
 20
239.7642464656576
 30
0.0000000000000000
 11
317.4565965251615
 21
239.7642464656576
 31
0.0000000000000000
  0
LINE
  5
120
100
AcDbEntity
  8
MAIN0
  6
BYBLOCK
 62
0
100
AcDbLine
 10
335.3298560695341
 20
235.0187686855174
 30
0.0000000000000000
 11
335.3298560695341
 21
241.7642464656576
 31
0.0000000000000000
  0
MTEXT
  5
121
100
AcDbEntity
  8
MAIN0
  6
BYBLOCK
 62
0
100
AcDbMText
 10
319.5565963141554
 20
241.8142464179739
 30
0.0000000000000000
 40
3.099999904632568
 41
0.0000000000000000
 71
     5
 72
     1
  1
\A1;11
 11
1.000000000000000
 21
0.0000000000000000
 31
0.0000000000000000
  7
STANDARD
  0
ENDBLK
  5
122
100
AcDbEntity
  8
MAIN0
  6
CONTINUOUS
 62
3
100
AcDbBlockEnd
  0
BLOCK
  5
124
100
AcDbEntity
  8
MAIN0
  6
CONTINUOUS
 62
3
100
AcDbBlockBegin
  2
*D23
 70
    65
 10
0.0
 20
0.0
 30
0.0
  0
LINE
  5
125
100
AcDbEntity
  8
MAIN0
  6
BYBLOCK
 62
0
100
AcDbLine
 10
343.8534553220541
 20
170.4980034835823
 30
0.0000000000000000
 11
336.0919333813253
 21
172.4367600860429
 31
0.0000000000000000
  0
INSERT
  5
126
100
AcDbEntity
  8
MAIN0
  6
BYBLOCK
 62
0
100
AcDbBlockReference
  2
_OPEN
 10
343.8534553220541
 20
170.4980034835823
 30
0.0000000000000000
 41
2.000000000000000
 42
2.000000000000000
 43
2.000000000000000
 50
165.9750394866492
  0
INSERT
  5
127
100
AcDbEntity
  8
MAIN0
  6
BYBLOCK
 62
0
100
AcDbBlockReference
  2
_OPEN
 10
336.0919333813253
 20
172.4367600860429
 30
0.0000000000000000
 41
2.000000000000000
 42
2.000000000000000
 43
2.000000000000000
 50
345.9750394866492
  0
LINE
  5
128
100
AcDbEntity
  8
MAIN0
  6
BYBLOCK
 62
0
100
AcDbLine
 10
345.7938358072364
 20
170.0133143329671
 30
0.0000000000000000
 11
351.3452094416658
 21
168.6266323949830
 31
0.0000000000000000
  0
LINE
  5
129
100
AcDbEntity
  8
MAIN0
  6
BYBLOCK
 62
0
100
AcDbLine
 10
334.1515528961431
 20
172.9214492366581
 30
0.0000000000000000
 11
333.1813626535520
 21
173.1637938119657
 31
0.0000000000000000
  0
MTEXT
  5
12A
100
AcDbEntity
  8
MAIN0
  6
BYBLOCK
 62
0
100
AcDbMText
 10
349.5620685208696
 20
171.1850321525925
 30
0.0000000000000000
 40
3.099999904632568
 41
0.0000000000000000
 71
     5
 72
     1
  1
\A1;\U+22058
 11
0.9701902425911044
 21
-0.2423445753075853
 31
0.0000000000000000
  7
STANDARD
  0
ENDBLK
  5
12B
100
AcDbEntity
  8
MAIN0
  6
CONTINUOUS
 62
3
100
AcDbBlockEnd
  0
BLOCK
  5
12D
100
AcDbEntity
  8
MAIN0
  6
CONTINUOUS
 62
3
100
AcDbBlockBegin
  2
*D24
 70
    65
 10
0.0
 20
0.0
 30
0.0
  0
LINE
  5
12E
100
AcDbEntity
  8
MAIN0
  6
BYBLOCK
 62
0
100
AcDbLine
 10
329.8298560696333
 20
193.2187686735622
 30
0.0000000000000000
 11
342.9210251262074
 21
175.5376688001890
 31
0.0000000000000000
  0
INSERT
  5
12F
100
AcDbEntity
  8
MAIN0
  6
BYBLOCK
 62
0
100
AcDbBlockReference
  2
_OPEN
 10
344.1111314040778
 20
173.9302960844278
 30
0.0000000000000000
 41
2.000000000000000
 42
2.000000000000000
 43
2.000000000000000
 50
306.5164203458967
  0
MTEXT
  5
130
100
AcDbEntity
  8
MAIN0
  6
BYBLOCK
 62
0
100
AcDbMText
 10
337.8301369556987
 20
185.8585576798607
 30
0.0000000000000000
 40
3.099999904632568
 41
0.0000000000000000
 71
     5
 72
     1
  1
\A1;Ｒ24
 11
0.5950531389351895
 21
-0.8036863578805964
 31
0.0000000000000000
  7
KNJYOKO
  0
ENDBLK
  5
131
100
AcDbEntity
  8
MAIN0
  6
CONTINUOUS
 62
3
100
AcDbBlockEnd
  0
BLOCK
  5
171
100
AcDbEntity
  8
MAIN0
  6
CONTINUOUS
 62
3
100
AcDbBlockBegin
  2
*D25
 70
    65
 10
0.0
 20
0.0
 30
0.0
  0
LINE
  5
172
100
AcDbEntity
  8
MAIN0
  6
BYBLOCK
 62
0
100
AcDbLine
 10
232.4298560694430
 20
234.8187686856191
 30
0.0000000000000000
 11
232.4298560694430
 21
257.0364553588263
 31
0.0000000000000000
  0
LINE
  5
173
100
AcDbEntity
  8
MAIN0
  6
BYBLOCK
 62
0
100
AcDbLine
 10
230.4298560694430
 20
255.0364553588263
 30
0.0000000000000000
 11
201.8298560693737
 21
255.0364553588263
 31
0.0000000000000000
  0
INSERT
  5
174
100
AcDbEntity
  8
MAIN0
  6
BYBLOCK
 62
0
100
AcDbBlockReference
  2
_OPEN
 10
232.4298560694430
 20
255.0364553588263
 30
0.0000000000000000
 41
2.000000000000000
 42
2.000000000000000
 43
2.000000000000000
 50
360.0000000000000
  0
INSERT
  5
175
100
AcDbEntity
  8
MAIN0
  6
BYBLOCK
 62
0
100
AcDbBlockReference
  2
_OPEN
 10
199.8298560693737
 20
255.0364553588263
 30
0.0000000000000000
 41
2.000000000000000
 42
2.000000000000000
 43
2.000000000000000
 50
180.0000000000000
  0
LINE
  5
176
100
AcDbEntity
  8
MAIN0
  6
BYBLOCK
 62
0
100
AcDbLine
 10
199.8298560693737
 20
220.1187686859084
 30
0.0000000000000000
 11
199.8298560693737
 21
257.0364553588263
 31
0.0000000000000000
  0
MTEXT
  5
177
100
AcDbEntity
  8
MAIN0
  6
BYBLOCK
 62
0
100
AcDbMText
 10
216.1298560694084
 20
257.0864553111426
 30
0.0000000000000000
 40
3.099999904632568
 41
0.0000000000000000
 71
     5
 72
     1
  1
\A1;32.6
 11
1.000000000000000
 21
0.0000000000000000
 31
0.0000000000000000
  7
STANDARD
  0
ENDBLK
  5
178
100
AcDbEntity
  8
MAIN0
  6
CONTINUOUS
 62
3
100
AcDbBlockEnd
  0
ENDSEC
  0
SECTION
  2
ENTITIES
  0
CIRCLE
  5
46
100
AcDbEntity
  8
MAIN0
  6
CONTINUOUS
 62
3
100
AcDbCircle
 10
89.82985606934935
 20
193.2187686734264
 30
0.0000000000000000
 40
37.09999999961798
  0
DIMENSION
  5
4F
100
AcDbEntity
  8
MAIN0
  6
CONTINUOUS
 62
3
100
AcDbDimension
  2
*D0
 10
184.8298560693779
 20
206.7187686735193
 30
0.0000000000000000
 11
184.3298560693779
 21
186.1437685364246
 31
0.0000000000000000
 70
32
  1
\A1;\U+220527h7\H0.903226x;\S　0^ －0.021;
  3
MAIN001
100
AcDbAlignedDimension
 13
196.2154967169036
 23
179.7187686735113
 33
0.0000000000000000
 14
196.2154967156735
 24
206.7187686735113
 34
0.0000000000000000
 50
90.00000000000000
100
AcDbRotatedDimension
1001
ACAD
1000
DSTYLE
1002
{
1070
   173
1070
     1
1070
     6
1000
_OPEN
1070
     7
1000
_OPEN
1070
    41
1040
2.000000
1070
   272
1070
     3
1070
    47
1040
0.000000
1070
    48
1040
0.021000
1070
    71
1070
     1
1070
   340
1005
50
1002
}
  0
INSERT
  5
58
100
AcDbEntity
  8
MAIN0
  6
CONTINUOUS
 62
3
100
AcDbBlockReference
  2
D1
 10
193.2084115704209
 20
193.2187686735650
 30
0.0000000000000000
 50
0.0000000000000000
  0
INSERT
  5
60
100
AcDbEntity
  8
MAIN0
  6
CONTINUOUS
 62
3
100
AcDbBlockReference
  2
D2
 10
193.2084115704209
 20
193.2187686735650
 30
0.0000000000000000
 50
0.0000000000000000
  0
DIMENSION
  5
69
100
AcDbEntity
  8
MAIN0
  6
CONTINUOUS
 62
3
100
AcDbDimension
  2
*D3
 10
154.8298560693779
 20
234.2187686739932
 30
0.0000000000000000
 11
154.3298560693779
 21
193.2187686739932
 31
0.0000000000000000
 70
32
  1
\A1;\U+220582
  3
MAIN001
100
AcDbAlignedDimension
 13
211.2298560694431
 23
152.2187686739932
 33
0.0000000000000000
 14
211.0298560694430
 24
234.2187686739932
 34
0.0000000000000000
 50
90.00000000000000
100
AcDbRotatedDimension
1001
ACAD
1000
DSTYLE
1002
{
1070
   173
1070
     1
1070
     6
1000
_OPEN
1070
     7
1000
_OPEN
1070
    41
1040
2.000000
1002
}
  0
DIMENSION
  5
74
100
AcDbEntity
  8
MAIN0
  6
CONTINUOUS
 62
3
100
AcDbDimension
  2
*D4
 10
199.8298560693737
 20
222.1975090167881
 30
0.0000000000000000
 11
201.8298560693772
 21
222.6975090167881
 31
0.0000000000000000
 70
32
  3
MAIN001
100
AcDbAlignedDimension
 13
203.8298560693808
 23
219.3187686739879
 33
0.0000000000000000
 14
199.8298560693737
 24
219.3187686739875
 34
0.0000000000000000
100
AcDbRotatedDimension
1001
ACAD
1000
DSTYLE
1002
{
1070
   173
1070
     1
1070
     6
1000
_OPEN
1070
     7
1000
_OPEN
1070
    41
1040
2.000000
1070
   287
1070
     0
1002
}
  0
DIMENSION
  5
7F
100
AcDbEntity
  8
MAIN0
  6
CONTINUOUS
 62
3
100
AcDbDimension
  2
*D5
 10
194.8298560693795
 20
136.3566017624530
 30
0.0000000000000000
 11
197.3298560693800
 21
136.8566017624530
 31
0.0000000000000000
 70
32
  3
MAIN001
100
AcDbAlignedDimension
 13
199.8298560693806
 23
170.1187686739874
 33
0.0000000000000000
 14
194.8298560693795
 24
180.5187686743570
 34
0.0000000000000000
100
AcDbRotatedDimension
1001
ACAD
1000
DSTYLE
1002
{
1070
   173
1070
     1
1070
     6
1000
_OPEN
1070
     7
1000
_OPEN
1070
    41
1040
2.000000
1070
   287
1070
     0
1002
}
  0
DIMENSION
  5
88
100
AcDbEntity
  8
MAIN0
  6
CONTINUOUS
 62
3
100
AcDbDimension
  2
*D6
 10
199.8298560693806
 20
136.3566017624530
 30
0.0000000000000000
 11
215.6298560694118
 21
136.8566017624530
 31
0.0000000000000000
 70
32
  3
MAIN001
100
AcDbAlignedDimension
 13
231.4298560694430
 23
165.2187686739932
 33
0.0000000000000000
 14
199.8298560693806
 24
170.1187686739874
 34
0.0000000000000000
100
AcDbRotatedDimension
1001
ACAD
1000
DSTYLE
1002
{
1070
   173
1070
     1
1070
     6
1000
_OPEN
1070
     7
1000
_OPEN
1070
    41
1040
2.000000
1002
}
  0
DIMENSION
  5
93
100
AcDbEntity
  8
MAIN0
  6
CONTINUOUS
 62
3
100
AcDbDimension
  2
*D7
 10
231.4298560694430
 20
136.3566017624530
 30
0.0000000000000000
 11
237.4095425614298
 21
136.8566017624530
 31
0.0000000000000000
 70
160
  3
MAIN001
100
AcDbAlignedDimension
 13
231.9298560694430
 23
187.4819083944802
 33
0.0000000000000000
 14
231.4298560694430
 24
165.2187686739932
 34
0.0000000000000000
100
AcDbRotatedDimension
1001
ACAD
1000
DSTYLE
1002
{
1070
   173
1070
     1
1070
     6
1000
_OPEN
1070
     7
1000
_OPEN
1070
    41
1040
2.000000
1070
   287
1070
     0
1002
}
  0
DIMENSION
  5
9C
100
AcDbEntity
  8
MAIN0
  6
CONTINUOUS
 62
3
100
AcDbDimension
  2
*D8
 10
199.8298560694190
 20
144.0199539277127
 30
0.0000000000000000
 11
206.3298560694834
 21
144.5199539277127
 31
0.0000000000000000
 70
32
  3
MAIN001
100
AcDbAlignedDimension
 13
212.8298560695478
 23
156.1187686733717
 33
0.0000000000000000
 14
199.8298560693806
 24
170.1187686739874
 34
0.0000000000000000
100
AcDbRotatedDimension
1001
ACAD
1000
DSTYLE
1002
{
1070
   173
1070
     1
1070
     6
1000
_OPEN
1070
     7
1000
_OPEN
1070
    41
1040
2.000000
1002
}
  0
DIMENSION
  5
A7
100
AcDbEntity
  8
MAIN0
  6
CONTINUOUS
 62
3
100
AcDbDimension
  2
*D9
 10
232.4298560694430
 20
246.4225747287146
 30
0.0000000000000000
 11
225.9393849135822
 21
246.9225747287146
 31
0.0000000000000000
 70
160
  3
MAIN001
100
AcDbAlignedDimension
 13
229.4298560694430
 23
226.2187686736982
 33
0.0000000000000000
 14
232.4298560694430
 24
234.0187686736982
 34
0.0000000000000000
100
AcDbRotatedDimension
1001
ACAD
1000
DSTYLE
1002
{
1070
   173
1070
     1
1070
     6
1000
_OPEN
1070
     7
1000
_OPEN
1070
    41
1040
2.000000
1070
   287
1070
     0
1002
}
  0
DIMENSION
  5
B2
100
AcDbEntity
  8
MAIN0
  6
CONTINUOUS
 62
3
100
AcDbDimension
  2
*D10
 10
218.9298560694428
 20
239.7701301883556
 30
0.0000000000000000
 11
213.9096772201018
 21
240.2701301883556
 31
0.0000000000000000
 70
160
  1
\A1;\U+22054
  3
MAIN001
100
AcDbAlignedDimension
 13
222.9298560694427
 23
233.8187686736983
 33
0.0000000000000000
 14
218.9298560694428
 24
233.8187686736984
 34
0.0000000000000000
100
AcDbRotatedDimension
1001
ACAD
1000
DSTYLE
1002
{
1070
   173
1070
     1
1070
     6
1000
_OPEN
1070
     7
1000
_OPEN
1070
    41
1040
2.000000
1070
   287
1070
     0
1002
}
  0
DIMENSION
  5
BB
100
AcDbEntity
  8
MAIN0
  6
CONTINUOUS
 62
3
100
AcDbDimension
  2
*D11
 10
206.5632955390387
 20
234.2187686739932
 30
0.0000000000000000
 11
206.0632955390387
 21
230.2187686738457
 31
0.0000000000000000
 70
32
  3
MAIN001
100
AcDbAlignedDimension
 13
218.9298560694433
 23
226.2187686736982
 33
0.0000000000000000
 14
211.0298560694430
 24
234.2187686739932
 34
0.0000000000000000
 50
90.00000000000000
100
AcDbRotatedDimension
1001
ACAD
1000
DSTYLE
1002
{
1070
   173
1070
     1
1070
     6
1000
_OPEN
1070
     7
1000
_OPEN
1070
    41
1040
2.000000
1002
}
  0
DIMENSION
  5
C6
100
AcDbEntity
  8
MAIN0
  6
CONTINUOUS
 62
3
100
AcDbDimension
  2
*D12
 10
251.1813000125973
 20
234.2187686736999
 30
0.0000000000000000
 11
250.6813000125973
 21
232.2187686737188
 31
0.0000000000000000
 70
32
  3
MAIN001
100
AcDbAlignedDimension
 13
234.2396666957259
 23
230.2187686737378
 33
0.0000000000000000
 14
232.2298560694430
 24
234.2187686736982
 34
0.0000000000000000
 50
90.00000000000000
100
AcDbRotatedDimension
1001
ACAD
1000
DSTYLE
1002
{
1070
   173
1070
     1
1070
     6
1000
_OPEN
1070
     7
1000
_OPEN
1070
    41
1040
2.000000
1070
   287
1070
     0
1002
}
  0
DIMENSION
  5
CF
100
AcDbEntity
  8
MAIN0
  6
CONTINUOUS
 62
3
100
AcDbDimension
  2
*D13
 10
251.1813000125973
 20
230.2187686737361
 30
0.0000000000000000
 11
250.6813000125973
 21
226.4737291888592
 31
0.0000000000000000
 70
160
  3
MAIN001
100
AcDbAlignedDimension
 13
234.2396666957311
 23
217.2187686737396
 33
0.0000000000000000
 14
234.2396666957259
 24
230.2187686737378
 34
0.0000000000000000
 50
90.00000000000000
100
AcDbRotatedDimension
1001
ACAD
1000
DSTYLE
1002
{
1070
   173
1070
     1
1070
     6
1000
_OPEN
1070
     7
1000
_OPEN
1070
    41
1040
2.000000
1002
}
  0
DIMENSION
  5
DA
100
AcDbEntity
  8
MAIN0
  6
CONTINUOUS
 62
3
100
AcDbDimension
  2
*D14
 10
242.5200835587938
 20
226.2187686737016
 30
0.0000000000000000
 11
242.0200835587938
 21
238.5785633338434
 31
0.0000000000000000
 70
160
  1
\A1;5H8
  3
MAIN001
100
AcDbAlignedDimension
 13
232.2298560694455
 23
221.2187686737783
 33
0.0000000000000000
 14
232.2298560694430
 24
226.2187686736982
 34
0.0000000000000000
 50
90.00000000000000
100
AcDbRotatedDimension
1001
ACAD
1000
DSTYLE
1002
{
1070
   173
1070
     1
1070
     6
1000
_OPEN
1070
     7
1000
_OPEN
1070
    41
1040
2.000000
1070
   287
1070
     0
1002
}
  0
DIMENSION
  5
E3
100
AcDbEntity
  8
MAIN0
  6
CONTINUOUS
 62
3
100
AcDbDimension
  2
*D15
 10
258.4859370860554
 20
193.2187686734976
 30
0.0000000000000000
 11
257.9859370860554
 21
208.4687686736193
 31
0.0000000000000000
 70
32
  1
\A1;MAX 30.5
  3
MAIN001
100
AcDbAlignedDimension
 13
234.1992984169876
 23
223.7187686737411
 33
0.0000000000000000
 14
234.5484615252433
 24
193.2187686734976
 34
0.0000000000000000
 50
90.00000000000000
100
AcDbRotatedDimension
1001
ACAD
1000
DSTYLE
1002
{
1070
   173
1070
     1
1070
     6
1000
_OPEN
1070
     7
1000
_OPEN
1070
    41
1040
2.000000
1002
}
  0
MTEXT
  5
E4
100
AcDbEntity
  8
MAIN0
  6
CONTINUOUS
 62
3
100
AcDbMText
 10
259.2354356646942
 20
200.4869417645038
 30
0.0000000000000000
 40
3.099999904632568
 41
0.0000000000000000
 71
     1
 72
     1
  1
{\H0.66x;{MIN 24.9}}
 11
6.123233995736766e-017
 21
1.000000000000000
 31
0.0000000000000000
  7
STANDARD
  0
DIMENSION
  5
EC
100
AcDbEntity
  8
MAIN0
  6
CONTINUOUS
 62
3
100
AcDbDimension
  2
*D16
 10
333.9324279224985
 20
114.8187686735057
 30
0.0000000000000000
 11
333.4324279224985
 21
107.3187686735057
 31
0.0000000000000000
 70
32
  3
MAIN001
100
AcDbAlignedDimension
 13
335.9798560698945
 23
99.81876867350565
 33
0.0000000000000000
 14
362.5868976250232
 24
114.8187686735057
 34
0.0000000000000000
 50
90.00000000000000
100
AcDbRotatedDimension
1001
ACAD
1000
DSTYLE
1002
{
1070
   173
1070
     1
1070
     6
1000
_OPEN
1070
     7
1000
_OPEN
1070
    41
1040
2.000000
1002
}
  0
DIMENSION
  5
F5
100
AcDbEntity
  8
MAIN0
  6
CONTINUOUS
 62
3
100
AcDbDimension
  2
*D17
 10
342.1375628127877
 20
166.8248063879063
 30
0.0000000000000000
 11
339.5840674066141
 21
149.2203646499384
 31
0.0000000000000000
 70
162
  3
MAIN001
100
AcDb2LineAngularDimension
 13
329.8298560697252
 23
151.6500159923976
 33
0.0000000000000000
 14
329.8298560697230
 24
152.6500159923976
 34
0.0000000000000000
 15
341.7149445510536
 25
167.7311141749461
 35
0.0000000000000000
 16
339.6922872135819
 26
148.7322166463781
 36
0.0000000000000000
1001
ACAD
1000
DSTYLE
1002
{
1070
   173
1070
     1
1070
     6
1000
_OPEN
1070
     7
1000
_OPEN
1070
    41
1040
2.000000
1002
}
  0
DIMENSION
  5
FE
100
AcDbEntity
  8
MAIN0
  6
CONTINUOUS
 62
3
100
AcDbDimension
  2
*D18
 10
368.0657698227818
 20
171.1432535753301
 30
0.0000000000000000
 11
355.4023349735179
 21
148.9259359365230
 31
0.0000000000000000
 70
162
  3
MAIN001
100
AcDb2LineAngularDimension
 13
329.8298560697252
 23
151.6500159923976
 33
0.0000000000000000
 14
329.8298560697230
 24
152.6500159923976
 34
0.0000000000000000
 15
367.1997444189988
 25
171.6432535753325
 35
0.0000000000000000
 16
355.6523349735178
 26
148.4929232346307
 36
0.0000000000000000
1001
ACAD
1000
DSTYLE
1002
{
1070
   173
1070
     1
1070
     6
1000
_OPEN
1070
     7
1000
_OPEN
1070
    41
1040
2.000000
1002
}
  0
DIMENSION
  5
107
100
AcDbEntity
  8
MAIN0
  6
CONTINUOUS
 62
3
100
AcDbDimension
  2
*D19
 10
374.0263443118167
 20
193.2187686736547
 30
0.0000000000000000
 11
379.2320917006275
 21
179.9814795318725
 31
0.0000000000000000
 70
162
  3
MAIN001
100
AcDb2LineAngularDimension
 13
368.0657698227818
 23
171.1432535753301
 33
0.0000000000000000
 14
367.1997444189988
 24
171.6432535753325
 34
0.0000000000000000
 15
373.0263443118167
 25
193.2187686736526
 35
0.0000000000000000
 16
379.7150546137718
 26
179.8520700093205
 36
0.0000000000000000
1001
ACAD
1000
DSTYLE
1002
{
1070
   173
1070
     1
1070
     6
1000
_OPEN
1070
     7
1000
_OPEN
1070
    41
1040
2.000000
1002
}
  0
DIMENSION
  5
110
100
AcDbEntity
  8
MAIN0
  6
CONTINUOUS
 62
3
100
AcDbDimension
  2
*D20
 10
368.2213540078553
 20
215.3841103431560
 30
0.0000000000000000
 11
379.2320917005981
 21
206.4560578153619
 31
0.0000000000000000
 70
162
  3
MAIN001
100
AcDb2LineAngularDimension
 13
374.0263443118167
 23
193.2187686736547
 33
0.0000000000000000
 14
373.0263443118167
 24
193.2187686736526
 34
0.0000000000000000
 15
367.3553286040745
 25
214.8841103431498
 35
0.0000000000000000
 16
379.7150546137422
 26
206.5854673379149
 36
0.0000000000000000
1001
ACAD
1000
DSTYLE
1002
{
1070
   173
1070
     1
1070
     6
1000
_OPEN
1070
     7
1000
_OPEN
1070
    41
1040
2.000000
1002
}
  0
DIMENSION
  5
119
100
AcDbEntity
  8
MAIN0
  6
CONTINUOUS
 62
3
100
AcDbDimension
  2
*D21
 10
329.8298560695337
 20
238.0369863603870
 30
0.0000000000000000
 11
355.9023349733175
 21
238.3776268145021
 31
0.0000000000000000
 70
162
  3
MAIN001
100
AcDb2LineAngularDimension
 13
368.2213540078553
 23
215.3841103431560
 33
0.0000000000000000
 14
367.3553286040745
 24
214.8841103431498
 34
0.0000000000000000
 15
329.8298560695359
 25
237.0369863603870
 35
0.0000000000000000
 16
355.6523349733196
 26
237.9446141126087
 36
0.0000000000000000
1001
ACAD
1000
DSTYLE
1002
{
1070
   173
1070
     1
1070
     6
1000
_OPEN
1070
     7
1000
_OPEN
1070
    41
1040
2.000000
1002
}
  0
DIMENSION
  5
123
100
AcDbEntity
  8
MAIN0
  6
CONTINUOUS
 62
3
100
AcDbDimension
  2
*D22
 10
324.3298560695341
 20
239.7642464656576
 30
0.0000000000000000
 11
319.5565963141554
 21
240.2642464656576
 31
0.0000000000000000
 70
160
  3
MAIN001
100
AcDbAlignedDimension
 13
335.3298560695341
 23
234.2187686735964
 33
0.0000000000000000
 14
324.3298560695341
 24
234.2187686735964
 34
0.0000000000000000
100
AcDbRotatedDimension
1001
ACAD
1000
DSTYLE
1002
{
1070
   173
1070
     1
1070
     6
1000
_OPEN
1070
     7
1000
_OPEN
1070
    41
1040
2.000000
1002
}
  0
DIMENSION
  5
12C
100
AcDbEntity
  8
MAIN0
  6
CONTINUOUS
 62
3
100
AcDbDimension
  2
*D23
 10
343.8534553220541
 20
170.4980034835823
 30
0.0000000000000000
 11
349.1864344406988
 21
169.6812373228385
 31
0.0000000000000000
 70
163
  3
MAIN001
100
AcDbDiametricDimension
 15
336.0919333813253
 25
172.4367600860429
 35
0.0000000000000000
1001
ACAD
1000
DSTYLE
1002
{
1070
   287
1070
     2
1070
   173
1070
     1
1070
     6
1000
_OPEN
1070
     7
1000
_OPEN
1070
    41
1040
2.000000
1002
}
  0
DIMENSION
  5
132
100
AcDbEntity
  8
MAIN0
  6
CONTINUOUS
 62
3
100
AcDbDimension
  2
*D24
 10
329.8298560696333
 20
193.2187686735622
 30
0.0000000000000000
 11
336.5844231393065
 21
184.9362253428855
 31
0.0000000000000000
 70
164
  3
MAIN001
100
AcDbRadialDimension
 15
344.1111314040778
 25
173.9302960844278
 35
0.0000000000000000
1001
ACAD
1000
DSTYLE
1002
{
1070
   173
1070
     1
1070
     6
1000
_OPEN
1070
     7
1000
_OPEN
1070
    41
1040
2.000000
1070
   340
1005
50
1002
}
  0
LEADER
  5
133
100
AcDbEntity
  8
MAIN0
  6
CONTINUOUS
 62
3
100
AcDbLeader
  3
MAIN001
 73
     0
 75
     1
 40
3.099999904632568
 41
62.89900004321339
 76
     3
 10
329.1672923794569
 20
172.9641047621532
 30
0.0000000000000000
 10
316.6623695260729
 20
130.4106133708740
 30
0.0000000000000000
 10
314.8753695787336
 20
130.4106133708740
 30
0.0000000000000000
340
134
213
0.0000000000000000
223
-0.5000000000000000
233
0.0000000000000000
1001
ACAD
1000
DSTYLE
1002
{
1070
   147
1040
0.0
1070
    77
1070
     1
1070
   173
1070
     1
1070
     6
1000
_OPEN
1070
     7
1000
_OPEN
1002
}
  0
MTEXT
  5
134
102
{ACAD_REACTORS
330
133
102
}
100
AcDbEntity
  8
MAIN0
  6
CONTINUOUS
 62
3
100
AcDbMText
 10
251.9763695355202
 20
134.0106132755066
 30
0.0000000000000000
 40
3.099999904632568
 41
0.0000000000000000
 71
     1
 72
     1
  1
{\H0.71x;{十字穴付皿小ねじ 3-M2.5×6\PCross Recessed Flat Head Screw}}
 11
1.000000000000000
 21
0.0000000000000000
 31
0.0000000000000000
  7
KNJYOKO
  0
LINE
  5
135
100
AcDbEntity
  8
MAIN0
  6
CENTER
 62
3
100
AcDbLine
 10
218.3744372068939
 20
172.7187686734741
 30
0.0000000000000000
 11
223.7087085224234
 21
172.7187686734741
 31
0.0000000000000000
  0
LINE
  5
136
100
AcDbEntity
  8
MAIN0
  6
CENTER
 62
3
100
AcDbLine
 10
220.9298560694430
 20
170.0840593491207
 30
0.0000000000000000
 11
220.9298560694430
 21
174.9259360763147
 31
0.0000000000000000
  0
ELLIPSE
  5
137
100
AcDbEntity
  8
MAIN0
  6
CONTINUOUS
 62
3
100
AcDbEllipse
 10
220.9298560694430
 20
172.7187686732821
 30
0.0000000000000000
 11
-2.000000000000000
 21
0.0000000000000000
 31
0.0000000000000000
210
0.0000000000000000
220
0.0000000000000000
230
1.000000000000000
 40
0.8660254038499999
 41
0.0000000000000000
 42
6.283185307179586
  0
CIRCLE
  5
138
100
AcDbEntity
  8
MAIN0
  6
CONTINUOUS
 62
3
100
AcDbCircle
 10
329.8298560695217
 20
175.2187686742714
 30
0.0000000000000000
 40
2.350000000000165
  0
LINE
  5
139
100
AcDbEntity
  8
MAIN0
  6
CONTINUOUS
 62
3
100
AcDbLine
 10
328.7691958974474
 20
176.2794288457220
 30
0.0000000000000000
 11
330.8905162409699
 21
174.1581085021953
 31
0.0000000000000000
  0
LINE
  5
13A
100
AcDbEntity
  8
MAIN0
  6
CONTINUOUS
 62
3
100
AcDbLine
 10
328.7691958981845
 20
174.1581085020532
 30
0.0000000000000000
 11
330.8905162417369
 21
176.2794288456111
 31
0.0000000000000000
  0
LINE
  5
13B
100
AcDbEntity
  8
MAIN0
  6
CONTINUOUS
 62
3
100
AcDbLine
 10
81.52985606925040
 20
234.2187686734619
 30
0.0000000000000000
 11
98.12985606925028
 21
234.2187686734554
 31
0.0000000000000000
  0
LINE
  5
13C
100
AcDbEntity
  8
MAIN0
  6
CONTINUOUS
 62
3
100
AcDbLine
 10
81.32985606925007
 20
234.0187686734620
 30
0.0000000000000000
 11
81.52985606925006
 21
234.2187686734619
 31
0.0000000000000000
  0
LINE
  5
13D
100
AcDbEntity
  8
MAIN0
  6
CONTINUOUS
 62
3
100
AcDbLine
 10
98.32985606925024
 20
234.0187686734625
 30
0.0000000000000000
 11
98.12985606925020
 21
234.2187686734624
 31
0.0000000000000000
  0
LINE
  5
13E
100
AcDbEntity
  8
MAIN0
  6
CONTINUOUS
 62
3
100
AcDbLine
 10
98.32985606925021
 20
233.3279945447852
 30
0.0000000000000000
 11
98.32985606925021
 21
234.0187686734624
 31
0.0000000000000000
  0
LINE
  5
13F
100
AcDbEntity
  8
MAIN0
  6
CONTINUOUS
 62
3
100
AcDbLine
 10
81.32985606925024
 20
233.3279945447245
 30
0.0000000000000000
 11
81.32985606925024
 21
234.0187686734620
 31
0.0000000000000000
  0
LINE
  5
140
100
AcDbEntity
  8
MAIN0
  6
CONTINUOUS
 62
3
100
AcDbLine
 10
58.47281451420622
 20
165.5307578219121
 30
0.0000000000000000
 11
50.17281451421189
 21
179.9067795247370
 31
0.0000000000000000
  0
LINE
  5
141
100
AcDbEntity
  8
MAIN0
  6
CONTINUOUS
 62
3
100
AcDbLine
 10
58.74601959496306
 20
165.4575527411549
 30
0.0000000000000000
 11
58.47281451420622
 21
165.5307578219119
 31
0.0000000000000000
  0
LINE
  5
142
100
AcDbEntity
  8
MAIN0
  6
CONTINUOUS
 62
3
100
AcDbLine
 10
50.24601959496255
 20
180.1799846054903
 30
0.0000000000000000
 11
50.17281451420575
 21
179.9067795247335
 31
0.0000000000000000
  0
LINE
  5
143
100
AcDbEntity
  8
MAIN0
  6
CONTINUOUS
 62
3
100
AcDbLine
 10
50.84424753867427
 20
180.5253716698289
 30
0.0000000000000000
 11
50.24601959496272
 21
180.1799846054903
 31
0.0000000000000000
  0
LINE
  5
144
100
AcDbEntity
  8
MAIN0
  6
CONTINUOUS
 62
3
100
AcDbLine
 10
59.34424753872679
 20
165.8029398055238
 30
0.0000000000000000
 11
58.74601959496306
 21
165.4575527411550
 31
0.0000000000000000
  0
LINE
  5
145
100
AcDbEntity
  8
MAIN0
  6
CONTINUOUS
 62
3
100
AcDbLine
 10
129.4868976245916
 20
179.9067795249053
 30
0.0000000000000000
 11
121.1868976245860
 21
165.5307578220869
 31
0.0000000000000000
  0
LINE
  5
146
100
AcDbEntity
  8
MAIN0
  6
CONTINUOUS
 62
3
100
AcDbLine
 10
129.4136925438350
 20
180.1799846056622
 30
0.0000000000000000
 11
129.4868976245918
 21
179.9067795249054
 31
0.0000000000000000
  0
LINE
  5
147
100
AcDbEntity
  8
MAIN0
  6
CONTINUOUS
 62
3
100
AcDbLine
 10
120.9136925438352
 20
165.4575527413265
 30
0.0000000000000000
 11
121.1868976245920
 21
165.5307578220834
 31
0.0000000000000000
  0
LINE
  5
148
100
AcDbEntity
  8
MAIN0
  6
CONTINUOUS
 62
3
100
AcDbLine
 10
120.3154646001237
 20
165.8029398056652
 30
0.0000000000000000
 11
120.9136925438353
 21
165.4575527413265
 31
0.0000000000000000
  0
LINE
  5
149
100
AcDbEntity
  8
MAIN0
  6
CONTINUOUS
 62
3
100
AcDbLine
 10
128.8154646000712
 20
180.5253716700309
 30
0.0000000000000000
 11
129.4136925438349
 21
180.1799846056622
 31
0.0000000000000000
  0
LINE
  5
14A
100
AcDbEntity
  8
MAIN0
  6
CENTER
 62
3
100
AcDbLine
 10
74.26388675225857
 20
210.8128964110508
 30
0.0000000000000000
 11
78.09144832648320
 21
206.4866250502490
 31
0.0000000000000000
  0
CIRCLE
  5
14B
100
AcDbEntity
  8
MAIN0
  6
CONTINUOUS
 62
3
100
AcDbCircle
 10
76.31240708587023
 20
208.4974653776212
 30
0.0000000000000000
 40
2.000000000000000
  0
CIRCLE
  5
14C
100
AcDbEntity
  8
MAIN0
  6
CONTINUOUS
 62
3
100
AcDbCircle
 10
89.82985606934693
 20
174.7187686730801
 30
0.0000000000000000
 40
3.500000000000000
  0
LINE
  5
14D
100
AcDbEntity
  8
MAIN0
  6
CONTINUOUS
 62
3
100
AcDbLine
 10
89.82985606934693
 20
176.4508194806490
 30
0.0000000000000000
 11
88.32985606934693
 21
175.5847940768645
 31
0.0000000000000000
  0
LINE
  5
14E
100
AcDbEntity
  8
MAIN0
  6
CONTINUOUS
 62
3
100
AcDbLine
 10
88.32985606934693
 20
175.5847940768645
 30
0.0000000000000000
 11
88.32985606934693
 21
173.8527432692956
 31
0.0000000000000000
  0
LINE
  5
14F
100
AcDbEntity
  8
MAIN0
  6
CONTINUOUS
 62
3
100
AcDbLine
 10
88.32985606934696
 20
173.8527432692956
 30
0.0000000000000000
 11
89.82985606934693
 21
172.9867178655112
 31
0.0000000000000000
  0
LINE
  5
150
100
AcDbEntity
  8
MAIN0
  6
CONTINUOUS
 62
3
100
AcDbLine
 10
89.82985606934693
 20
172.9867178655112
 30
0.0000000000000000
 11
91.32985606934693
 21
173.8527432692957
 31
0.0000000000000000
  0
LINE
  5
151
100
AcDbEntity
  8
MAIN0
  6
CONTINUOUS
 62
3
100
AcDbLine
 10
91.32985606934693
 20
173.8527432692956
 30
0.0000000000000000
 11
91.32985606934693
 21
175.5847940768645
 31
0.0000000000000000
  0
LINE
  5
152
100
AcDbEntity
  8
MAIN0
  6
CONTINUOUS
 62
3
100
AcDbLine
 10
91.32985606934693
 20
175.5847940768645
 30
0.0000000000000000
 11
89.82985606934699
 21
176.4508194806490
 31
0.0000000000000000
  0
CIRCLE
  5
153
100
AcDbEntity
  8
MAIN0
  6
CONTINUOUS
 62
3
100
AcDbCircle
 10
105.8513260396626
 20
202.4687686735975
 30
0.0000000000000000
 40
3.500000000000000
  0
LINE
  5
154
100
AcDbEntity
  8
MAIN0
  6
CONTINUOUS
 62
3
100
AcDbLine
 10
104.3513260396626
 20
201.6027432698131
 30
0.0000000000000000
 11
105.8513260396626
 21
200.7367178660286
 31
0.0000000000000000
  0
LINE
  5
155
100
AcDbEntity
  8
MAIN0
  6
CONTINUOUS
 62
3
100
AcDbLine
 10
105.8513260396626
 20
200.7367178660286
 30
0.0000000000000000
 11
107.3513260396626
 21
201.6027432698130
 31
0.0000000000000000
  0
LINE
  5
156
100
AcDbEntity
  8
MAIN0
  6
CONTINUOUS
 62
3
100
AcDbLine
 10
107.3513260396626
 20
201.6027432698131
 30
0.0000000000000000
 11
107.3513260396626
 21
203.3347940773819
 31
0.0000000000000000
  0
LINE
  5
157
100
AcDbEntity
  8
MAIN0
  6
CONTINUOUS
 62
3
100
AcDbLine
 10
107.3513260396626
 20
203.3347940773819
 30
0.0000000000000000
 11
105.8513260396626
 21
204.2008194811663
 31
0.0000000000000000
  0
LINE
  5
158
100
AcDbEntity
  8
MAIN0
  6
CONTINUOUS
 62
3
100
AcDbLine
 10
105.8513260396626
 20
204.2008194811663
 30
0.0000000000000000
 11
104.3513260396626
 21
203.3347940773819
 31
0.0000000000000000
  0
LINE
  5
159
100
AcDbEntity
  8
MAIN0
  6
CONTINUOUS
 62
3
100
AcDbLine
 10
104.3513260396626
 20
203.3347940773819
 30
0.0000000000000000
 11
104.3513260396626
 21
201.6027432698131
 31
0.0000000000000000
  0
CIRCLE
  5
15A
100
AcDbEntity
  8
MAIN0
  6
CONTINUOUS
 62
3
100
AcDbCircle
 10
73.80838609903850
 20
202.4687686736017
 30
0.0000000000000000
 40
3.500000000000000
  0
LINE
  5
15B
100
AcDbEntity
  8
MAIN0
  6
CONTINUOUS
 62
3
100
AcDbLine
 10
75.30838609903859
 20
201.6027432698172
 30
0.0000000000000000
 11
75.30838609903859
 21
203.3347940773861
 31
0.0000000000000000
  0
LINE
  5
15C
100
AcDbEntity
  8
MAIN0
  6
CONTINUOUS
 62
3
100
AcDbLine
 10
75.30838609903864
 20
203.3347940773861
 30
0.0000000000000000
 11
73.80838609903861
 21
204.2008194811706
 31
0.0000000000000000
  0
LINE
  5
15D
100
AcDbEntity
  8
MAIN0
  6
CONTINUOUS
 62
3
100
AcDbLine
 10
73.80838609903856
 20
204.2008194811705
 30
0.0000000000000000
 11
72.30838609903856
 21
203.3347940773861
 31
0.0000000000000000
  0
LINE
  5
15E
100
AcDbEntity
  8
MAIN0
  6
CONTINUOUS
 62
3
100
AcDbLine
 10
72.30838609903867
 20
203.3347940773861
 30
0.0000000000000000
 11
72.30838609903867
 21
201.6027432698172
 31
0.0000000000000000
  0
LINE
  5
15F
100
AcDbEntity
  8
MAIN0
  6
CONTINUOUS
 62
3
100
AcDbLine
 10
72.30838609903861
 20
201.6027432698172
 30
0.0000000000000000
 11
73.80838609903867
 21
200.7367178660328
 31
0.0000000000000000
  0
LINE
  5
160
100
AcDbEntity
  8
MAIN0
  6
CONTINUOUS
 62
3
100
AcDbLine
 10
73.80838609903856
 20
200.7367178660327
 30
0.0000000000000000
 11
75.30838609903859
 21
201.6027432698172
 31
0.0000000000000000
  0
LINE
  5
161
100
AcDbEntity
  8
MAIN0
  6
CONTINUOUS
 62
3
100
AcDbLine
 10
87.07985606934935
 20
186.6729684931582
 30
0.0000000000000000
 11
87.07985606934935
 21
188.7443040872067
 31
0.0000000000000000
  0
LINE
  5
162
100
AcDbEntity
  8
MAIN0
  6
CONTINUOUS
 62
3
100
AcDbLine
 10
92.57985606934935
 20
186.6729684931582
 30
0.0000000000000000
 11
92.57985606934935
 21
188.7443040872068
 31
0.0000000000000000
  0
LINE
  5
163
100
AcDbEntity
  8
MAIN0
  6
CONTINUOUS
 62
3
100
AcDbLine
 10
94.12368531355841
 20
198.8732386239678
 30
0.0000000000000000
 11
92.32985606934940
 21
197.8375708269435
 31
0.0000000000000000
  0
LINE
  5
164
100
AcDbEntity
  8
MAIN0
  6
CONTINUOUS
 62
3
100
AcDbLine
 10
96.87368531355835
 20
194.1100989031534
 30
0.0000000000000000
 11
95.07985606934935
 21
193.0744311061291
 31
0.0000000000000000
  0
LINE
  5
165
100
AcDbEntity
  8
MAIN0
  6
CONTINUOUS
 62
3
100
AcDbLine
 10
82.78602682514025
 20
194.1100989031534
 30
0.0000000000000000
 11
84.57985606934935
 21
193.0744311061291
 31
0.0000000000000000
  0
LINE
  5
166
100
AcDbEntity
  8
MAIN0
  6
CONTINUOUS
 62
3
100
AcDbLine
 10
85.53602682514028
 20
198.8732386239679
 30
0.0000000000000000
 11
87.32985606934929
 21
197.8375708269436
 31
0.0000000000000000
  0
ARC
  5
167
100
AcDbEntity
  8
MAIN0
  6
CONTINUOUS
 62
3
100
AcDbCircle
 10
89.82985606934923
 20
202.1676978458656
 30
0.0000000000000000
 40
5.000000000000000
100
AcDbArc
 50
240.0000000000003
 51
299.9999999999999
  0
ARC
  5
168
100
AcDbEntity
  8
MAIN0
  6
CONTINUOUS
 62
3
100
AcDbCircle
 10
97.57985606934935
 20
188.7443040872068
 30
0.0000000000000000
 40
5.000000000000000
100
AcDbArc
 50
120.0000000000000
 51
180.0000000000000
  0
ARC
  5
169
100
AcDbEntity
  8
MAIN0
  6
CONTINUOUS
 62
3
100
AcDbCircle
 10
82.07985606934946
 20
188.7443040872067
 30
0.0000000000000000
 40
5.000000000000000
100
AcDbArc
 50
0.0000000000000000
 51
60.00000000000002
  0
ARC
  5
16A
100
AcDbEntity
  8
MAIN0
  6
CONTINUOUS
 62
3
100
AcDbCircle
 10
89.82985606934935
 20
193.2187686734264
 30
0.0000000000000000
 40
7.100000000000000
100
AcDbArc
 50
7.211910491681876
 51
52.78808950831827
  0
ARC
  5
16B
100
AcDbEntity
  8
MAIN0
  6
CONTINUOUS
 62
3
100
AcDbCircle
 10
89.82985606934935
 20
193.2187686734264
 30
0.0000000000000000
 40
7.100000000000000
100
AcDbArc
 50
127.2119104916818
 51
172.7880895083184
  0
ARC
  5
16C
100
AcDbEntity
  8
MAIN0
  6
CONTINUOUS
 62
3
100
AcDbCircle
 10
89.82985606934935
 20
193.2187686734264
 30
0.0000000000000000
 40
7.100000000000000
100
AcDbArc
 50
247.2119104916818
 51
292.7880895083182
  0
ARC
  5
16D
100
AcDbEntity
  8
MAIN0
  6
CONTINUOUS
 62
3
100
AcDbCircle
 10
89.82985606934935
 20
193.2187686734264
 30
0.0000000000000000
 40
5.000000000000000
100
AcDbArc
 50
63.49467867033077
 51
116.5053213296707
  0
ARC
  5
16E
100
AcDbEntity
  8
MAIN0
  6
CONTINUOUS
 62
3
100
AcDbCircle
 10
89.82985606934935
 20
193.2187686734264
 30
0.0000000000000000
 40
5.000000000000000
100
AcDbArc
 50
183.3670129692315
 51
236.5053213296712
  0
ARC
  5
16F
100
AcDbEntity
  8
MAIN0
  6
CONTINUOUS
 62
3
100
AcDbCircle
 10
89.82985606934935
 20
193.2187686734264
 30
0.0000000000000000
 40
5.000000000000000
100
AcDbArc
 50
303.4946786703297
 51
356.6329870307687
  0
SPLINE
  5
170
100
AcDbEntity
  8
MAIN0
  6
CONTINUOUS
 62
3
100
AcDbSpline
210
0.0000000000000000
220
0.0000000000000000
230
1.000000000000000
 70
     8
 71
     3
 72
    14
 73
    10
 74
     0
 42
1.000000000000000e-007
 43
1.000000000000000e-007
 12
-1.001522590761283
 22
-0.04257640356598813
 32
0.0000000000000000
 13
-0.4899089337272926
 23
0.8993782668378856
 33
0.0000000000000000
 40
0.0000000000000000
 40
0.0000000000000000
 40
0.0000000000000000
 40
0.0000000000000000
 40
2.502009662420939
 40
7.008362888035727
 40
9.998005935477272
 40
14.11453036316244
 40
19.23184005883064
 40
24.71111431509295
 40
27.94057315797495
 40
27.94057315797495
 40
27.94057315797495
 40
27.94057315797495
 10
232.4298560694430
 20
214.7150441136918
 30
0.0000000000000000
 10
231.5945830030371
 20
214.6795352559874
 30
0.0000000000000000
 10
229.2549050841637
 20
214.5800716271013
 30
0.0000000000000000
 10
225.9843370985685
 20
214.4585476083248
 30
0.0000000000000000
 10
221.9260352045510
 20
215.8549655173450
 30
0.0000000000000000
 10
221.3995354629527
 20
220.3851351544240
 30
0.0000000000000000
 10
217.6248438444202
 20
224.1510208089027
 30
0.0000000000000000
 10
219.3793983644262
 20
229.2155133543791
 30
0.0000000000000000
 10
217.9572363155205
 20
231.8263284480666
 30
0.0000000000000000
 10
217.4298560694430
 20
232.7944968137118
 30
0.0000000000000000
  0
DIMENSION
  5
179
100
AcDbEntity
  8
MAIN0
  6
CONTINUOUS
 62
3
100
AcDbDimension
  2
*D25
 10
232.4298560694430
 20
255.0364553588263
 30
0.0000000000000000
 11
216.1298560694084
 21
255.5364553588263
 31
0.0000000000000000
 70
32
  3
MAIN001
100
AcDbAlignedDimension
 13
199.8298560693737
 23
219.3187686739875
 33
0.0000000000000000
 14
232.4298560694430
 24
234.0187686736982
 34
0.0000000000000000
100
AcDbRotatedDimension
1001
ACAD
1000
DSTYLE
1002
{
1070
   173
1070
     1
1070
     6
1000
_OPEN
1070
     7
1000
_OPEN
1070
    41
1040
2.000000
1002
}
  0
ARC
  5
17A
100
AcDbEntity
  8
MAIN0
  6
CENTER
 62
3
100
AcDbCircle
 10
329.8298560696333
 20
193.2187686735622
 30
0.0000000000000000
 40
17.99999999997669
100
AcDbArc
 50
136.1963994478657
 51
162.4072412383803
  0
ARC
  5
17B
100
AcDbEntity
  8
MAIN0
  6
CENTER
 62
3
100
AcDbCircle
 10
329.8298560696333
 20
193.2187686735622
 30
0.0000000000000000
 40
17.99999999997669
100
AcDbArc
 50
256.1246669627840
 51
283.2463074011580
  0
ARC
  5
17C
100
AcDbEntity
  8
MAIN0
  6
CENTER
 62
3
100
AcDbCircle
 10
329.8298560696333
 20
193.2187686735622
 30
0.0000000000000000
 40
17.99999999997669
100
AcDbArc
 50
14.56377440794364
 51
45.41717436923283
  0
LINE
  5
17D
100
AcDbEntity
  8
MAIN0
  6
CONTINUOUS
 62
3
100
AcDbLine
 10
211.0298560694430
 20
234.2187686739932
 30
0.0000000000000000
 11
217.4298560694430
 21
234.2187686739932
 31
0.0000000000000000
  0
LINE
  5
17E
100
AcDbEntity
  8
MAIN0
  6
CONTINUOUS
 62
3
100
AcDbLine
 10
210.8298560694431
 20
234.0187686739932
 30
0.0000000000000000
 11
211.0298560694431
 21
234.2187686739931
 31
0.0000000000000000
  0
LINE
  5
17F
100
AcDbEntity
  8
MAIN0
  6
CONTINUOUS
 62
3
100
AcDbLine
 10
211.2298560694431
 20
152.2187686739932
 30
0.0000000000000000
 11
219.1298560694432
 21
152.2187686739932
 31
0.0000000000000000
  0
LINE
  5
180
100
AcDbEntity
  8
MAIN0
  6
CONTINUOUS
 62
3
100
AcDbLine
 10
217.4298560694430
 20
232.7944968136166
 30
0.0000000000000000
 11
217.4298560694430
 21
234.2187686739932
 31
0.0000000000000000
  0
LINE
  5
181
100
AcDbEntity
  8
MAIN0
  6
CONTINUOUS
 62
3
100
AcDbLine
 10
219.3298560694431
 20
163.2187686739932
 30
0.0000000000000000
 11
229.4298560694431
 21
163.2187686739932
 31
0.0000000000000000
  0
LINE
  5
182
100
AcDbEntity
  8
MAIN0
  6
CONTINUOUS
 62
3
100
AcDbLine
 10
229.4298560694431
 20
163.2187686739932
 30
0.0000000000000000
 11
231.4298560694432
 21
165.2187686739932
 31
0.0000000000000000
  0
LINE
  5
183
100
AcDbEntity
  8
MAIN0
  6
CONTINUOUS
 62
3
100
AcDbLine
 10
219.1298560694434
 20
152.2187686739935
 30
0.0000000000000000
 11
219.3298560694433
 21
152.4187686739934
 31
0.0000000000000000
  0
LINE
  5
184
100
AcDbEntity
  8
MAIN0
  6
CENTER
 62
3
100
AcDbLine
 10
193.2084115704209
 20
193.2187686735650
 30
0.0000000000000000
 11
234.5484615252433
 21
193.2187686734976
 31
0.0000000000000000
  0
LINE
  5
185
100
AcDbEntity
  8
MAIN0
  6
CONTINUOUS
 62
3
100
AcDbLine
 10
207.8298560694427
 20
216.5187686739933
 30
0.0000000000000000
 11
208.0298560694432
 21
216.7187686739932
 31
0.0000000000000000
  0
LINE
  5
186
100
AcDbEntity
  8
MAIN0
  6
CONTINUOUS
 62
3
100
AcDbLine
 10
208.0298560694433
 20
169.7187686739932
 30
0.0000000000000000
 11
207.8298560694427
 21
169.9187686739932
 31
0.0000000000000000
  0
LINE
  5
187
100
AcDbEntity
  8
MAIN0
  6
CONTINUOUS
 62
3
100
AcDbLine
 10
210.8298560694432
 20
152.6187686739932
 30
0.0000000000000000
 11
211.2298560694432
 21
152.2187686739933
 31
0.0000000000000000
  0
LINE
  5
188
100
AcDbEntity
  8
MAIN0
  6
HIDDEN
 62
3
100
AcDbLine
 10
210.8298560694431
 20
230.3187686735469
 30
0.0000000000000000
 11
212.8298560694430
 21
230.3187686735514
 31
0.0000000000000000
  0
LINE
  5
189
100
AcDbEntity
  8
MAIN0
  6
HIDDEN
 62
3
100
AcDbLine
 10
212.8298560694430
 20
216.7187686739932
 30
0.0000000000000000
 11
212.8298560694430
 21
230.3187686735514
 31
0.0000000000000000
  0
LINE
  5
18A
100
AcDbEntity
  8
MAIN0
  6
HIDDEN
 62
3
100
AcDbLine
 10
212.8298560695094
 20
169.7187686729299
 30
0.0000000000000000
 11
212.8298560695478
 21
156.1187686733717
 31
0.0000000000000000
  0
LINE
  5
18B
100
AcDbEntity
  8
MAIN0
  6
HIDDEN
 62
3
100
AcDbLine
 10
210.8298560695480
 20
156.1187686733705
 30
0.0000000000000000
 11
212.8298560695479
 21
156.1187686733717
 31
0.0000000000000000
  0
LINE
  5
18C
100
AcDbEntity
  8
MAIN0
  6
CONTINUOUS
 62
3
100
AcDbLine
 10
210.8298560694431
 20
152.6187686739933
 30
0.0000000000000000
 11
210.8298560694431
 21
234.0187686739932
 31
0.0000000000000000
  0
LINE
  5
18D
100
AcDbEntity
  8
MAIN0
  6
CONTINUOUS
 62
3
100
AcDbLine
 10
207.8298560694425
 20
169.9187686739933
 30
0.0000000000000000
 11
207.8298560694424
 21
216.5187686739931
 31
0.0000000000000000
  0
LINE
  5
18E
100
AcDbEntity
  8
MAIN0
  6
CONTINUOUS
 62
3
100
AcDbLine
 10
208.0298560694432
 20
216.7187686739932
 30
0.0000000000000000
 11
210.8298560694431
 21
216.7187686739932
 31
0.0000000000000000
  0
LINE
  5
18F
100
AcDbEntity
  8
MAIN0
  6
HIDDEN
 62
3
100
AcDbLine
 10
210.8298560694431
 20
216.7187686739932
 30
0.0000000000000000
 11
212.8298560694430
 21
216.7187686739932
 31
0.0000000000000000
  0
LINE
  5
190
100
AcDbEntity
  8
MAIN0
  6
CONTINUOUS
 62
3
100
AcDbLine
 10
208.0298560694432
 20
169.7187686739933
 30
0.0000000000000000
 11
210.8298560694431
 21
169.7187686739933
 31
0.0000000000000000
  0
LINE
  5
191
100
AcDbEntity
  8
MAIN0
  6
HIDDEN
 62
3
100
AcDbLine
 10
210.8298560694431
 20
169.7187686739933
 30
0.0000000000000000
 11
212.8298560695095
 21
169.7187686739933
 31
0.0000000000000000
  0
LINE
  5
192
100
AcDbEntity
  8
MAIN0
  6
CONTINUOUS
 62
3
100
AcDbLine
 10
231.4298560694430
 20
221.2187686737773
 30
0.0000000000000000
 11
231.4298560694430
 21
226.2187686736982
 31
0.0000000000000000
  0
LINE
  5
193
100
AcDbEntity
  8
MAIN0
  6
CONTINUOUS
 62
3
100
AcDbLine
 10
228.4298560694430
 20
214.5645771504757
 30
0.0000000000000000
 11
228.4298560694430
 21
184.0164960530169
 31
0.0000000000000000
  0
LINE
  5
194
100
AcDbEntity
  8
MAIN0
  6
CONTINUOUS
 62
3
100
AcDbLine
 10
219.3298560694431
 20
184.0164960530371
 30
0.0000000000000000
 11
228.4298560694430
 21
184.0164960530169
 31
0.0000000000000000
  0
LINE
  5
195
100
AcDbEntity
  8
MAIN0
  6
CONTINUOUS
 62
3
100
AcDbLine
 10
231.4298560694431
 20
179.9979902417307
 30
0.0000000000000000
 11
228.4298560694430
 21
184.0164960530169
 31
0.0000000000000000
  0
LINE
  5
196
100
AcDbEntity
  8
MAIN0
  6
CONTINUOUS
 62
3
100
AcDbLine
 10
219.3298560694431
 20
152.4187686739933
 30
0.0000000000000000
 11
219.3298560694431
 21
163.2187686739932
 31
0.0000000000000000
  0
LINE
  5
197
100
AcDbEntity
  8
MAIN0
  6
CONTINUOUS
 62
3
100
AcDbLine
 10
219.3298560694431
 20
184.0164960530371
 30
0.0000000000000000
 11
219.3298560694431
 21
222.7451452928154
 31
0.0000000000000000
  0
LINE
  5
198
100
AcDbEntity
  8
MAIN0
  6
CONTINUOUS
 62
3
100
AcDbLine
 10
223.4298560694431
 20
177.6671969754028
 30
0.0000000000000000
 11
231.4298560694430
 21
177.6671969754383
 31
0.0000000000000000
  0
LINE
  5
199
100
AcDbEntity
  8
MAIN0
  6
CONTINUOUS
 62
3
100
AcDbLine
 10
217.4298560694431
 20
180.5253716693168
 30
0.0000000000000000
 11
223.4298560694430
 21
180.5253716693168
 31
0.0000000000000000
  0
LINE
  5
19A
100
AcDbEntity
  8
MAIN0
  6
CONTINUOUS
 62
3
100
AcDbLine
 10
217.4298560694430
 20
165.4575527408068
 30
0.0000000000000000
 11
217.4298560694430
 21
180.5253716693168
 31
0.0000000000000000
  0
LINE
  5
19B
100
AcDbEntity
  8
MAIN0
  6
CONTINUOUS
 62
3
100
AcDbLine
 10
223.4298560694430
 20
177.4819083940863
 30
0.0000000000000000
 11
223.4298560694430
 21
180.5253716693168
 31
0.0000000000000000
  0
LINE
  5
19C
100
AcDbEntity
  8
MAIN0
  6
CONTINUOUS
 62
3
100
AcDbLine
 10
231.4298560694430
 20
165.2187686739932
 30
0.0000000000000000
 11
231.4298560694430
 21
167.9556289524679
 31
0.0000000000000000
  0
LINE
  5
19D
100
AcDbEntity
  8
MAIN0
  6
CONTINUOUS
 62
3
100
AcDbLine
 10
231.4298560694430
 20
177.6671969754382
 30
0.0000000000000000
 11
231.4298560694430
 21
214.6726319933081
 31
0.0000000000000000
  0
LINE
  5
19E
100
AcDbEntity
  8
MAIN1
  6
CONTINUOUS
 62
7
100
AcDbLine
 10
232.2298560694430
 20
226.2187686736982
 30
0.0000000000000000
 11
229.4298560694430
 21
226.2187686736982
 31
0.0000000000000000
  0
LINE
  5
19F
100
AcDbEntity
  8
MAIN0
  6
CONTINUOUS
 62
3
100
AcDbLine
 10
232.4298560694429
 20
226.4187686736983
 30
0.0000000000000000
 11
232.2298560694428
 21
226.2187686736982
 31
0.0000000000000000
  0
LINE
  5
1A0
100
AcDbEntity
  8
MAIN0
  6
CONTINUOUS
 62
3
100
AcDbLine
 10
229.4298560694430
 20
226.2187686736982
 30
0.0000000000000000
 11
229.4298560694430
 21
221.2187686737748
 31
0.0000000000000000
  0
LINE
  5
1A1
100
AcDbEntity
  8
MAIN0
  6
CONTINUOUS
 62
3
100
AcDbLine
 10
224.4298560694430
 20
225.7187686737083
 30
0.0000000000000000
 11
229.2298560694431
 21
225.7187686737083
 31
0.0000000000000000
  0
LINE
  5
1A2
100
AcDbEntity
  8
MAIN0
  6
CONTINUOUS
 62
3
100
AcDbLine
 10
229.2298560694430
 20
225.7187686737082
 30
0.0000000000000000
 11
229.4298560694431
 21
225.9187686737083
 31
0.0000000000000000
  0
LINE
  5
1A3
100
AcDbEntity
  8
MAIN0
  6
CONTINUOUS
 62
3
100
AcDbLine
 10
224.4298560694450
 20
221.7187686737582
 30
0.0000000000000000
 11
229.2298560694451
 21
221.7187686737645
 31
0.0000000000000000
  0
LINE
  5
1A4
100
AcDbEntity
  8
MAIN0
  6
CONTINUOUS
 62
3
100
AcDbLine
 10
229.2298560694451
 20
221.7187686737647
 30
0.0000000000000000
 11
229.4298560694453
 21
221.5187686737648
 31
0.0000000000000000
  0
LINE
  5
1A5
100
AcDbEntity
  8
MAIN1
  6
CONTINUOUS
 62
7
100
AcDbLine
 10
232.2298560694455
 20
221.2187686737783
 30
0.0000000000000000
 11
229.4298560694455
 21
221.2187686737749
 31
0.0000000000000000
  0
LINE
  5
1A6
100
AcDbEntity
  8
MAIN0
  6
CONTINUOUS
 62
3
100
AcDbLine
 10
232.4298560694458
 20
221.0187686737785
 30
0.0000000000000000
 11
232.2298560694455
 21
221.2187686737784
 31
0.0000000000000000
  0
LINE
  5
1A7
100
AcDbEntity
  8
MAIN0
  6
CONTINUOUS
 62
3
100
AcDbLine
 10
224.4298560694430
 20
225.7187686737083
 30
0.0000000000000000
 11
224.4298560694431
 21
221.7187686737582
 31
0.0000000000000000
  0
LINE
  5
1A8
100
AcDbEntity
  8
MAIN0
  6
CONTINUOUS
 62
3
100
AcDbLine
 10
223.2751555310743
 20
223.7187686737329
 30
0.0000000000000000
 11
224.4298560694445
 21
221.7187686737583
 31
0.0000000000000000
  0
LINE
  5
1A9
100
AcDbEntity
  8
MAIN0
  6
CONTINUOUS
 62
3
100
AcDbLine
 10
223.2751555310747
 20
223.7187686737320
 30
0.0000000000000000
 11
224.4298560694429
 21
225.7187686737080
 31
0.0000000000000000
  0
LINE
  5
1AA
100
AcDbEntity
  8
MAIN0
  6
CONTINUOUS
 62
3
100
AcDbLine
 10
232.1798560694430
 20
228.2187686737374
 30
0.0000000000000000
 11
225.4298560694430
 21
228.2187686737374
 31
0.0000000000000000
  0
LINE
  5
1AB
100
AcDbEntity
  8
MAIN0
  6
CONTINUOUS
 62
3
100
AcDbLine
 10
232.4298560694430
 20
227.9687686737375
 30
0.0000000000000000
 11
231.8298560694429
 21
228.5687686737375
 31
0.0000000000000000
  0
LINE
  5
1AC
100
AcDbEntity
  8
MAIN0
  6
CONTINUOUS
 62
3
100
AcDbLine
 10
231.8298560694430
 20
228.5687686737373
 30
0.0000000000000000
 11
231.8298560694430
 21
231.8687686737375
 31
0.0000000000000000
  0
LINE
  5
1AD
100
AcDbEntity
  8
MAIN0
  6
CONTINUOUS
 62
3
100
AcDbLine
 10
231.8298560694430
 20
228.5687686737373
 30
0.0000000000000000
 11
224.4298560694534
 21
228.5687686737373
 31
0.0000000000000000
  0
LINE
  5
1AE
100
AcDbEntity
  8
MAIN0
  6
CENTER
 62
3
100
AcDbLine
 10
220.9298560692912
 20
230.2187686737361
 30
0.0000000000000000
 11
234.2396666957259
 21
230.2187686737378
 31
0.0000000000000000
  0
LINE
  5
1AF
100
AcDbEntity
  8
MAIN0
  6
CONTINUOUS
 62
3
100
AcDbLine
 10
225.4298560694430
 20
232.2187686737375
 30
0.0000000000000000
 11
232.1798560694430
 21
232.2187686737375
 31
0.0000000000000000
  0
LINE
  5
1B0
100
AcDbEntity
  8
MAIN0
  6
CONTINUOUS
 62
3
100
AcDbLine
 10
224.4298560694497
 20
231.8687686737375
 30
0.0000000000000000
 11
231.8298560694430
 21
231.8687686737375
 31
0.0000000000000000
  0
LINE
  5
1B1
100
AcDbEntity
  8
MAIN0
  6
CONTINUOUS
 62
3
100
AcDbLine
 10
231.8298560694432
 20
231.8687686737376
 30
0.0000000000000000
 11
232.4298560694430
 21
232.4687686737375
 31
0.0000000000000000
  0
LINE
  5
1B2
100
AcDbEntity
  8
MAIN0
  6
CONTINUOUS
 62
3
100
AcDbLine
 10
225.4298560694430
 20
228.2187686737374
 30
0.0000000000000000
 11
225.4298560694430
 21
232.2187686737375
 31
0.0000000000000000
  0
LINE
  5
1B3
100
AcDbEntity
  8
MAIN0
  6
CONTINUOUS
 62
3
100
AcDbLine
 10
224.4298560694499
 20
231.8687686737237
 30
0.0000000000000000
 11
224.1989159617828
 21
231.4687686737377
 31
0.0000000000000000
  0
LINE
  5
1B4
100
AcDbEntity
  8
MAIN0
  6
CONTINUOUS
 62
3
100
AcDbLine
 10
224.1989159617686
 20
228.9687686737377
 30
0.0000000000000000
 11
224.4298560694531
 21
228.5687686737236
 31
0.0000000000000000
  0
LINE
  5
1B5
100
AcDbEntity
  8
MAIN0
  6
CONTINUOUS
 62
3
100
AcDbLine
 10
224.4298560694501
 20
231.8687686737239
 30
0.0000000000000000
 11
224.4298560694537
 21
228.5687686737239
 31
0.0000000000000000
  0
LINE
  5
1B6
100
AcDbEntity
  8
MAIN0
  6
CONTINUOUS
 62
3
100
AcDbLine
 10
224.4298560694501
 20
218.8687686737230
 30
0.0000000000000000
 11
224.4298560694537
 21
215.5687686737230
 31
0.0000000000000000
  0
LINE
  5
1B7
100
AcDbEntity
  8
MAIN0
  6
CONTINUOUS
 62
3
100
AcDbLine
 10
224.4298560694496
 20
218.8687686737227
 30
0.0000000000000000
 11
223.4772281252886
 21
217.2187686737217
 31
0.0000000000000000
  0
LINE
  5
1B8
100
AcDbEntity
  8
MAIN0
  6
CONTINUOUS
 62
3
100
AcDbLine
 10
223.4772281252886
 20
217.2187686737217
 30
0.0000000000000000
 11
224.4298560694533
 21
215.5687686737227
 31
0.0000000000000000
  0
LINE
  5
1B9
100
AcDbEntity
  8
MAIN0
  6
CENTER
 62
3
100
AcDbLine
 10
222.9543213146500
 20
217.2187686737240
 30
0.0000000000000000
 11
234.2396666957311
 21
217.2187686737396
 31
0.0000000000000000
  0
LINE
  5
1BA
100
AcDbEntity
  8
MAIN0
  6
CONTINUOUS
 62
3
100
AcDbLine
 10
231.8298560694499
 20
218.8687686737310
 30
0.0000000000000000
 11
224.4298560694500
 21
218.8687686737231
 31
0.0000000000000000
  0
LINE
  5
1BB
100
AcDbEntity
  8
MAIN0
  6
CONTINUOUS
 62
3
100
AcDbLine
 10
232.1798560694497
 20
219.2187686737313
 30
0.0000000000000000
 11
225.4298560694497
 21
219.2187686737238
 31
0.0000000000000000
  0
LINE
  5
1BC
100
AcDbEntity
  8
MAIN0
  6
CONTINUOUS
 62
3
100
AcDbLine
 10
225.4298560694496
 20
219.2187686737238
 30
0.0000000000000000
 11
225.4298560694541
 21
215.2187686737238
 31
0.0000000000000000
  0
LINE
  5
1BD
100
AcDbEntity
  8
MAIN0
  6
CONTINUOUS
 62
3
100
AcDbLine
 10
224.4298560694535
 20
215.5687686737230
 30
0.0000000000000000
 11
231.8298560694535
 21
215.5687686737309
 31
0.0000000000000000
  0
LINE
  5
1BE
100
AcDbEntity
  8
MAIN0
  6
CONTINUOUS
 62
3
100
AcDbLine
 10
225.4298560694542
 20
215.2187686737238
 30
0.0000000000000000
 11
232.1798560694542
 21
215.2187686737313
 31
0.0000000000000000
  0
LINE
  5
1BF
100
AcDbEntity
  8
MAIN0
  6
CONTINUOUS
 62
3
100
AcDbLine
 10
231.8298560694534
 20
215.5687686737310
 30
0.0000000000000000
 11
232.4298560694542
 21
214.9687686737316
 31
0.0000000000000000
  0
LINE
  5
1C0
100
AcDbEntity
  8
MAIN0
  6
CONTINUOUS
 62
3
100
AcDbLine
 10
231.8298560694502
 20
218.8687686737309
 30
0.0000000000000000
 11
231.8298560694538
 21
215.5687686737309
 31
0.0000000000000000
  0
LINE
  5
1C1
100
AcDbEntity
  8
MAIN0
  6
CONTINUOUS
 62
3
100
AcDbLine
 10
232.4298560694494
 20
219.4687686737314
 30
0.0000000000000000
 11
231.8298560694500
 21
218.8687686737307
 31
0.0000000000000000
  0
LINE
  5
1C2
100
AcDbEntity
  8
MAIN0
  6
CONTINUOUS
 62
3
100
AcDbLine
 10
232.4298560694430
 20
214.4187686736518
 30
0.0000000000000000
 11
232.2298560694429
 21
214.2187686736517
 31
0.0000000000000000
  0
LINE
  5
1C3
100
AcDbEntity
  8
MAIN0
  6
CONTINUOUS
 62
3
100
AcDbLine
 10
232.2298560694430
 20
214.2187686736517
 30
0.0000000000000000
 11
231.4298560694430
 21
214.2187686736517
 31
0.0000000000000000
  0
LINE
  5
1C4
100
AcDbEntity
  8
MAIN0
  6
CONTINUOUS
 62
3
100
AcDbLine
 10
232.2298560694430
 20
234.2187686736982
 30
0.0000000000000000
 11
217.4298560694430
 21
234.2187686736982
 31
0.0000000000000000
  0
LINE
  5
1C5
100
AcDbEntity
  8
MAIN0
  6
CONTINUOUS
 62
3
100
AcDbLine
 10
232.4298560694430
 20
214.4187686736518
 30
0.0000000000000000
 11
232.4298560694430
 21
221.0187686737785
 31
0.0000000000000000
  0
LINE
  5
1C6
100
AcDbEntity
  8
MAIN0
  6
CONTINUOUS
 62
3
100
AcDbLine
 10
232.4298560694430
 20
226.4187686736983
 30
0.0000000000000000
 11
232.4298560694430
 21
234.0187686736982
 31
0.0000000000000000
  0
LINE
  5
1C7
100
AcDbEntity
  8
MAIN0
  6
CONTINUOUS
 62
3
100
AcDbLine
 10
218.9298560694431
 20
226.2187686736982
 30
0.0000000000000000
 11
218.9298560694428
 21
233.8187686736984
 31
0.0000000000000000
  0
LINE
  5
1C8
100
AcDbEntity
  8
MAIN0
  6
CONTINUOUS
 62
3
100
AcDbLine
 10
218.9298560694429
 20
233.8187686736981
 30
0.0000000000000000
 11
218.5298560694430
 21
234.2187686736981
 31
0.0000000000000000
  0
LINE
  5
1C9
100
AcDbEntity
  8
MAIN0
  6
CONTINUOUS
 62
3
100
AcDbLine
 10
222.9298560694433
 20
226.2187686736982
 30
0.0000000000000000
 11
218.9298560694433
 21
226.2187686736982
 31
0.0000000000000000
  0
LINE
  5
1CA
100
AcDbEntity
  8
MAIN0
  6
CONTINUOUS
 62
3
100
AcDbLine
 10
220.9298560694429
 20
225.0640681353189
 30
0.0000000000000000
 11
218.9298560694429
 21
226.2187686736982
 31
0.0000000000000000
  0
LINE
  5
1CB
100
AcDbEntity
  8
MAIN0
  6
CONTINUOUS
 62
3
100
AcDbLine
 10
222.9298560694430
 20
226.2187686736983
 30
0.0000000000000000
 11
220.9298560694430
 21
225.0640681353191
 31
0.0000000000000000
  0
LINE
  5
1CC
100
AcDbEntity
  8
MAIN0
  6
CONTINUOUS
 62
3
100
AcDbLine
 10
222.9298560694427
 20
233.8187686736983
 30
0.0000000000000000
 11
222.9298560694430
 21
226.2187686736983
 31
0.0000000000000000
  0
LINE
  5
1CD
100
AcDbEntity
  8
MAIN0
  6
CONTINUOUS
 62
3
100
AcDbLine
 10
223.3298560694429
 20
234.2187686736982
 30
0.0000000000000000
 11
222.9298560694429
 21
233.8187686736983
 31
0.0000000000000000
  0
LINE
  5
1CE
100
AcDbEntity
  8
MAIN0
  6
CONTINUOUS
 62
3
100
AcDbLine
 10
224.1989159617688
 20
228.9687686737377
 30
0.0000000000000000
 11
222.9298560694430
 21
228.9687686737377
 31
0.0000000000000000
  0
LINE
  5
1CF
100
AcDbEntity
  8
MAIN0
  6
CONTINUOUS
 62
3
100
AcDbLine
 10
224.3432535290665
 20
228.7187686737377
 30
0.0000000000000000
 11
222.9298560694431
 21
228.7187686737377
 31
0.0000000000000000
  0
LINE
  5
1D0
100
AcDbEntity
  8
MAIN0
  6
CONTINUOUS
 62
3
100
AcDbLine
 10
222.9298560694430
 20
231.4687686737377
 30
0.0000000000000000
 11
224.1989159617826
 21
231.4687686737377
 31
0.0000000000000000
  0
LINE
  5
1D1
100
AcDbEntity
  8
MAIN0
  6
CONTINUOUS
 62
3
100
AcDbLine
 10
222.9298560694430
 20
231.7187686737377
 30
0.0000000000000000
 11
224.3432535290796
 21
231.7187686737377
 31
0.0000000000000000
  0
LINE
  5
1D2
100
AcDbEntity
  8
MAIN0
  6
CONTINUOUS
 62
3
100
AcDbLine
 10
224.1989159617688
 20
228.9687686737377
 30
0.0000000000000000
 11
224.1989159617826
 21
231.4687686737376
 31
0.0000000000000000
  0
LINE
  5
1D3
100
AcDbEntity
  8
MAIN0
  6
CENTER
 62
3
100
AcDbLine
 10
222.3851809441728
 20
223.7187686737411
 30
0.0000000000000000
 11
234.1992984169876
 21
223.7187686737411
 31
0.0000000000000000
  0
LINE
  5
1D4
100
AcDbEntity
  8
MAIN0
  6
CENTER
 62
3
100
AcDbLine
 10
220.9298560692913
 20
223.9975387651699
 30
0.0000000000000000
 11
220.9298560692913
 21
235.4349798011635
 31
0.0000000000000000
  0
LINE
  5
1D5
100
AcDbEntity
  8
MAIN0
  6
CONTINUOUS
 62
3
100
AcDbLine
 10
232.4298560694431
 20
234.0187686736982
 30
0.0000000000000000
 11
232.2298560694431
 21
234.2187686736982
 31
0.0000000000000000
  0
LINE
  5
1D6
100
AcDbEntity
  8
MAIN0
  6
CONTINUOUS
 62
3
100
AcDbLine
 10
217.4298560694430
 20
232.7944968136166
 30
0.0000000000000000
 11
217.4298560694430
 21
234.2187686736983
 31
0.0000000000000000
  0
LINE
  5
1D7
100
AcDbEntity
  8
MAIN0
  6
CONTINUOUS
 62
3
100
AcDbLine
 10
200.2298560693806
 20
169.7187686739875
 30
0.0000000000000000
 11
207.4298560693805
 21
169.7187686739875
 31
0.0000000000000000
  0
LINE
  5
1D8
100
AcDbEntity
  8
MAIN0
  6
CONTINUOUS
 62
3
100
AcDbLine
 10
200.2298560693736
 20
219.7187686739875
 30
0.0000000000000000
 11
203.4298560693807
 21
219.7187686739875
 31
0.0000000000000000
  0
LINE
  5
1D9
100
AcDbEntity
  8
MAIN0
  6
CONTINUOUS
 62
3
100
AcDbLine
 10
199.8298560693739
 20
219.3187686739876
 30
0.0000000000000000
 11
200.2298560693737
 21
219.7187686739875
 31
0.0000000000000000
  0
LINE
  5
1DA
100
AcDbEntity
  8
MAIN0
  6
CONTINUOUS
 62
3
100
AcDbLine
 10
199.8298560693805
 20
170.1187686739874
 30
0.0000000000000000
 11
200.2298560693806
 21
169.7187686739874
 31
0.0000000000000000
  0
LINE
  5
1DB
100
AcDbEntity
  8
MAIN0
  6
CONTINUOUS
 62
3
100
AcDbLine
 10
207.4298560693806
 20
169.7187686739874
 30
0.0000000000000000
 11
207.8298560693806
 21
170.1187686739875
 31
0.0000000000000000
  0
LINE
  5
1DC
100
AcDbEntity
  8
MAIN0
  6
CONTINUOUS
 62
3
100
AcDbLine
 10
203.8298560693808
 20
219.3187686739879
 30
0.0000000000000000
 11
203.8298560693802
 21
213.5703656619213
 31
0.0000000000000000
  0
LINE
  5
1DD
100
AcDbEntity
  8
MAIN0
  6
CONTINUOUS
 62
3
100
AcDbLine
 10
203.4298560693807
 20
219.7187686739873
 30
0.0000000000000000
 11
203.8298560693806
 21
219.3187686739874
 31
0.0000000000000000
  0
LINE
  5
1DE
100
AcDbEntity
  8
MAIN0
  6
CONTINUOUS
 62
3
100
AcDbLine
 10
207.4298560693805
 20
216.7187686739875
 30
0.0000000000000000
 11
207.8298560693805
 21
216.3187686739876
 31
0.0000000000000000
  0
LINE
  5
1DF
100
AcDbEntity
  8
MAIN0
  6
CONTINUOUS
 62
3
100
AcDbLine
 10
194.8298560693795
 20
180.5187686743570
 30
0.0000000000000000
 11
194.8298560693762
 21
205.9187686733685
 31
0.0000000000000000
  0
LINE
  5
1E0
100
AcDbEntity
  8
MAIN0
  6
CONTINUOUS
 62
3
100
AcDbLine
 10
196.2154967156735
 20
206.7187686735113
 30
0.0000000000000000
 11
199.8298560693762
 21
206.7187686735193
 31
0.0000000000000000
  0
LINE
  5
1E1
100
AcDbEntity
  8
MAIN0
  6
CONTINUOUS
 62
3
100
AcDbLine
 10
196.2154967169036
 20
179.7187686735113
 30
0.0000000000000000
 11
199.8298560693793
 21
179.7187686735193
 31
0.0000000000000000
  0
LINE
  5
1E2
100
AcDbEntity
  8
MAIN0
  6
CONTINUOUS
 62
3
100
AcDbLine
 10
194.8298560693759
 20
205.9187686733685
 30
0.0000000000000000
 11
196.2154967156727
 21
206.7187686735111
 31
0.0000000000000000
  0
LINE
  5
1E3
100
AcDbEntity
  8
MAIN0
  6
CONTINUOUS
 62
3
100
AcDbLine
 10
194.8298560693793
 20
180.5187686743572
 30
0.0000000000000000
 11
196.2154967169035
 21
179.7187686735115
 31
0.0000000000000000
  0
ARC
  5
1E4
100
AcDbEntity
  8
MAIN0
  6
CONTINUOUS
 62
3
100
AcDbCircle
 10
204.2298560693805
 20
217.1187686739875
 30
0.0000000000000000
 40
0.4000000000000000
100
AcDbArc
 50
180.0000000000000
 51
270.0000000000000
  0
LINE
  5
1E5
100
AcDbEntity
  8
MAIN0
  6
CONTINUOUS
 62
3
100
AcDbLine
 10
207.8298560693804
 20
170.1187686739875
 30
0.0000000000000000
 11
207.8298560693805
 21
216.3187686739874
 31
0.0000000000000000
  0
LINE
  5
1E6
100
AcDbEntity
  8
MAIN0
  6
CONTINUOUS
 62
3
100
AcDbLine
 10
199.8298560693806
 20
170.1187686739874
 30
0.0000000000000000
 11
199.8298560693737
 21
219.3187686739875
 31
0.0000000000000000
  0
LINE
  5
1E7
100
AcDbEntity
  8
MAIN0
  6
CONTINUOUS
 62
3
100
AcDbLine
 10
203.8298560694246
 20
193.2187686735478
 30
0.0000000000000000
 11
203.8298560694624
 21
172.7898943754151
 31
0.0000000000000000
  0
LINE
  5
1E8
100
AcDbEntity
  8
MAIN0
  6
CONTINUOUS
 62
3
100
AcDbLine
 10
199.8298560693802
 20
172.7898943754284
 30
0.0000000000000000
 11
203.8298560694624
 21
172.7898943754151
 31
0.0000000000000000
  0
LINE
  5
1E9
100
AcDbEntity
  8
MAIN0
  6
CONTINUOUS
 62
3
100
AcDbLine
 10
199.8298560693780
 20
188.8152948492115
 30
0.0000000000000000
 11
203.8298560694328
 21
188.8152948492115
 31
0.0000000000000000
  0
LINE
  5
1EA
100
AcDbEntity
  8
MAIN0
  6
CONTINUOUS
 62
3
100
AcDbLine
 10
199.8298560693773
 20
193.2187686734741
 30
0.0000000000000000
 11
203.8298560694246
 21
193.2187686734741
 31
0.0000000000000000
  0
LINE
  5
1EB
100
AcDbEntity
  8
MAIN0
  6
CONTINUOUS
 62
3
100
AcDbLine
 10
353.3298560693447
 20
87.21876867368445
 30
0.0000000000000000
 11
353.3298560693447
 21
90.81876867357556
 31
0.0000000000000000
  0
LINE
  5
1EC
100
AcDbEntity
  8
MAIN0
  6
CONTINUOUS
 62
3
100
AcDbLine
 10
303.6982771222510
 20
83.61876867356870
 30
0.0000000000000000
 11
303.6982771222510
 21
86.81876867357579
 31
0.0000000000000000
  0
LINE
  5
1ED
100
AcDbEntity
  8
MAIN0
  6
CONTINUOUS
 62
3
100
AcDbLine
 10
304.0982771222509
 20
83.21876867356890
 30
0.0000000000000000
 11
303.6982771222511
 21
83.61876867356867
 31
0.0000000000000000
  0
LINE
  5
1EE
100
AcDbEntity
  8
MAIN0
  6
CONTINUOUS
 62
3
100
AcDbLine
 10
353.3298560693447
 20
90.81876867357565
 30
0.0000000000000000
 11
352.9298560693446
 21
91.21876867357562
 31
0.0000000000000000
  0
LINE
  5
1EF
100
AcDbEntity
  8
MAIN0
  6
CONTINUOUS
 62
3
100
AcDbLine
 10
304.0982771222512
 20
87.21876867357568
 30
0.0000000000000000
 11
318.0798560701974
 21
87.21876867357443
 31
0.0000000000000000
  0
LINE
  5
1F0
100
AcDbEntity
  8
MAIN0
  6
CONTINUOUS
 62
3
100
AcDbLine
 10
303.6982771222511
 20
86.81876867357582
 30
0.0000000000000000
 11
304.0982771222510
 21
87.21876867357580
 31
0.0000000000000000
  0
LINE
  5
1F1
100
AcDbEntity
  8
MAIN0
  6
CONTINUOUS
 62
3
100
AcDbLine
 10
306.3298560693446
 20
90.81876867357562
 30
0.0000000000000000
 11
306.7298560693446
 21
91.21876867357560
 31
0.0000000000000000
  0
LINE
  5
1F2
100
AcDbEntity
  8
MAIN0
  6
CONTINUOUS
 62
3
100
AcDbLine
 10
342.5298560689751
 20
78.21876867357449
 30
0.0000000000000000
 11
317.1298560699636
 21
78.21876867357113
 31
0.0000000000000000
  0
LINE
  5
1F3
100
AcDbEntity
  8
MAIN0
  6
CONTINUOUS
 62
3
100
AcDbLine
 10
316.3298560698209
 20
79.60440931986859
 30
0.0000000000000000
 11
316.3298560698129
 21
83.21876867357123
 31
0.0000000000000000
  0
LINE
  5
1F4
100
AcDbEntity
  8
MAIN0
  6
CONTINUOUS
 62
3
100
AcDbLine
 10
343.3298560698209
 20
79.60440932109866
 30
0.0000000000000000
 11
343.3298560698129
 21
83.21876867357439
 31
0.0000000000000000
  0
LINE
  5
1F5
100
AcDbEntity
  8
MAIN0
  6
CONTINUOUS
 62
3
100
AcDbLine
 10
317.1298560699636
 20
78.21876867357102
 30
0.0000000000000000
 11
316.3298560698210
 21
79.60440931986778
 31
0.0000000000000000
  0
LINE
  5
1F6
100
AcDbEntity
  8
MAIN0
  6
CONTINUOUS
 62
3
100
AcDbLine
 10
342.5298560689751
 20
78.21876867357440
 30
0.0000000000000000
 11
343.3298560698207
 21
79.60440932109862
 31
0.0000000000000000
  0
ARC
  5
1F7
100
AcDbEntity
  8
MAIN0
  6
CONTINUOUS
 62
3
100
AcDbCircle
 10
305.9298560693446
 20
87.61876867357563
 30
0.0000000000000000
 40
0.4000000000000000
100
AcDbArc
 50
270.0000000000000
 51
360.0000000000000
  0
LINE
  5
1F8
100
AcDbEntity
  8
MAIN0
  6
CONTINUOUS
 62
3
100
AcDbLine
 10
312.9505463992287
 20
83.21876867357059
 30
0.0000000000000000
 11
312.9505463992302
 21
87.21876867357491
 31
0.0000000000000000
  0
LINE
  5
1F9
100
AcDbEntity
  8
MAIN0
  6
CONTINUOUS
 62
3
100
AcDbLine
 10
346.7091657403957
 20
83.21876867364874
 30
0.0000000000000000
 11
346.7091657403756
 21
87.21876867365317
 31
0.0000000000000000
  0
LINE
  5
1FA
100
AcDbEntity
  8
MAIN0
  6
CONTINUOUS
 62
3
100
AcDbLine
 10
306.7298560693447
 20
91.21876867357551
 30
0.0000000000000000
 11
352.9298560693446
 21
91.21876867357545
 31
0.0000000000000000
  0
LINE
  5
1FB
100
AcDbEntity
  8
MAIN0
  6
CONTINUOUS
 62
3
100
AcDbLine
 10
304.0982771222510
 20
83.21876867356875
 30
0.0000000000000000
 11
355.5614350172614
 21
83.21876867357585
 31
0.0000000000000000
  0
LINE
  5
1FC
100
AcDbEntity
  8
MAIN0
  6
CONTINUOUS
 62
3
100
AcDbLine
 10
231.9298560694430
 20
187.4819083944802
 30
0.0000000000000000
 11
231.9298560694430
 21
207.7187686735556
 31
0.0000000000000000
  0
LINE
  5
1FD
100
AcDbEntity
  8
MAIN0
  6
CONTINUOUS
 62
3
100
AcDbLine
 10
231.4298560694430
 20
207.7187686735546
 30
0.0000000000000000
 11
231.9298560694430
 21
207.7187686735557
 31
0.0000000000000000
  0
LINE
  5
1FE
100
AcDbEntity
  8
MAIN0
  6
CONTINUOUS
 62
3
100
AcDbLine
 10
223.4298560694431
 20
177.4819083940863
 30
0.0000000000000000
 11
232.4298560694430
 21
177.4819083940663
 31
0.0000000000000000
  0
LINE
  5
1FF
100
AcDbEntity
  8
MAIN0
  6
CONTINUOUS
 62
3
100
AcDbLine
 10
223.4298560694430
 20
167.9556289524679
 30
0.0000000000000000
 11
232.4298560694430
 21
167.9556289524679
 31
0.0000000000000000
  0
LINE
  5
200
100
AcDbEntity
  8
MAIN0
  6
CONTINUOUS
 62
3
100
AcDbLine
 10
217.4298560694430
 20
180.1799846057770
 30
0.0000000000000000
 11
223.4298560694430
 21
180.1799846057903
 31
0.0000000000000000
  0
LINE
  5
201
100
AcDbEntity
  8
MAIN0
  6
CONTINUOUS
 62
3
100
AcDbLine
 10
217.4298560694431
 20
179.9067795247760
 30
0.0000000000000000
 11
223.4298560694431
 21
179.9067795247893
 31
0.0000000000000000
  0
LINE
  5
202
100
AcDbEntity
  8
MAIN0
  6
CONTINUOUS
 62
3
100
AcDbLine
 10
232.4298560694430
 20
167.9556289524679
 30
0.0000000000000000
 11
232.4298560694430
 21
187.4819083944802
 31
0.0000000000000000
  0
LINE
  5
203
100
AcDbEntity
  8
MAIN0
  6
CONTINUOUS
 62
3
100
AcDbLine
 10
217.4298560694431
 20
165.5307578214515
 30
0.0000000000000000
 11
223.4298560694431
 21
165.5307578214782
 31
0.0000000000000000
  0
LINE
  5
204
100
AcDbEntity
  8
MAIN0
  6
CONTINUOUS
 62
3
100
AcDbLine
 10
217.4298560694430
 20
165.4575527408068
 30
0.0000000000000000
 11
223.4298560694430
 21
165.4575527408068
 31
0.0000000000000000
  0
LINE
  5
205
100
AcDbEntity
  8
MAIN0
  6
CONTINUOUS
 62
3
100
AcDbLine
 10
223.4298560694430
 20
165.4575527408068
 30
0.0000000000000000
 11
223.4298560694430
 21
167.9556289524680
 31
0.0000000000000000
  0
LINE
  5
206
100
AcDbEntity
  8
MAIN0
  6
CONTINUOUS
 62
3
100
AcDbLine
 10
231.4298560694430
 20
187.4819083944802
 30
0.0000000000000000
 11
232.4298560694430
 21
187.4819083944802
 31
0.0000000000000000
  0
LINE
  5
207
100
AcDbEntity
  8
MAIN0
  6
CONTINUOUS
 62
3
100
AcDbLine
 10
231.4298560694430
 20
183.9819083944802
 30
0.0000000000000000
 11
232.4298560694430
 21
183.9819083944802
 31
0.0000000000000000
  0
LINE
  5
208
100
AcDbEntity
  8
MAIN0
  6
CONTINUOUS
 62
3
100
AcDbLine
 10
231.4298560694430
 20
181.4819083944802
 30
0.0000000000000000
 11
232.4298560694430
 21
181.4819083944802
 31
0.0000000000000000
  0
LINE
  5
209
100
AcDbEntity
  8
MAIN0
  6
CENTER
 62
3
100
AcDbLine
 10
329.8298560697252
 20
151.6500159923976
 30
0.0000000000000000
 11
329.8298560695337
 21
238.0369863603870
 31
0.0000000000000000
  0
LINE
  5
20A
100
AcDbEntity
  8
MAIN0
  6
CENTER
 62
3
100
AcDbLine
 10
286.3961055437501
 20
218.2952562317558
 30
0.0000000000000000
 11
368.0657698227818
 21
171.1432535753301
 31
0.0000000000000000
  0
LINE
  5
20B
100
AcDbEntity
  8
MAIN0
  6
CENTER
 62
3
100
AcDbLine
 10
368.2213540078553
 20
215.3841103431560
 30
0.0000000000000000
 11
291.5939423165828
 21
171.1432535751605
 31
0.0000000000000000
  0
LINE
  5
20C
100
AcDbEntity
  8
MAIN0
  6
CONTINUOUS
 62
3
100
AcDbLine
 10
326.9431047237324
 20
172.2187686734854
 30
0.0000000000000000
 11
332.7166074154623
 21
172.2187686734860
 31
0.0000000000000000
  0
LINE
  5
20D
100
AcDbEntity
  8
MAIN0
  6
CONTINUOUS
 62
3
100
AcDbLine
 10
315.6847744744356
 20
207.7187686736262
 30
0.0000000000000000
 11
324.3298560696010
 21
207.7187686736269
 31
0.0000000000000000
  0
LINE
  5
20E
100
AcDbEntity
  8
MAIN0
  6
CONTINUOUS
 62
3
100
AcDbLine
 10
335.3298560696010
 20
207.7187686736284
 30
0.0000000000000000
 11
343.9749376648284
 21
207.7187686736291
 31
0.0000000000000000
  0
LINE
  5
20F
100
AcDbEntity
  8
MAIN0
  6
CONTINUOUS
 62
3
100
AcDbLine
 10
314.5224877147905
 20
190.7319083943231
 30
0.0000000000000000
 11
310.1999469171421
 21
198.2187686736382
 31
0.0000000000000000
  0
LINE
  5
210
100
AcDbEntity
  8
MAIN0
  6
CONTINUOUS
 62
3
100
AcDbLine
 10
324.3450285123790
 20
173.7187686734850
 30
0.0000000000000000
 11
320.0224877147908
 21
181.2056289526944
 31
0.0000000000000000
  0
LINE
  5
211
100
AcDbEntity
  8
MAIN0
  6
CONTINUOUS
 62
3
100
AcDbLine
 10
335.3146836268154
 20
173.7187686734863
 30
0.0000000000000000
 11
339.6372244244516
 21
181.2056289527832
 31
0.0000000000000000
  0
LINE
  5
212
100
AcDbEntity
  8
MAIN0
  6
CONTINUOUS
 62
3
100
AcDbLine
 10
345.1372244244500
 20
190.7319083944128
 30
0.0000000000000000
 11
349.4597652220854
 21
198.2187686737067
 31
0.0000000000000000
  0
LINE
  5
213
100
AcDbEntity
  8
MAIN0
  6
CENTER
 62
3
100
AcDbLine
 10
284.7477421724047
 20
193.2187686735147
 30
0.0000000000000000
 11
374.0263443118167
 21
193.2187686736547
 31
0.0000000000000000
  0
LINE
  5
214
100
AcDbEntity
  8
MAIN0
  6
CONTINUOUS
 62
3
100
AcDbLine
 10
345.1372244244514
 20
190.7319083944118
 30
0.0000000000000000
 11
367.7659683868825
 21
177.6671969763460
 31
0.0000000000000000
  0
LINE
  5
215
100
AcDbEntity
  8
MAIN0
  6
CONTINUOUS
 62
3
100
AcDbLine
 10
339.6372244244514
 20
181.2056289527832
 30
0.0000000000000000
 11
362.2659683869034
 21
168.1409175347053
 31
0.0000000000000000
  0
LINE
  5
216
100
AcDbEntity
  8
MAIN0
  6
CONTINUOUS
 62
3
100
AcDbLine
 10
297.3937437524743
 20
168.1409175345612
 30
0.0000000000000000
 11
320.0224877147899
 21
181.2056289526941
 31
0.0000000000000000
  0
LINE
  5
217
100
AcDbEntity
  8
MAIN0
  6
CONTINUOUS
 62
3
100
AcDbLine
 10
291.8937437524529
 20
177.6671969761777
 30
0.0000000000000000
 11
314.5224877147900
 21
190.7319083943231
 31
0.0000000000000000
  0
LINE
  5
218
100
AcDbEntity
  8
MAIN0
  6
CONTINUOUS
 62
3
100
AcDbLine
 10
335.3298560696010
 20
207.7187686736284
 30
0.0000000000000000
 11
335.3298560695430
 21
233.8481915097006
 31
0.0000000000000000
  0
LINE
  5
219
100
AcDbEntity
  8
MAIN0
  6
CONTINUOUS
 62
3
100
AcDbLine
 10
324.3298560696011
 20
207.7187686736285
 30
0.0000000000000000
 11
324.3298560695432
 21
233.8481915096761
 31
0.0000000000000000
  0
LINE
  5
21A
100
AcDbEntity
  8
MAIN0
  6
CONTINUOUS
 62
3
100
AcDbLine
 10
301.8834788446999
 20
163.2187686735415
 30
0.0000000000000000
 11
357.7762332947504
 21
163.2187686736292
 31
0.0000000000000000
  0
LINE
  5
21B
100
AcDbEntity
  8
MAIN0
  6
CONTINUOUS
 62
3
100
AcDbLine
 10
360.6843533108529
 20
166.2187686736338
 30
0.0000000000000000
 11
298.9753588285858
 21
166.2187686735371
 31
0.0000000000000000
  0
LINE
  5
21C
100
AcDbEntity
  8
MAIN0
  6
CONTINUOUS
 62
3
100
AcDbLine
 10
369.7838067956509
 20
184.0164960530374
 30
0.0000000000000000
 11
341.8374295705498
 21
232.4210412942230
 31
0.0000000000000000
  0
LINE
  5
21D
100
AcDbEntity
  8
MAIN0
  6
CONTINUOUS
 62
3
100
AcDbLine
 10
337.7852933511411
 20
233.4395471054195
 30
0.0000000000000000
 11
368.6397905923585
 21
179.9979902418307
 31
0.0000000000000000
  0
LINE
  5
21E
100
AcDbEntity
  8
MAIN0
  6
CONTINUOUS
 62
3
100
AcDbLine
 10
317.8222825685490
 20
232.4210412941076
 30
0.0000000000000000
 11
289.8759053435997
 21
184.0164960528344
 31
0.0000000000000000
  0
LINE
  5
21F
100
AcDbEntity
  8
MAIN0
  6
CONTINUOUS
 62
3
100
AcDbLine
 10
291.0199215469057
 20
179.9979902416332
 30
0.0000000000000000
 11
321.8744187879555
 21
233.4395471053186
 31
0.0000000000000000
  0
ARC
  5
220
100
AcDbEntity
  8
MAIN0
  6
CONTINUOUS
 62
3
100
AcDbCircle
 10
332.7166074154620
 20
175.2187686734860
 30
0.0000000000000000
 40
3.000000000000000
100
AcDbArc
 50
270.0000000000000
 51
330.0000000000054
  0
ARC
  5
221
100
AcDbEntity
  8
MAIN0
  6
CONTINUOUS
 62
3
100
AcDbCircle
 10
326.9431047237321
 20
175.2187686734854
 30
0.0000000000000000
 40
3.000000000000000
100
AcDbArc
 50
210.0000000000093
 51
270.0000000000000
  0
ARC
  5
222
100
AcDbEntity
  8
MAIN0
  6
CONTINUOUS
 62
3
100
AcDbCircle
 10
346.8616890107319
 20
199.7187686737068
 30
0.0000000000000000
 40
3.000000000000000
100
AcDbArc
 50
329.9999999999999
 51
390.0000000000067
  0
ARC
  5
223
100
AcDbEntity
  8
MAIN0
  6
CONTINUOUS
 62
3
100
AcDbCircle
 10
343.9749376648286
 20
204.7187686736290
 30
0.0000000000000000
 40
3.000000000000000
100
AcDbArc
 50
30.00000000000539
 51
90.00000000000000
  0
ARC
  5
224
100
AcDbEntity
  8
MAIN0
  6
CONTINUOUS
 62
3
100
AcDbCircle
 10
315.6847744744359
 20
204.7187686736263
 30
0.0000000000000000
 40
3.000000000000000
100
AcDbArc
 50
90.00000000000000
 51
150.0000000000046
  0
ARC
  5
225
100
AcDbEntity
  8
MAIN0
  6
CONTINUOUS
 62
3
100
AcDbCircle
 10
312.7980231284953
 20
199.7187686736384
 30
0.0000000000000000
 40
3.000000000000000
100
AcDbArc
 50
150.0000000000054
 51
210.0000000000043
  0
ARC
  5
226
100
AcDbEntity
  8
MAIN0
  6
CENTER
 62
3
100
AcDbCircle
 10
329.8298560696333
 20
193.2187686735622
 30
0.0000000000000000
 40
24.00000000000000
100
AcDbArc
 50
161.0268431973918
 51
189.0036560978246
  0
ARC
  5
227
100
AcDbEntity
  8
MAIN0
  6
CENTER
 62
3
100
AcDbCircle
 10
329.8298560696333
 20
193.2187686735622
 30
0.0000000000000000
 40
24.00000000000000
100
AcDbArc
 50
280.3907184802326
 51
310.2318290648953
  0
ARC
  5
228
100
AcDbEntity
  8
MAIN0
  6
CENTER
 62
3
100
AcDbCircle
 10
329.8298560696333
 20
193.2187686735622
 30
0.0000000000000000
 40
24.00000000000000
100
AcDbArc
 50
40.02760100167826
 51
67.85409355314170
  0
ARC
  5
229
100
AcDbEntity
  8
MAIN0
  6
CONTINUOUS
 62
3
100
AcDbCircle
 10
329.8298560696771
 20
193.2187686735277
 30
0.0000000000000000
 40
41.00000000000001
100
AcDbArc
 50
337.7092598601514
 51
442.2907401401340
  0
ARC
  5
22A
100
AcDbEntity
  8
MAIN0
  6
CONTINUOUS
 62
3
100
AcDbCircle
 10
329.8298560696771
 20
193.2187686735277
 30
0.0000000000000000
 40
41.00000000000001
100
AcDbArc
 50
97.70925986025679
 51
202.2907401400409
  0
ARC
  5
22B
100
AcDbEntity
  8
MAIN0
  6
CONTINUOUS
 62
3
100
AcDbCircle
 10
329.8298560696771
 20
193.2187686735277
 30
0.0000000000000000
 40
41.00000000000001
100
AcDbArc
 50
217.7092598601218
 51
322.2907401400960
  0
LINE
  5
22C
100
AcDbEntity
  8
MAIN0
  6
CENTER
 62
3
100
AcDbLine
 10
326.7555026289616
 20
223.7187686737049
 30
0.0000000000000000
 11
333.3346679125053
 21
223.7187686737049
 31
0.0000000000000000
  0
LINE
  5
22D
100
AcDbEntity
  8
MAIN0
  6
CONTINUOUS
 62
3
100
AcDbLine
 10
321.5298560695343
 20
234.2187686735976
 30
0.0000000000000000
 11
338.1298560695342
 21
234.2187686735911
 31
0.0000000000000000
  0
LINE
  5
22E
100
AcDbEntity
  8
MAIN0
  6
CONTINUOUS
 62
3
100
AcDbLine
 10
321.3298560695340
 20
234.0187686735978
 30
0.0000000000000000
 11
321.5298560695340
 21
234.2187686735977
 31
0.0000000000000000
  0
LINE
  5
22F
100
AcDbEntity
  8
MAIN0
  6
CONTINUOUS
 62
3
100
AcDbLine
 10
324.3298560695342
 20
214.2187686735885
 30
0.0000000000000000
 11
335.3298560695342
 21
214.2187686735885
 31
0.0000000000000000
  0
LINE
  5
230
100
AcDbEntity
  8
MAIN0
  6
CONTINUOUS
 62
3
100
AcDbLine
 10
324.3298560695341
 20
221.2187686737591
 30
0.0000000000000000
 11
335.3298560695341
 21
221.2187686737612
 31
0.0000000000000000
  0
LINE
  5
231
100
AcDbEntity
  8
MAIN0
  6
CONTINUOUS
 62
3
100
AcDbLine
 10
324.3298560695342
 20
226.2187686737049
 30
0.0000000000000000
 11
335.3298560695342
 21
226.2187686737049
 31
0.0000000000000000
  0
LINE
  5
232
100
AcDbEntity
  8
MAIN0
  6
CENTER
 62
3
100
AcDbLine
 10
326.4568513387247
 20
230.2187686737049
 30
0.0000000000000000
 11
333.6134704642434
 21
230.2187686737049
 31
0.0000000000000000
  0
CIRCLE
  5
233
100
AcDbEntity
  8
MAIN0
  6
CONTINUOUS
 62
3
100
AcDbCircle
 10
329.8298560695341
 20
230.2187686737048
 30
0.0000000000000000
 40
2.000000000000000
  0
CIRCLE
  5
234
100
AcDbEntity
  8
MAIN0
  6
CONTINUOUS
 62
3
100
AcDbCircle
 10
329.8298560695341
 20
230.2187686737048
 30
0.0000000000000000
 40
1.650000000000000
  0
LINE
  5
235
100
AcDbEntity
  8
MAIN0
  6
CENTER
 62
3
100
AcDbLine
 10
326.4568513387247
 20
217.2187686737028
 30
0.0000000000000000
 11
333.6134704642433
 21
217.2187686737028
 31
0.0000000000000000
  0
CIRCLE
  5
236
100
AcDbEntity
  8
MAIN0
  6
CONTINUOUS
 62
3
100
AcDbCircle
 10
329.8298560695341
 20
223.7187686737048
 30
0.0000000000000000
 40
1.999999999970200
  0
LINE
  5
237
100
AcDbEntity
  8
MAIN0
  6
CONTINUOUS
 62
3
100
AcDbLine
 10
338.3298560695342
 20
234.0187686735982
 30
0.0000000000000000
 11
338.1298560695341
 21
234.2187686735982
 31
0.0000000000000000
  0
LINE
  5
238
100
AcDbEntity
  8
MAIN0
  6
CONTINUOUS
 62
3
100
AcDbLine
 10
338.3298560695341
 20
233.3279945449209
 30
0.0000000000000000
 11
338.3298560695341
 21
234.0187686735982
 31
0.0000000000000000
  0
LINE
  5
239
100
AcDbEntity
  8
MAIN0
  6
CONTINUOUS
 62
3
100
AcDbLine
 10
321.3298560695341
 20
233.3279945448602
 30
0.0000000000000000
 11
321.3298560695341
 21
234.0187686735977
 31
0.0000000000000000
  0
LINE
  5
23A
100
AcDbEntity
  8
MAIN0
  6
CONTINUOUS
 62
3
100
AcDbLine
 10
324.3298560695341
 20
207.7187686736284
 30
0.0000000000000000
 11
324.3298560695341
 21
234.2187686735964
 31
0.0000000000000000
  0
LINE
  5
23B
100
AcDbEntity
  8
MAIN0
  6
CONTINUOUS
 62
3
100
AcDbLine
 10
335.3298560695341
 20
207.7187686736284
 30
0.0000000000000000
 11
335.3298560695341
 21
234.2187686735964
 31
0.0000000000000000
  0
LINE
  5
23C
100
AcDbEntity
  8
MAIN0
  6
CENTER
 62
3
100
AcDbLine
 10
304.9532579744202
 20
175.3063004936570
 30
0.0000000000000000
 11
301.6636753326483
 21
181.0040247649025
 31
0.0000000000000000
  0
LINE
  5
23D
100
AcDbEntity
  8
MAIN0
  6
CONTINUOUS
 62
3
100
AcDbLine
 10
298.4728145144901
 20
165.5307578220479
 30
0.0000000000000000
 11
290.1728145144958
 21
179.9067795248728
 31
0.0000000000000000
  0
LINE
  5
23E
100
AcDbEntity
  8
MAIN0
  6
CONTINUOUS
 62
3
100
AcDbLine
 10
298.7460195952471
 20
165.4575527412909
 30
0.0000000000000000
 11
298.4728145144902
 21
165.5307578220478
 31
0.0000000000000000
  0
LINE
  5
23F
100
AcDbEntity
  8
MAIN0
  6
CONTINUOUS
 62
3
100
AcDbLine
 10
314.3933225901869
 20
177.9556289526488
 30
0.0000000000000000
 11
308.8933225901869
 21
187.4819083942776
 31
0.0000000000000000
  0
LINE
  5
240
100
AcDbEntity
  8
MAIN0
  6
CONTINUOUS
 62
3
100
AcDbLine
 10
308.3311447635481
 20
174.4556289525635
 30
0.0000000000000000
 11
302.8311447635462
 21
183.9819083941912
 31
0.0000000000000000
  0
LINE
  5
241
100
AcDbEntity
  8
MAIN0
  6
CONTINUOUS
 62
3
100
AcDbLine
 10
304.0010177446728
 20
171.9556289525906
 30
0.0000000000000000
 11
298.5010177446728
 21
181.4819083942194
 31
0.0000000000000000
  0
LINE
  5
242
100
AcDbEntity
  8
MAIN0
  6
CENTER
 62
3
100
AcDbLine
 10
299.4734184949398
 20
171.7976608894389
 30
0.0000000000000000
 11
295.8951089321805
 21
177.9954748573476
 31
0.0000000000000000
  0
CIRCLE
  5
243
100
AcDbEntity
  8
MAIN0
  6
CONTINUOUS
 62
3
100
AcDbCircle
 10
297.7869161295350
 20
174.7187686734050
 30
0.0000000000000000
 40
2.000000000000000
  0
CIRCLE
  5
244
100
AcDbEntity
  8
MAIN0
  6
CONTINUOUS
 62
3
100
AcDbCircle
 10
297.7869161295350
 20
174.7187686734050
 30
0.0000000000000000
 40
1.650000000000000
  0
LINE
  5
245
100
AcDbEntity
  8
MAIN0
  6
CENTER
 62
3
100
AcDbLine
 10
310.7317487441392
 20
178.2976608894399
 30
0.0000000000000000
 11
307.1534391813799
 21
184.4954748573486
 31
0.0000000000000000
  0
CIRCLE
  5
246
100
AcDbEntity
  8
MAIN0
  6
CONTINUOUS
 62
3
100
AcDbCircle
 10
303.4160812541339
 20
177.9687686734050
 30
0.0000000000000000
 40
1.999999999970200
  0
LINE
  5
247
100
AcDbEntity
  8
MAIN0
  6
CONTINUOUS
 62
3
100
AcDbLine
 10
290.2460195952465
 20
180.1799846056262
 30
0.0000000000000000
 11
290.1728145144897
 21
179.9067795248693
 31
0.0000000000000000
  0
LINE
  5
248
100
AcDbEntity
  8
MAIN0
  6
CONTINUOUS
 62
3
100
AcDbLine
 10
290.8442475389582
 20
180.5253716699648
 30
0.0000000000000000
 11
290.2460195952466
 21
180.1799846056262
 31
0.0000000000000000
  0
LINE
  5
249
100
AcDbEntity
  8
MAIN0
  6
CONTINUOUS
 62
3
100
AcDbLine
 10
299.3442475390107
 20
165.8029398056596
 30
0.0000000000000000
 11
298.7460195952470
 21
165.4575527412909
 31
0.0000000000000000
  0
LINE
  5
24A
100
AcDbEntity
  8
MAIN0
  6
CONTINUOUS
 62
3
100
AcDbLine
 10
320.0224877147512
 20
181.2056289526288
 30
0.0000000000000000
 11
297.0728145144913
 21
167.9556289526448
 31
0.0000000000000000
  0
LINE
  5
24B
100
AcDbEntity
  8
MAIN0
  6
CONTINUOUS
 62
3
100
AcDbLine
 10
314.5224877147512
 20
190.7319083942576
 30
0.0000000000000000
 11
291.5728145144913
 21
177.4819083942736
 31
0.0000000000000000
  0
LINE
  5
24C
100
AcDbEntity
  8
MAIN0
  6
CENTER
 62
3
100
AcDbLine
 10
357.7808076055181
 20
180.6312368533247
 30
0.0000000000000000
 11
354.4912249637462
 21
174.9335125820792
 31
0.0000000000000000
  0
LINE
  5
24D
100
AcDbEntity
  8
MAIN0
  6
CONTINUOUS
 62
3
100
AcDbLine
 10
369.4868976248753
 20
179.9067795250410
 30
0.0000000000000000
 11
361.1868976248697
 21
165.5307578222226
 31
0.0000000000000000
  0
LINE
  5
24E
100
AcDbEntity
  8
MAIN0
  6
CONTINUOUS
 62
3
100
AcDbLine
 10
369.4136925441187
 20
180.1799846057981
 30
0.0000000000000000
 11
369.4868976248756
 21
179.9067795250412
 31
0.0000000000000000
  0
LINE
  5
24F
100
AcDbEntity
  8
MAIN0
  6
CONTINUOUS
 62
3
100
AcDbLine
 10
350.7663895491788
 20
187.4819083944493
 30
0.0000000000000000
 11
345.2663895491788
 21
177.9556289528205
 31
0.0000000000000000
  0
LINE
  5
250
100
AcDbEntity
  8
MAIN0
  6
CONTINUOUS
 62
3
100
AcDbLine
 10
356.8285673758177
 20
183.9819083943641
 30
0.0000000000000000
 11
351.3285673758196
 21
174.4556289527342
 31
0.0000000000000000
  0
LINE
  5
251
100
AcDbEntity
  8
MAIN0
  6
CONTINUOUS
 62
3
100
AcDbLine
 10
361.1586943946929
 20
181.4819083943911
 30
0.0000000000000000
 11
355.6586943946929
 21
171.9556289527623
 31
0.0000000000000000
  0
LINE
  5
252
100
AcDbEntity
  8
MAIN0
  6
CENTER
 62
3
100
AcDbLine
 10
363.5592983752354
 20
177.6398764575428
 30
0.0000000000000000
 11
359.9809888124760
 21
171.4420624896341
 31
0.0000000000000000
  0
CIRCLE
  5
253
100
AcDbEntity
  8
MAIN0
  6
CONTINUOUS
 62
3
100
AcDbCircle
 10
361.8727960098306
 20
174.7187686735767
 30
0.0000000000000000
 40
2.000000000000000
  0
CIRCLE
  5
254
100
AcDbEntity
  8
MAIN0
  6
CONTINUOUS
 62
3
100
AcDbCircle
 10
361.8727960098306
 20
174.7187686735767
 30
0.0000000000000000
 40
1.650000000000000
  0
LINE
  5
255
100
AcDbEntity
  8
MAIN0
  6
CENTER
 62
3
100
AcDbLine
 10
352.3009681260359
 20
184.1398764575438
 30
0.0000000000000000
 11
348.7226585632766
 21
177.9420624896351
 31
0.0000000000000000
  0
CIRCLE
  5
256
100
AcDbEntity
  8
MAIN0
  6
CONTINUOUS
 62
3
100
AcDbCircle
 10
356.2436308852317
 20
177.9687686735767
 30
0.0000000000000000
 40
1.999999999970200
  0
LINE
  5
257
100
AcDbEntity
  8
MAIN0
  6
CONTINUOUS
 62
3
100
AcDbLine
 10
360.9136925441191
 20
165.4575527414622
 30
0.0000000000000000
 11
361.1868976248759
 21
165.5307578222191
 31
0.0000000000000000
  0
LINE
  5
258
100
AcDbEntity
  8
MAIN0
  6
CONTINUOUS
 62
3
100
AcDbLine
 10
360.3154646004073
 20
165.8029398058010
 30
0.0000000000000000
 11
360.9136925441189
 21
165.4575527414623
 31
0.0000000000000000
  0
LINE
  5
259
100
AcDbEntity
  8
MAIN0
  6
CONTINUOUS
 62
3
100
AcDbLine
 10
368.8154646003548
 20
180.5253716701667
 30
0.0000000000000000
 11
369.4136925441185
 21
180.1799846057980
 31
0.0000000000000000
  0
LINE
  5
25A
100
AcDbEntity
  8
MAIN0
  6
CONTINUOUS
 62
3
100
AcDbLine
 10
345.1372244246145
 20
190.7319083944295
 30
0.0000000000000000
 11
368.0868976248744
 21
177.4819083944454
 31
0.0000000000000000
  0
LINE
  5
25B
100
AcDbEntity
  8
MAIN0
  6
CONTINUOUS
 62
3
100
AcDbLine
 10
339.6372244246144
 20
181.2056289528006
 30
0.0000000000000000
 11
362.5868976248744
 21
167.9556289528166
 31
0.0000000000000000
  0
LINE
  5
25C
100
AcDbEntity
  8
MAIN0
  6
CONTINUOUS
 62
3
100
AcDbLine
 10
327.2317798583271
 20
172.2187686734854
 30
0.0000000000000000
 11
332.4279322808674
 21
172.2187686734860
 31
0.0000000000000000
  0
LINE
  5
25D
100
AcDbEntity
  8
MAIN0
  6
CONTINUOUS
 62
3
100
AcDbLine
 10
315.9734496090299
 20
207.7187686736263
 30
0.0000000000000000
 11
343.6862625302333
 21
207.7187686736291
 31
0.0000000000000000
  0
LINE
  5
25E
100
AcDbEntity
  8
MAIN0
  6
CONTINUOUS
 62
3
100
AcDbLine
 10
310.3442844844394
 20
197.9687686736384
 30
0.0000000000000000
 11
324.2006909450814
 21
173.9687686734852
 31
0.0000000000000000
  0
LINE
  5
25F
100
AcDbEntity
  8
MAIN0
  6
CONTINUOUS
 62
3
100
AcDbLine
 10
335.4590211941128
 20
173.9687686734862
 30
0.0000000000000000
 11
349.3154276547884
 21
197.9687686737072
 31
0.0000000000000000
  0
ARC
  5
260
100
AcDbEntity
  8
MAIN0
  6
CONTINUOUS
 62
3
100
AcDbCircle
 10
343.6862625302337
 20
204.2187686736291
 30
0.0000000000000000
 40
3.500000000000000
100
AcDbArc
 50
30.00000000000550
 51
90.00000000000000
  0
ARC
  5
261
100
AcDbEntity
  8
MAIN0
  6
CONTINUOUS
 62
3
100
AcDbCircle
 10
346.2843387415426
 20
199.7187686737069
 30
0.0000000000000000
 40
3.500000000000000
100
AcDbArc
 50
330.0000000000059
 51
390.0000000000055
  0
ARC
  5
262
100
AcDbEntity
  8
MAIN0
  6
CONTINUOUS
 62
3
100
AcDbCircle
 10
315.9734496090303
 20
204.2187686736263
 30
0.0000000000000000
 40
3.500000000000000
100
AcDbArc
 50
90.00000000000000
 51
150.0000000000053
  0
ARC
  5
263
100
AcDbEntity
  8
MAIN0
  6
CONTINUOUS
 62
3
100
AcDbCircle
 10
313.3753733976848
 20
199.7187686736387
 30
0.0000000000000000
 40
3.500000000000000
100
AcDbArc
 50
150.0000000000061
 51
210.0000000000047
  0
ARC
  5
264
100
AcDbEntity
  8
MAIN0
  6
CONTINUOUS
 62
3
100
AcDbCircle
 10
327.2317798583268
 20
175.7187686734854
 30
0.0000000000000000
 40
3.500000000000000
100
AcDbArc
 50
210.0000000000042
 51
270.0000000000000
  0
ARC
  5
265
100
AcDbEntity
  8
MAIN0
  6
CONTINUOUS
 62
3
100
AcDbCircle
 10
332.4279322808672
 20
175.7187686734859
 30
0.0000000000000000
 40
3.500000000000000
100
AcDbArc
 50
270.0000000000000
 51
330.0000000000053
  0
CIRCLE
  5
266
100
AcDbEntity
  8
MAIN0
  6
CONTINUOUS
 62
3
100
AcDbCircle
 10
89.82985606939323
 20
193.2187686733920
 30
0.0000000000000000
 40
41.00000000000001
  0
LINE
  5
267
100
AcDbEntity
  8
MAIN0
  6
CENTER
 62
3
100
AcDbLine
 10
135.3312113240231
 20
193.2187686733437
 30
0.0000000000000000
 11
46.42321718651891
 21
193.2187686735054
 31
0.0000000000000000
  0
LINE
  5
268
100
AcDbEntity
  8
MAIN0
  6
CENTER
 62
3
100
AcDbLine
 10
89.82985606934335
 20
146.3012439444736
 30
0.0000000000000000
 11
89.82985606935500
 21
237.4413912085887
 31
0.0000000000000000
  0
ARC
  5
269
100
AcDbEntity
  8
MAIN0
  6
CONTINUOUS
 62
3
100
AcDbCircle
 10
89.82985606934935
 20
193.2187686734264
 30
0.0000000000000000
 40
26.50000000032736
100
AcDbArc
 50
189.5651405306170
 51
230.4348594691721
  0
CIRCLE
  5
26A
100
AcDbEntity
  8
MAIN0
  6
CONTINUOUS
 62
3
100
AcDbCircle
 10
89.82985606934935
 20
193.2187686734264
 30
0.0000000000000000
 40
11.00000000032736
  0
CIRCLE
  5
26B
100
AcDbEntity
  8
MAIN0
  6
CONTINUOUS
 62
3
100
AcDbCircle
 10
89.82985606934935
 20
193.2187686734264
 30
0.0000000000000000
 40
13.49999999970764
  0
CIRCLE
  5
26C
100
AcDbEntity
  8
MAIN0
  6
CONTINUOUS
 62
3
100
AcDbCircle
 10
89.82985606934935
 20
193.2187686734264
 30
0.0000000000000000
 40
12.69999999977492
  0
LINE
  5
26D
100
AcDbEntity
  8
MAIN0
  6
CENTER
 62
3
100
AcDbLine
 10
50.41861041988329
 20
170.4646753886759
 30
0.0000000000000000
 11
115.1176994871624
 21
207.8187118779426
 31
0.0000000000000000
  0
LINE
  5
26E
100
AcDbEntity
  8
MAIN0
  6
CENTER
 62
3
100
AcDbLine
 10
64.05816765518313
 20
208.0980599169515
 30
0.0000000000000000
 11
128.4181191895612
 21
170.9398245735985
 31
0.0000000000000000
  0
CIRCLE
  5
26F
100
AcDbEntity
  8
MAIN0
  6
CENTER
 62
3
100
AcDbCircle
 10
89.82985606934935
 20
193.2187686734264
 30
0.0000000000000000
 40
18.50000000000000
  0
LINE
  5
270
100
AcDbEntity
  8
MAIN0
  6
CENTER
 62
3
100
AcDbLine
 10
78.42367421408716
 20
212.2018431081270
 30
0.0000000000000000
 11
82.41926697195103
 21
205.5520600613840
 31
0.0000000000000000
  0
LINE
  5
271
100
AcDbEntity
  8
MAIN0
  6
CENTER
 62
3
100
AcDbLine
 10
101.0965928010630
 20
212.7333291280701
 30
0.0000000000000000
 11
97.08489595020467
 21
205.7848663578151
 31
0.0000000000000000
  0
ARC
  5
272
100
AcDbEntity
  8
MAIN0
  6
CONTINUOUS
 62
3
100
AcDbCircle
 10
89.82985606934935
 20
193.2187686734264
 30
0.0000000000000000
 40
16.00000000034635
100
AcDbArc
 50
59.99999999970722
 51
120.9999999983600
  0
ARC
  5
273
100
AcDbEntity
  8
MAIN0
  6
CONTINUOUS
 62
3
100
AcDbCircle
 10
89.82985606934935
 20
193.2187686734264
 30
0.0000000000000000
 40
21.00000000034635
100
AcDbArc
 50
59.99999999970722
 51
120.9999999983601
  0
LINE
  5
274
100
AcDbEntity
  8
MAIN0
  6
CENTER
 62
3
100
AcDbLine
 10
105.0863947457357
 20
211.0818803632855
 30
0.0000000000000000
 11
101.3349199738237
 21
206.6894677543106
 31
0.0000000000000000
  0
CIRCLE
  5
275
100
AcDbEntity
  8
MAIN0
  6
CONTINUOUS
 62
3
100
AcDbCircle
 10
103.0785962551653
 20
208.7310503717607
 30
0.0000000000000000
 40
2.000000000000000
  0
ARC
  5
276
100
AcDbEntity
  8
MAIN0
  6
CONTINUOUS
 62
3
100
AcDbCircle
 10
75.57985606966224
 20
168.5370446662017
 30
0.0000000000000000
 40
5.000000000000000
100
AcDbArc
 50
59.99999999996390
 51
121.7262863808990
  0
ARC
  5
277
100
AcDbEntity
  8
MAIN0
  6
CONTINUOUS
 62
3
100
AcDbCircle
 10
61.32985607002138
 20
193.2187686734695
 30
0.0000000000000000
 40
5.000000000000000
100
AcDbArc
 50
298.2737136190340
 51
359.9999999999691
  0
ARC
  5
278
100
AcDbEntity
  8
MAIN0
  6
HIDDEN
 62
3
100
AcDbCircle
 10
89.82985606934935
 20
193.2187686734264
 30
0.0000000000000000
 40
23.49999999965371
100
AcDbArc
 50
180.0000000000000
 51
239.9999999999098
  0
ARC
  5
279
100
AcDbEntity
  8
MAIN0
  6
CONTINUOUS
 62
3
100
AcDbCircle
 10
118.3298560686457
 20
193.2187686733815
 30
0.0000000000000000
 40
5.000000000000000
100
AcDbArc
 50
179.9999999999639
 51
241.7262863808989
  0
ARC
  5
27A
100
AcDbEntity
  8
MAIN0
  6
CONTINUOUS
 62
3
100
AcDbCircle
 10
89.82985606934935
 20
193.2187686734264
 30
0.0000000000000000
 40
26.50000000032736
100
AcDbArc
 50
309.5651405306170
 51
350.4348594691720
  0
ARC
  5
27B
100
AcDbEntity
  8
MAIN0
  6
CONTINUOUS
 62
3
100
AcDbCircle
 10
104.0798560689761
 20
168.5370446661304
 30
0.0000000000000000
 40
5.000000000000000
100
AcDbArc
 50
58.27371361903404
 51
119.9999999999691
  0
ARC
  5
27C
100
AcDbEntity
  8
MAIN0
  6
CONTINUOUS
 62
3
100
AcDbCircle
 10
75.57985606974000
 20
217.9004926806960
 30
0.0000000000000000
 40
5.000000000000000
100
AcDbArc
 50
299.9999999999639
 51
361.7262863808989
  0
ARC
  5
27D
100
AcDbEntity
  8
MAIN0
  6
CONTINUOUS
 62
3
100
AcDbCircle
 10
89.82985606934935
 20
193.2187686734264
 30
0.0000000000000000
 40
26.50000000032736
100
AcDbArc
 50
69.56514053061699
 51
110.4348594691720
  0
ARC
  5
27E
100
AcDbEntity
  8
MAIN0
  6
CONTINUOUS
 62
3
100
AcDbCircle
 10
104.0798560690506
 20
217.9004926806794
 30
0.0000000000000000
 40
5.000000000000000
100
AcDbArc
 50
178.2737136190340
 51
239.9999999999691
  0
ARC
  5
27F
100
AcDbEntity
  8
MAIN0
  6
CONTINUOUS
 62
3
100
AcDbCircle
 10
89.82985606934935
 20
193.2187686734264
 30
0.0000000000000000
 40
23.49999999965371
100
AcDbArc
 50
119.9999999999097
 51
180.0000000000000
  0
ARC
  5
280
100
AcDbEntity
  8
MAIN0
  6
CONTINUOUS
 62
3
100
AcDbCircle
 10
89.82985606934935
 20
193.2187686734264
 30
0.0000000000000000
 40
23.49999999965371
100
AcDbArc
 50
239.9999999999098
 51
299.9999999999134
  0
ARC
  5
281
100
AcDbEntity
  8
MAIN0
  6
CONTINUOUS
 62
3
100
AcDbCircle
 10
89.82985606934935
 20
193.2187686734264
 30
0.0000000000000000
 40
23.49999999965371
100
AcDbArc
 50
0.0000000000000000
 51
59.99999999991341
  0
ARC
  5
282
100
AcDbEntity
  8
MAIN0
  6
HIDDEN
 62
3
100
AcDbCircle
 10
89.82985606934935
 20
193.2187686734264
 30
0.0000000000000000
 40
23.49999999965371
100
AcDbArc
 50
299.9999999999999
 51
359.9999999999097
  0
ARC
  5
283
100
AcDbEntity
  8
MAIN0
  6
HIDDEN
 62
3
100
AcDbCircle
 10
89.82985606934935
 20
193.2187686734264
 30
0.0000000000000000
 40
23.49999999965371
100
AcDbArc
 50
59.99999999999993
 51
119.9999999999097
  0
LINE
  5
284
100
AcDbEntity
  8
MAIN0
  6
CENTER
 62
3
100
AcDbLine
 10
75.51437481045304
 20
168.4236277983083
 30
0.0000000000000000
 11
89.82985606932618
 21
193.2187686734398
 31
0.0000000000000000
  0
CIRCLE
  5
285
100
AcDbEntity
  8
MAIN0
  6
CONTINUOUS
 62
3
100
AcDbCircle
 10
80.57985606931595
 20
177.1972987034336
 30
0.0000000000000000
 40
3.000000000000000
  0
CIRCLE
  5
286
100
AcDbEntity
  8
MAIN0
  6
CONTINUOUS
 62
3
100
AcDbCircle
 10
108.3298560693493
 20
193.2187686733879
 30
0.0000000000000000
 40
3.000000000000000
  0
ARC
  5
287
100
AcDbEntity
  8
MAIN0
  6
CENTER
 62
3
100
AcDbCircle
 10
89.82985606934935
 20
193.2187686734264
 30
0.0000000000000000
 40
20.40000000000000
100
AcDbArc
 50
40.27779954844056
 51
139.9598966212494
  0
ARC
  5
288
100
AcDbEntity
  8
MAIN0
  6
CONTINUOUS
 62
3
100
AcDbCircle
 10
104.0798560689761
 20
168.5370446661304
 30
0.0000000000000000
 40
6.000000000000000
100
AcDbArc
 50
55.27102365042295
 51
150.0604866178241
  0
ARC
  5
289
100
AcDbEntity
  8
MAIN0
  6
CONTINUOUS
 62
3
100
AcDbCircle
 10
104.0798560690506
 20
217.9004926806794
 30
0.0000000000000000
 40
6.000000000000000
100
AcDbArc
 50
175.2710236504229
 51
270.0604866178240
  0
ARC
  5
28A
100
AcDbEntity
  8
MAIN0
  6
CONTINUOUS
 62
3
100
AcDbCircle
 10
61.32985607002138
 20
193.2187686734695
 30
0.0000000000000000
 40
6.000000000000000
100
AcDbArc
 50
295.2710236504229
 51
390.0604866178240
  0
ARC
  5
28B
100
AcDbEntity
  8
MAIN0
  6
CONTINUOUS
 62
3
100
AcDbCircle
 10
99.07985606942725
 20
209.2402386433844
 30
0.0000000000000000
 40
2.500000000000000
100
AcDbArc
 50
240.0000000000159
 51
329.3554696624508
  0
ARC
  5
28C
100
AcDbEntity
  8
MAIN0
  6
CONTINUOUS
 62
3
100
AcDbCircle
 10
99.07985606942725
 20
209.2402386433844
 30
0.0000000000000000
 40
2.500000000000000
100
AcDbArc
 50
16.13087392849408
 51
60.00000000001423
  0
ARC
  5
28D
100
AcDbEntity
  8
MAIN0
  6
CONTINUOUS
 62
3
100
AcDbCircle
 10
80.30165168396707
 20
209.0763637366886
 30
0.0000000000000000
 40
2.500000000000000
100
AcDbArc
 50
120.9999999999934
 51
164.8691260891317
  0
ARC
  5
28E
100
AcDbEntity
  8
MAIN0
  6
CONTINUOUS
 62
3
100
AcDbCircle
 10
80.30165168396707
 20
209.0763637366886
 30
0.0000000000000000
 40
2.500000000000000
100
AcDbArc
 50
211.6445303269193
 51
300.9999999999926
  0
ARC
  5
28F
100
AcDbEntity
  8
MAIN0
  6
CONTINUOUS
 62
3
100
AcDbCircle
 10
99.35613551097814
 20
198.7187686734264
 30
0.0000000000000000
 40
2.500000000000000
100
AcDbArc
 50
126.5249788365918
 51
293.4750211634087
  0
ARC
  5
290
100
AcDbEntity
  8
MAIN0
  6
CONTINUOUS
 62
3
100
AcDbCircle
 10
80.30357662772056
 20
198.7187686734264
 30
0.0000000000000000
 40
2.500000000000000
100
AcDbArc
 50
246.5249788365913
 51
413.4750211634091
  0
ARC
  5
291
100
AcDbEntity
  8
MAIN0
  6
CONTINUOUS
 62
3
100
AcDbCircle
 10
89.82985606934935
 20
182.2187686734264
 30
0.0000000000000000
 40
2.500000000000000
100
AcDbArc
 50
6.524978836592394
 51
173.4750211634076
  0
LEADER
  5
292
100
AcDbEntity
  8
MAIN0
  6
CONTINUOUS
 62
3
100
AcDbLeader
  3
MAIN001
 73
     0
 74
     0
 75
     1
 40
3.099999904632568
 41
26.11100072956083
 76
     3
 10
331.3035631543751
 20
225.0708734876783
 30
0.0000000000000000
 10
359.6304491378191
 20
251.0603793385208
 30
0.0000000000000000
 10
361.5554490820292
 20
251.0603793385208
 30
0.0000000000000000
340
293
213
0.0000000000000000
223
-0.5000000000000000
233
0.0000000000000000
1001
ACAD
1000
DSTYLE
1002
{
1070
   147
1040
0.0
1070
    77
1070
     1
1070
   173
1070
     1
1070
     6
1000
_OPEN
1070
     7
1000
_OPEN
1002
}
  0
MTEXT
  5
293
102
{ACAD_REACTORS
330
292
102
}
100
AcDbEntity
  8
MAIN0
  6
CONTINUOUS
 62
3
100
AcDbMText
 10
361.5564490820292
 20
254.6603792431533
 30
0.0000000000000000
 40
3.099999904632568
 41
0.0000000000000000
 71
     1
 72
     1
  1
{\H0.93x;{3-\U+22054H8 深5\PDepth 5}}
 11
1.000000000000000
 21
0.0000000000000000
 31
0.0000000000000000
  7
KNJYOKO
  0
LINE
  5
294
100
AcDbEntity
  8
MAIN0
  6
CONTINUOUS
 62
3
100
AcDbLine
 10
370.8298560696495
 20
94.41876867365497
 30
0.0000000000000000
 11
370.8298560696495
 21
102.7187686736549
 31
0.0000000000000000
  0
LINE
  5
295
100
AcDbEntity
  8
MAIN0
  6
CONTINUOUS
 62
3
100
AcDbLine
 10
289.0298560695993
 20
94.21876867352646
 30
0.0000000000000000
 11
370.6298560696491
 21
94.21876867365441
 31
0.0000000000000000
  0
LINE
  5
296
100
AcDbEntity
  8
MAIN0
  6
CONTINUOUS
 62
3
100
AcDbLine
 10
370.8298560696493
 20
94.41876867365512
 30
0.0000000000000000
 11
370.6298560696494
 21
94.21876867365478
 31
0.0000000000000000
  0
LINE
  5
297
100
AcDbEntity
  8
MAIN0
  6
CONTINUOUS
 62
3
100
AcDbLine
 10
369.7838067959664
 20
102.7187686736532
 30
0.0000000000000000
 11
370.8298560696495
 21
102.7187686736548
 31
0.0000000000000000
  0
LINE
  5
298
100
AcDbEntity
  8
MAIN0
  6
CENTER
 62
3
100
AcDbLine
 10
329.8298560698565
 20
77.53196225818869
 30
0.0000000000000000
 11
329.8298560697681
 21
117.3404097272709
 31
0.0000000000000000
  0
LINE
  5
299
100
AcDbEntity
  8
MAIN0
  6
CONTINUOUS
 62
3
100
AcDbLine
 10
288.8298560696504
 20
94.41876867347368
 30
0.0000000000000000
 11
288.8298560696021
 21
102.7187686734736
 31
0.0000000000000000
  0
LINE
  5
29A
100
AcDbEntity
  8
MAIN0
  6
CONTINUOUS
 62
3
100
AcDbLine
 10
288.8298560696504
 20
94.41876867347384
 30
0.0000000000000000
 11
289.0298560696513
 21
94.21876867347447
 31
0.0000000000000000
  0
LINE
  5
29B
100
AcDbEntity
  8
MAIN0
  6
CONTINUOUS
 62
3
100
AcDbLine
 10
289.8759053436358
 20
102.7187686734760
 30
0.0000000000000000
 11
288.8298560696021
 21
102.7187686734730
 31
0.0000000000000000
  0
LINE
  5
29C
100
AcDbEntity
  8
MAIN0
  6
CONTINUOUS
 62
3
100
AcDbLine
 10
360.3154645994575
 20
100.8187686735057
 30
0.0000000000000000
 11
360.3154645994575
 21
106.8187686735057
 31
0.0000000000000000
  0
LINE
  5
29D
100
AcDbEntity
  8
MAIN0
  6
CONTINUOUS
 62
3
100
AcDbLine
 10
362.2659683853537
 20
106.8187686735056
 30
0.0000000000000000
 11
362.2659683853892
 21
114.8187686735056
 31
0.0000000000000000
  0
LINE
  5
29E
100
AcDbEntity
  8
MAIN0
  6
CONTINUOUS
 62
3
100
AcDbLine
 10
360.3154645994575
 20
100.8187686735057
 30
0.0000000000000000
 11
368.8154645994575
 21
100.8187686735057
 31
0.0000000000000000
  0
LINE
  5
29F
100
AcDbEntity
  8
MAIN0
  6
CONTINUOUS
 62
3
100
AcDbLine
 10
299.3442475401522
 20
100.8187686733705
 30
0.0000000000000000
 11
299.3442475401256
 21
106.8187686733705
 31
0.0000000000000000
  0
LINE
  5
2A0
100
AcDbEntity
  8
MAIN0
  6
CONTINUOUS
 62
3
100
AcDbLine
 10
297.3937437542295
 20
106.8187686733618
 30
0.0000000000000000
 11
297.3937437541586
 21
114.8187686733618
 31
0.0000000000000000
  0
LINE
  5
2A1
100
AcDbEntity
  8
MAIN0
  6
CONTINUOUS
 62
3
100
AcDbLine
 10
299.3442475401522
 20
100.8187686733705
 30
0.0000000000000000
 11
290.8442475401522
 21
100.8187686733328
 31
0.0000000000000000
  0
LINE
  5
2A2
100
AcDbEntity
  8
MAIN0
  6
CONTINUOUS
 62
3
100
AcDbLine
 10
301.8834788447499
 20
112.8187686735057
 30
0.0000000000000000
 11
357.7762332948075
 21
112.8187686735057
 31
0.0000000000000000
  0
LINE
  5
2A3
100
AcDbEntity
  8
MAIN0
  6
CONTINUOUS
 62
3
100
AcDbLine
 10
301.8834788447869
 20
102.7187686735057
 30
0.0000000000000000
 11
357.7762332948153
 21
102.7187686735057
 31
0.0000000000000000
  0
LINE
  5
2A4
100
AcDbEntity
  8
MAIN0
  6
CENTER
 62
3
100
AcDbLine
 10
342.4798560698616
 20
109.8187686744762
 30
0.0000000000000000
 11
337.4798560698616
 21
109.8187686744762
 31
0.0000000000000000
  0
LINE
  5
2A5
100
AcDbEntity
  8
MAIN0
  6
CONTINUOUS
 62
3
100
AcDbLine
 10
367.5718764421063
 20
100.7187686735057
 30
0.0000000000000000
 11
367.5718764421060
 21
100.8187686735056
 31
0.0000000000000000
  0
LINE
  5
2A6
100
AcDbEntity
  8
MAIN0
  6
CONTINUOUS
 62
3
100
AcDbLine
 10
362.5718764421063
 20
100.7187686735056
 30
0.0000000000000000
 11
362.5718764421060
 21
100.8187686735056
 31
0.0000000000000000
  0
LINE
  5
2A7
100
AcDbEntity
  8
MAIN0
  6
CONTINUOUS
 62
3
100
AcDbLine
 10
362.5718764421064
 20
100.7187686735057
 30
0.0000000000000000
 11
367.5718764421064
 21
100.7187686735057
 31
0.0000000000000000
  0
LINE
  5
2A8
100
AcDbEntity
  8
MAIN0
  6
CONTINUOUS
 62
3
100
AcDbLine
 10
292.0878356975037
 20
100.7187686733383
 30
0.0000000000000000
 11
292.0878356975035
 21
100.8187686733383
 31
0.0000000000000000
  0
LINE
  5
2A9
100
AcDbEntity
  8
MAIN0
  6
CONTINUOUS
 62
3
100
AcDbLine
 10
297.0878356975038
 20
100.7187686733605
 30
0.0000000000000000
 11
297.0878356975036
 21
100.8187686733605
 31
0.0000000000000000
  0
LINE
  5
2AA
100
AcDbEntity
  8
MAIN0
  6
CONTINUOUS
 62
3
100
AcDbLine
 10
297.0878356975038
 20
100.7187686733605
 30
0.0000000000000000
 11
292.0878356975037
 21
100.7187686733383
 31
0.0000000000000000
  0
LINE
  5
2AB
100
AcDbEntity
  8
MAIN0
  6
CONTINUOUS
 62
3
100
AcDbLine
 10
291.0199215470025
 20
114.8187686735057
 30
0.0000000000000000
 11
291.5728145146226
 21
114.8187686735057
 31
0.0000000000000000
  0
LINE
  5
2AC
100
AcDbEntity
  8
MAIN0
  6
CONTINUOUS
 62
3
100
AcDbLine
 10
291.5728145146290
 20
106.8187686733360
 30
0.0000000000000000
 11
290.8442475401257
 21
106.8187686733327
 31
0.0000000000000000
  0
LINE
  5
2AD
100
AcDbEntity
  8
MAIN0
  6
CONTINUOUS
 62
3
100
AcDbLine
 10
299.3442475401256
 20
106.8187686733704
 30
0.0000000000000000
 11
297.3937437542294
 21
106.8187686733618
 31
0.0000000000000000
  0
LINE
  5
2AE
100
AcDbEntity
  8
MAIN0
  6
CONTINUOUS
 62
3
100
AcDbLine
 10
297.3937437541586
 20
114.8187686735057
 30
0.0000000000000000
 11
362.5868976250232
 21
114.8187686735057
 31
0.0000000000000000
  0
LINE
  5
2AF
100
AcDbEntity
  8
MAIN0
  6
CONTINUOUS
 62
3
100
AcDbLine
 10
368.0868976249251
 20
114.8187686735057
 30
0.0000000000000000
 11
368.6397905926117
 21
114.8187686735057
 31
0.0000000000000000
  0
LINE
  5
2B0
100
AcDbEntity
  8
MAIN0
  6
CONTINUOUS
 62
3
100
AcDbLine
 10
360.3154645994575
 20
106.8187686735057
 30
0.0000000000000000
 11
362.5868976250462
 21
106.8187686735057
 31
0.0000000000000000
  0
LINE
  5
2B1
100
AcDbEntity
  8
MAIN0
  6
CONTINUOUS
 62
3
100
AcDbLine
 10
368.0868976249543
 20
106.8187686735057
 30
0.0000000000000000
 11
368.8154645994575
 21
106.8187686735057
 31
0.0000000000000000
  0
LINE
  5
2B2
100
AcDbEntity
  8
MAIN0
  6
CONTINUOUS
 62
3
100
AcDbLine
 10
357.7762332948075
 20
112.8187686735056
 30
0.0000000000000000
 11
357.7762332948153
 21
102.7187686735056
 31
0.0000000000000000
  0
LINE
  5
2B3
100
AcDbEntity
  8
MAIN0
  6
CONTINUOUS
 62
3
100
AcDbLine
 10
360.6843533108288
 20
114.8187686735057
 30
0.0000000000000000
 11
357.7762332948075
 21
112.8187686735058
 31
0.0000000000000000
  0
LINE
  5
2B4
100
AcDbEntity
  8
MAIN0
  6
CONTINUOUS
 62
3
100
AcDbLine
 10
298.9753588287196
 20
114.8187686733687
 30
0.0000000000000000
 11
301.8834788447499
 21
112.8187686733816
 31
0.0000000000000000
  0
LINE
  5
2B5
100
AcDbEntity
  8
MAIN0
  6
CONTINUOUS
 62
3
100
AcDbLine
 10
301.8834788447499
 20
112.8187686733815
 30
0.0000000000000000
 11
301.8834788447870
 21
102.7187686733815
 31
0.0000000000000000
  0
LINE
  5
2B6
100
AcDbEntity
  8
MAIN0
  6
CONTINUOUS
 62
3
100
AcDbLine
 10
289.8759053436358
 20
102.7187686734775
 30
0.0000000000000000
 11
289.8759053436346
 21
111.8187686735034
 31
0.0000000000000000
  0
LINE
  5
2B7
100
AcDbEntity
  8
MAIN0
  6
CONTINUOUS
 62
3
100
AcDbLine
 10
291.0199215470025
 20
114.8187686735058
 30
0.0000000000000000
 11
289.8759053436346
 21
111.8187686735034
 31
0.0000000000000000
  0
LINE
  5
2B8
100
AcDbEntity
  8
MAIN0
  6
CONTINUOUS
 62
3
100
AcDbLine
 10
368.6397905925460
 20
114.8187686736779
 30
0.0000000000000000
 11
369.7838067959273
 21
111.8187686736806
 31
0.0000000000000000
  0
LINE
  5
2B9
100
AcDbEntity
  8
MAIN0
  6
CONTINUOUS
 62
3
100
AcDbLine
 10
369.7838067959664
 20
102.7187686736549
 30
0.0000000000000000
 11
369.7838067959272
 21
111.8187686736807
 31
0.0000000000000000
  0
LINE
  5
2BA
100
AcDbEntity
  8
MAIN0
  6
CENTER
 62
3
100
AcDbLine
 10
339.9798560698984
 20
98.64575392469476
 30
0.0000000000000000
 11
339.9798560698403
 21
116.3014562636548
 31
0.0000000000000000
  0
LINE
  5
2BB
100
AcDbEntity
  8
MAIN0
  6
HIDDEN
 62
3
100
AcDbLine
 10
335.9798560698945
 20
99.81876867350565
 30
0.0000000000000000
 11
335.9798560698452
 21
114.8187686735058
 31
0.0000000000000000
  0
LINE
  5
2BC
100
AcDbEntity
  8
MAIN0
  6
HIDDEN
 62
3
100
AcDbLine
 10
343.9798560698945
 20
99.81876867350569
 30
0.0000000000000000
 11
343.9798560698452
 21
114.8187686735057
 31
0.0000000000000000
  0
LINE
  5
2BD
100
AcDbEntity
  8
MAIN0
  6
HIDDEN
 62
3
100
AcDbLine
 10
343.9798560698945
 20
99.81876867350565
 30
0.0000000000000000
 11
335.9798560698945
 21
99.81876867350565
 31
0.0000000000000000
  0
LINE
  5
2BE
100
AcDbEntity
  8
MAIN0
  6
CENTER
 62
3
100
AcDbLine
 10
224.4971386521571
 20
199.4286108254363
 30
0.0000000000000000
 11
228.2395148036142
 21
199.4286108254363
 31
0.0000000000000000
  0
LINE
  5
2BF
100
AcDbEntity
  8
MAIN0
  6
CENTER
 62
3
100
AcDbLine
 10
226.4298560694430
 20
201.0473035411451
 30
0.0000000000000000
 11
226.4298560694430
 21
197.6473715558204
 31
0.0000000000000000
  0
ELLIPSE
  5
2C0
100
AcDbEntity
  8
MAIN0
  6
CONTINUOUS
 62
3
100
AcDbEllipse
 10
226.4298560694430
 20
199.3036108251693
 30
0.0000000000000000
 11
-1.500000000000000
 21
0.0000000000000000
 31
0.0000000000000000
210
0.0000000000000000
220
0.0000000000000000
230
1.000000000000000
 40
0.8660254037666668
 41
0.0000000000000000
 42
6.283185307179586
  0
ELLIPSE
  5
2C1
100
AcDbEntity
  8
MAIN0
  6
CONTINUOUS
 62
3
100
AcDbEllipse
 10
226.4298560694430
 20
199.1786108249056
 30
0.0000000000000000
 11
-1.250000000000000
 21
0.0000000000000000
 31
0.0000000000000000
210
0.0000000000000000
220
0.0000000000000000
230
1.000000000000000
 40
0.8660254038799998
 41
0.0000000000000000
 42
6.283185307179586
  0
LINE
  5
2C2
100
AcDbEntity
  8
MAIN0
  6
CONTINUOUS
 62
3
100
AcDbLine
 10
204.2298560693805
 20
216.7187686739875
 30
0.0000000000000000
 11
207.4298560693805
 21
216.7187686739875
 31
0.0000000000000000
  0
LINE
  5
2C3
100
AcDbEntity
  8
MAIN0
  6
CONTINUOUS
 62
3
100
AcDbLine
 10
306.3298560693447
 20
87.61876867357563
 30
0.0000000000000000
 11
306.3298560693447
 21
90.81876867357568
 31
0.0000000000000000
  0
LINE
  5
2C4
100
AcDbEntity
  8
MAIN0
  6
CONTINUOUS
 62
3
100
AcDbLine
 10
355.9614350173566
 20
86.81876867369684
 30
0.0000000000000000
 11
355.5614350173548
 21
87.21876867369494
 31
0.0000000000000000
  0
LINE
  5
2C5
100
AcDbEntity
  8
MAIN0
  6
CONTINUOUS
 62
3
100
AcDbLine
 10
355.5614350173547
 20
87.21876867369498
 30
0.0000000000000000
 11
341.5798560694085
 21
87.21876867362892
 31
0.0000000000000000
  0
LINE
  5
2C6
100
AcDbEntity
  8
MAIN0
  6
CONTINUOUS
 62
3
100
AcDbLine
 10
355.9614350173716
 20
83.61876867368974
 30
0.0000000000000000
 11
355.9614350173567
 21
86.81876867369684
 31
0.0000000000000000
  0
LINE
  5
2C7
100
AcDbEntity
  8
MAIN0
  6
CONTINUOUS
 62
3
100
AcDbLine
 10
355.5614350173736
 20
83.21876867368798
 30
0.0000000000000000
 11
355.9614350173716
 21
83.61876867368969
 31
0.0000000000000000
  0
LINE
  5
2C8
100
AcDbEntity
  8
MAIN0
  6
CONTINUOUS
 62
3
100
AcDbLine
 10
349.4597652221234
 20
201.2187686736415
 30
0.0000000000000000
 11
346.5730138762579
 21
206.2187686734972
 31
0.0000000000000000
  0
LINE
  5
2C9
100
AcDbEntity
  8
MAIN0
  6
CONTINUOUS
 62
3
100
AcDbLine
 10
313.0866982630436
 20
206.2187686735596
 30
0.0000000000000000
 11
310.1999469171793
 21
201.2187686737036
 31
0.0000000000000000
  0
LINE
  5
2CA
100
AcDbEntity
  8
MAIN0
  6
CENTER
 62
3
100
AcDbLine
 10
342.1375628127877
 20
166.8248063879063
 30
0.0000000000000000
 11
338.0290996462682
 21
175.6354340813348
 31
0.0000000000000000
  0
CIRCLE
  5
2CB
100
AcDbEntity
  8
MAIN0
  6
CONTINUOUS
 62
3
100
AcDbCircle
 10
339.9726943516897
 20
171.4673817848126
 30
0.0000000000000000
 40
4.000000000000000
  0
LINE
  5
2CC
100
AcDbEntity
  8
MAIN0
  6
CENTER
 62
3
100
AcDbLine
 10
339.9798560697016
 20
162.3711494622036
 30
0.0000000000000000
 11
339.9798560696882
 21
168.4079841086944
 31
0.0000000000000000
  0
LINE
  5
2CD
100
AcDbEntity
  8
MAIN0
  6
HIDDEN
 62
3
100
AcDbLine
 10
338.2298560696996
 20
163.2187686736012
 30
0.0000000000000000
 11
338.7298560696996
 21
163.7187686736012
 31
0.0000000000000000
  0
LINE
  5
2CE
100
AcDbEntity
  8
MAIN0
  6
HIDDEN
 62
3
100
AcDbLine
 10
338.7298560696996
 20
163.7187686736013
 30
0.0000000000000000
 11
341.2298560696996
 21
163.7187686736013
 31
0.0000000000000000
  0
LINE
  5
2CF
100
AcDbEntity
  8
MAIN0
  6
HIDDEN
 62
3
100
AcDbLine
 10
341.2298560696996
 20
163.7187686736013
 30
0.0000000000000000
 11
341.7298560696996
 21
163.2187686736013
 31
0.0000000000000000
  0
LINE
  5
2D0
100
AcDbEntity
  8
MAIN0
  6
HIDDEN
 62
3
100
AcDbLine
 10
338.4798560696996
 20
163.4687686736013
 30
0.0000000000000000
 11
338.4798560696996
 21
167.7563935250865
 31
0.0000000000000000
  0
LINE
  5
2D1
100
AcDbEntity
  8
MAIN0
  6
HIDDEN
 62
3
100
AcDbLine
 10
341.4798560696996
 20
167.7621876528183
 30
0.0000000000000000
 11
341.4798560696996
 21
163.4687686736013
 31
0.0000000000000000
  0
LINE
  5
2D2
100
AcDbEntity
  8
MAIN0
  6
HIDDEN
 62
3
100
AcDbLine
 10
338.7298560696996
 20
163.7187686736013
 30
0.0000000000000000
 11
338.7298560696996
 21
167.6653621892792
 31
0.0000000000000000
  0
LINE
  5
2D3
100
AcDbEntity
  8
MAIN0
  6
HIDDEN
 62
3
100
AcDbLine
 10
341.2298560696996
 20
167.6700742630585
 30
0.0000000000000000
 11
341.2298560696996
 21
163.7187686736013
 31
0.0000000000000000
  0
LINE
  5
2D4
100
AcDbEntity
  8
MAIN0
  6
CENTER
 62
3
100
AcDbLine
 10
346.5338445439623
 20
217.0745365182908
 30
0.0000000000000000
 11
340.9578487214262
 21
209.1111891988579
 31
0.0000000000000000
  0
CIRCLE
  5
2D5
100
AcDbEntity
  8
MAIN0
  6
CONTINUOUS
 62
3
100
AcDbCircle
 10
343.5956905418058
 20
212.8784177366751
 30
0.0000000000000000
 40
4.000000000000000
  0
LINE
  5
2D6
100
AcDbEntity
  8
MAIN0
  6
CENTER
 62
3
100
AcDbLine
 10
351.4696779529046
 20
217.4327361277125
 30
0.0000000000000000
 11
346.2416257906041
 21
214.4143188044555
 31
0.0000000000000000
  0
LINE
  5
2D7
100
AcDbEntity
  8
MAIN0
  6
HIDDEN
 62
3
100
AcDbLine
 10
351.6106181830994
 20
215.4933820653893
 30
0.0000000000000000
 11
350.9276054812071
 21
215.6763947672815
 31
0.0000000000000000
  0
LINE
  5
2D8
100
AcDbEntity
  8
MAIN0
  6
HIDDEN
 62
3
100
AcDbLine
 10
350.9276054812070
 20
215.6763947672816
 30
0.0000000000000000
 11
349.6776054812070
 21
217.8414582767427
 31
0.0000000000000000
  0
LINE
  5
2D9
100
AcDbEntity
  8
MAIN0
  6
HIDDEN
 62
3
100
AcDbLine
 10
349.6776054812070
 20
217.8414582767427
 30
0.0000000000000000
 11
349.8606181830993
 21
218.5244709786349
 31
0.0000000000000000
  0
LINE
  5
2DA
100
AcDbEntity
  8
MAIN0
  6
HIDDEN
 62
3
100
AcDbLine
 10
351.2691118321532
 20
215.5848884163355
 30
0.0000000000000000
 11
347.5559197888695
 21
213.4410759905929
 31
0.0000000000000000
  0
LINE
  5
2DB
100
AcDbEntity
  8
MAIN0
  6
HIDDEN
 62
3
100
AcDbLine
 10
346.0509019270610
 20
216.0362551380803
 30
0.0000000000000000
 11
349.7691118321532
 21
218.1829646276888
 31
0.0000000000000000
  0
LINE
  5
2DC
100
AcDbEntity
  8
MAIN0
  6
HIDDEN
 62
3
100
AcDbLine
 10
350.9276054812070
 20
215.6763947672816
 30
0.0000000000000000
 11
347.5097552382190
 21
213.7030980094426
 31
0.0000000000000000
  0
LINE
  5
2DD
100
AcDbEntity
  8
MAIN0
  6
HIDDEN
 62
3
100
AcDbLine
 10
346.2556744626216
 20
215.8658054820141
 30
0.0000000000000000
 11
349.6776054812070
 21
217.8414582767427
 31
0.0000000000000000
  0
LINE
  5
2DE
100
AcDbEntity
  8
MAIN0
  6
CENTER
 62
3
100
AcDbLine
 10
300.8181608521497
 20
195.7569631144892
 30
0.0000000000000000
 11
310.5026198412053
 21
194.9096827404934
 31
0.0000000000000000
  0
CIRCLE
  5
2DF
100
AcDbEntity
  8
MAIN0
  6
CONTINUOUS
 62
3
100
AcDbCircle
 10
305.9211833154042
 20
195.3105064991987
 30
0.0000000000000000
 40
4.000000000000000
  0
LINE
  5
2E0
100
AcDbEntity
  8
MAIN0
  6
CENTER
 62
3
100
AcDbLine
 10
298.0400341862937
 20
199.8524204307703
 30
0.0000000000000000
 11
303.2680863486075
 21
196.8340031075364
 31
0.0000000000000000
  0
LINE
  5
2E1
100
AcDbEntity
  8
MAIN0
  6
HIDDEN
 62
3
100
AcDbLine
 10
299.6490939561008
 20
200.9441552816958
 30
0.0000000000000000
 11
299.8321066579930
 21
200.2611425798036
 31
0.0000000000000000
  0
LINE
  5
2E2
100
AcDbEntity
  8
MAIN0
  6
HIDDEN
 62
3
100
AcDbLine
 10
299.8321066579930
 20
200.2611425798035
 30
0.0000000000000000
 11
298.5821066579930
 21
198.0960790703425
 31
0.0000000000000000
  0
LINE
  5
2E3
100
AcDbEntity
  8
MAIN0
  6
HIDDEN
 62
3
100
AcDbLine
 10
298.5821066579929
 20
198.0960790703424
 30
0.0000000000000000
 11
297.8990939561007
 21
197.9130663684502
 31
0.0000000000000000
  0
LINE
  5
2E4
100
AcDbEntity
  8
MAIN0
  6
HIDDEN
 62
3
100
AcDbLine
 10
299.7406003070469
 20
200.6026489307496
 30
0.0000000000000000
 11
303.4537923503306
 21
198.4588365050070
 31
0.0000000000000000
  0
LINE
  5
2E5
100
AcDbEntity
  8
MAIN0
  6
HIDDEN
 62
3
100
AcDbLine
 10
301.9588102121391
 20
195.8578632297879
 30
0.0000000000000000
 11
298.2406003070469
 21
198.0045727193964
 31
0.0000000000000000
  0
LINE
  5
2E6
100
AcDbEntity
  8
MAIN0
  6
HIDDEN
 62
3
100
AcDbLine
 10
299.8321066579930
 20
200.2611425798035
 30
0.0000000000000000
 11
303.2499569009810
 21
198.2878458219645
 31
0.0000000000000000
  0
LINE
  5
2E7
100
AcDbEntity
  8
MAIN0
  6
HIDDEN
 62
3
100
AcDbLine
 10
302.0040376765784
 20
196.1204262756139
 30
0.0000000000000000
 11
298.5821066579930
 21
198.0960790703425
 31
0.0000000000000000
  0
CIRCLE
  5
2E8
100
AcDbEntity
  8
MAIN0
  6
CONTINUOUS
 62
3
100
AcDbCircle
 10
329.8298560695341
 20
217.2187686737028
 30
0.0000000000000000
 40
2.000000000000000
  0
CIRCLE
  5
2E9
100
AcDbEntity
  8
MAIN0
  6
CONTINUOUS
 62
3
100
AcDbCircle
 10
329.8298560695341
 20
217.2187686737028
 30
0.0000000000000000
 40
1.650000000000000
  0
CIRCLE
  5
2EA
100
AcDbEntity
  8
MAIN0
  6
CONTINUOUS
 62
3
100
AcDbCircle
 10
329.8298560695341
 20
230.2187686737048
 30
0.0000000000000000
 40
1.500000000000000
  0
CIRCLE
  5
2EB
100
AcDbEntity
  8
MAIN0
  6
CONTINUOUS
 62
3
100
AcDbCircle
 10
329.8298560695341
 20
230.2187686737048
 30
0.0000000000000000
 40
1.250000000000000
  0
CIRCLE
  5
2EC
100
AcDbEntity
  8
MAIN0
  6
CONTINUOUS
 62
3
100
AcDbCircle
 10
309.0452463787345
 20
181.2187686734060
 30
0.0000000000000000
 40
2.000000000000000
  0
CIRCLE
  5
2ED
100
AcDbEntity
  8
MAIN0
  6
CONTINUOUS
 62
3
100
AcDbCircle
 10
309.0452463787345
 20
181.2187686734060
 30
0.0000000000000000
 40
1.650000000000000
  0
CIRCLE
  5
2EE
100
AcDbEntity
  8
MAIN0
  6
CONTINUOUS
 62
3
100
AcDbCircle
 10
297.7869161295350
 20
174.7187686734050
 30
0.0000000000000000
 40
1.500000000000000
  0
CIRCLE
  5
2EF
100
AcDbEntity
  8
MAIN0
  6
CONTINUOUS
 62
3
100
AcDbCircle
 10
297.7869161295350
 20
174.7187686734050
 30
0.0000000000000000
 40
1.250000000000000
  0
CIRCLE
  5
2F0
100
AcDbEntity
  8
MAIN0
  6
CONTINUOUS
 62
3
100
AcDbCircle
 10
350.6144657606311
 20
181.2187686735777
 30
0.0000000000000000
 40
2.000000000000000
  0
CIRCLE
  5
2F1
100
AcDbEntity
  8
MAIN0
  6
CONTINUOUS
 62
3
100
AcDbCircle
 10
350.6144657606311
 20
181.2187686735777
 30
0.0000000000000000
 40
1.650000000000000
  0
CIRCLE
  5
2F2
100
AcDbEntity
  8
MAIN0
  6
CONTINUOUS
 62
3
100
AcDbCircle
 10
361.8727960098306
 20
174.7187686735767
 30
0.0000000000000000
 40
1.500000000000000
  0
CIRCLE
  5
2F3
100
AcDbEntity
  8
MAIN0
  6
CONTINUOUS
 62
3
100
AcDbCircle
 10
361.8727960098306
 20
174.7187686735767
 30
0.0000000000000000
 40
1.250000000000000
  0
LINE
  5
2F4
100
AcDbEntity
  8
MAIN0
  6
CONTINUOUS
 62
3
100
AcDbLine
 10
349.3154276547880
 20
201.4687686737073
 30
0.0000000000000000
 11
346.7173514434792
 21
205.9687686736292
 31
0.0000000000000000
  0
LINE
  5
2F5
100
AcDbEntity
  8
MAIN0
  6
CONTINUOUS
 62
3
100
AcDbLine
 10
312.9423606957847
 20
205.9687686736259
 30
0.0000000000000000
 11
310.3442844844392
 21
201.4687686736384
 31
0.0000000000000000
  0
CIRCLE
  5
2F6
100
AcDbEntity
  8
MAIN0
  6
CONTINUOUS
 62
3
100
AcDbCircle
 10
345.4183133376682
 20
202.2187686736628
 30
0.0000000000000000
 40
2.750000000000000
  0
CIRCLE
  5
2F7
100
AcDbEntity
  8
MAIN0
  6
CONTINUOUS
 62
3
100
AcDbCircle
 10
314.2413988014687
 20
202.2187686734384
 30
0.0000000000000000
 40
2.750000000000000
  0
CIRCLE
  5
2F8
100
AcDbEntity
  8
MAIN0
  6
CONTINUOUS
 62
3
100
AcDbCircle
 10
329.8298560697628
 20
175.2187686735855
 30
0.0000000000000000
 40
2.750000000000000
  0
CIRCLE
  5
2F9
100
AcDbEntity
  8
MAIN0
  6
CONTINUOUS
 62
3
100
AcDbCircle
 10
89.82985606934693
 20
174.7187686730801
 30
0.0000000000000000
 40
4.000000000000000
  0
CIRCLE
  5
2FA
100
AcDbEntity
  8
MAIN0
  6
CONTINUOUS
 62
3
100
AcDbCircle
 10
105.8513260396602
 20
183.9687686732512
 30
0.0000000000000000
 40
4.000000000000000
  0
CIRCLE
  5
2FB
100
AcDbEntity
  8
MAIN0
  6
CONTINUOUS
 62
3
100
AcDbCircle
 10
105.8513260396602
 20
183.9687686732512
 30
0.0000000000000000
 40
2.250000000000000
  0
CIRCLE
  5
2FC
100
AcDbEntity
  8
MAIN0
  6
CONTINUOUS
 62
3
100
AcDbCircle
 10
105.8513260396626
 20
202.4687686735975
 30
0.0000000000000000
 40
4.000000000000000
  0
CIRCLE
  5
2FD
100
AcDbEntity
  8
MAIN0
  6
CONTINUOUS
 62
3
100
AcDbCircle
 10
73.80838609903856
 20
202.4687686736016
 30
0.0000000000000000
 40
4.000000000000000
  0
CIRCLE
  5
2FE
100
AcDbEntity
  8
MAIN0
  6
CONTINUOUS
 62
3
100
AcDbCircle
 10
73.80838609903617
 20
183.9687686732554
 30
0.0000000000000000
 40
4.000000000000000
  0
CIRCLE
  5
2FF
100
AcDbEntity
  8
MAIN0
  6
CONTINUOUS
 62
3
100
AcDbCircle
 10
73.80838609903617
 20
183.9687686732554
 30
0.0000000000000000
 40
2.250000000000000
  0
ARC
  5
300
100
AcDbEntity
  8
MAIN0
  6
HIDDEN
 62
3
100
AcDbCircle
 10
70.32985606934938
 20
193.2187686734598
 30
0.0000000000000000
 40
2.000000000000000
100
AcDbArc
 50
90.00000000001516
 51
270.0000000000152
  0
LINE
  5
301
100
AcDbEntity
  8
MAIN0
  6
HIDDEN
 62
3
100
AcDbLine
 10
70.32985606934568
 20
191.2187686734619
 30
0.0000000000000000
 11
72.32985606934568
 21
191.2187686734582
 31
0.0000000000000000
  0
ARC
  5
302
100
AcDbEntity
  8
MAIN0
  6
HIDDEN
 62
3
100
AcDbCircle
 10
72.32985606934938
 20
193.2187686734603
 30
0.0000000000000000
 40
2.000000000000000
100
AcDbArc
 50
270.0000000000152
 51
450.0000000000152
  0
LINE
  5
303
100
AcDbEntity
  8
MAIN0
  6
HIDDEN
 62
3
100
AcDbLine
 10
70.32985606935296
 20
195.2187686734619
 30
0.0000000000000000
 11
72.32985606935296
 21
195.2187686734582
 31
0.0000000000000000
  0
LEADER
  5
304
100
AcDbEntity
  8
MAIN0
  6
CONTINUOUS
 62
3
100
AcDbLeader
  3
MAIN001
 73
     0
 74
     0
 75
     1
 40
3.099999904632568
 41
10.78100032901762
 76
     3
 10
340.5790946052792
 20
111.1938734623635
 30
0.0000000000000000
 10
346.0548597257270
 20
123.7594051987789
 30
0.0000000000000000
 10
347.9798596699371
 20
123.7594051987789
 30
0.0000000000000000
340
305
213
0.0000000000000000
223
-0.5000000000000000
233
0.0000000000000000
1001
ACAD
1000
DSTYLE
1002
{
1070
   147
1040
0.0
1070
    77
1070
     1
1070
   173
1070
     1
1070
     6
1000
_OPEN
1070
     7
1000
_OPEN
1002
}
  0
MTEXT
  5
305
102
{ACAD_REACTORS
330
304
102
}
100
AcDbEntity
  8
MAIN0
  6
CONTINUOUS
 62
3
100
AcDbMText
 10
347.9808596699371
 20
127.3594051034115
 30
0.0000000000000000
 40
3.099999904632568
 41
0.0000000000000000
 71
     1
 72
     1
  1
{\H0.91x;{3-M3}}
 11
1.000000000000000
 21
0.0000000000000000
 31
0.0000000000000000
  7
STANDARD
  0
LEADER
  5
306
100
AcDbEntity
  8
MAIN0
  6
CONTINUOUS
 62
3
100
AcDbLeader
  3
MAIN001
 73
     0
 74
     0
 75
     1
 40
3.099999904632568
 41
32.38100088930128
 76
     3
 10
331.6397037130371
 20
218.0699158450585
 30
0.0000000000000000
 10
368.4292070388398
 20
235.3715278368389
 30
0.0000000000000000
 10
370.3542069830498
 20
235.3715278368389
 30
0.0000000000000000
340
307
213
0.0000000000000000
223
-0.5000000000000000
233
0.0000000000000000
1001
ACAD
1000
DSTYLE
1002
{
1070
   147
1040
0.0
1070
    77
1070
     1
1070
   173
1070
     1
1070
     6
1000
_OPEN
1070
     7
1000
_OPEN
1002
}
  0
MTEXT
  5
307
102
{ACAD_REACTORS
330
306
102
}
100
AcDbEntity
  8
MAIN0
  6
CONTINUOUS
 62
3
100
AcDbMText
 10
370.3552069830498
 20
238.9715277414715
 30
0.0000000000000000
 40
3.099999904632568
 41
0.0000000000000000
 71
     1
 72
     1
  1
{\H0.93x;{3X2-M4 ねじ深7\PDepth 7}}
 11
1.000000000000000
 21
0.0000000000000000
 31
0.0000000000000000
  7
KNJYOKO
  0
CIRCLE
  5
308
100
AcDbEntity
  8
MAIN0
  6
CONTINUOUS
 62
3
100
AcDbCircle
 10
339.9798560698616
 20
109.8187686744762
 30
0.0000000000000000
 40
1.500000000000000
  0
CIRCLE
  5
309
100
AcDbEntity
  8
MAIN0
  6
CONTINUOUS
 62
3
100
AcDbCircle
 10
339.9798560698616
 20
109.8187686744762
 30
0.0000000000000000
 40
1.250000000000000
  0
LINE
  5
30A
100
AcDbEntity
  8
MAIN0
  6
CONTINUOUS
 62
3
100
AcDbLine
 10
314.3933225903325
 20
114.8187686734426
 30
0.0000000000000000
 11
314.3933225903341
 21
115.8187686734426
 31
0.0000000000000000
  0
LINE
  5
30B
100
AcDbEntity
  8
MAIN0
  6
CONTINUOUS
 62
3
100
AcDbLine
 10
308.3311447634859
 20
114.8187686734426
 30
0.0000000000000000
 11
308.3311447634859
 21
115.8187686734426
 31
0.0000000000000000
  0
LINE
  5
30C
100
AcDbEntity
  8
MAIN0
  6
CONTINUOUS
 62
3
100
AcDbLine
 10
304.0010177449821
 20
114.8187686734426
 30
0.0000000000000000
 11
304.0010177449821
 21
115.8187686734426
 31
0.0000000000000000
  0
LINE
  5
30D
100
AcDbEntity
  8
MAIN0
  6
CONTINUOUS
 62
3
100
AcDbLine
 10
291.5728145146288
 20
106.8187686733402
 30
0.0000000000000000
 11
291.5728145146218
 21
115.8187686734425
 31
0.0000000000000000
  0
LINE
  5
30E
100
AcDbEntity
  8
MAIN0
  6
CONTINUOUS
 62
3
100
AcDbLine
 10
297.0728145145372
 20
106.8187686733342
 30
0.0000000000000000
 11
297.0728145145231
 21
115.8187686734426
 31
0.0000000000000000
  0
LINE
  5
30F
100
AcDbEntity
  8
MAIN0
  6
CONTINUOUS
 62
3
100
AcDbLine
 10
291.5728145146219
 20
115.8187686734426
 30
0.0000000000000000
 11
314.3933225903342
 21
115.8187686734426
 31
0.0000000000000000
  0
LINE
  5
310
100
AcDbEntity
  8
MAIN0
  6
CONTINUOUS
 62
3
100
AcDbLine
 10
290.0728145146337
 20
100.8187686732601
 30
0.0000000000000000
 11
298.5728145147207
 21
100.8187686732648
 31
0.0000000000000000
  0
LINE
  5
311
100
AcDbEntity
  8
MAIN0
  6
CONTINUOUS
 62
3
100
AcDbLine
 10
290.0728145146335
 20
100.8187686732601
 30
0.0000000000000000
 11
290.0728145146288
 21
106.8187686733419
 31
0.0000000000000000
  0
LINE
  5
312
100
AcDbEntity
  8
MAIN0
  6
CONTINUOUS
 62
3
100
AcDbLine
 10
298.5728145147208
 20
100.8187686732648
 30
0.0000000000000000
 11
298.5728145147208
 21
106.8187686733324
 31
0.0000000000000000
  0
LINE
  5
313
100
AcDbEntity
  8
MAIN0
  6
CONTINUOUS
 62
3
100
AcDbLine
 10
290.0728145146290
 20
106.8187686733419
 30
0.0000000000000000
 11
291.5728145146290
 21
106.8187686733402
 31
0.0000000000000000
  0
LINE
  5
314
100
AcDbEntity
  8
MAIN0
  6
CONTINUOUS
 62
3
100
AcDbLine
 10
297.0728145145371
 20
106.8187686733341
 30
0.0000000000000000
 11
298.5728145147207
 21
106.8187686733325
 31
0.0000000000000000
  0
ELLIPSE
  5
315
100
AcDbEntity
  8
MAIN0
  6
CONTINUOUS
 62
3
100
AcDbEllipse
 10
294.3228145147008
 20
104.3187686733597
 30
0.0000000000000000
 11
0.0000000000000000
 21
2.000000000000000
 31
0.0000000000000000
210
0.0000000000000000
220
0.0000000000000000
230
1.000000000000000
 40
0.5000000000000000
 41
0.0000000000000000
 42
6.283185307179586
  0
LINE
  5
316
100
AcDbEntity
  8
MAIN0
  6
CENTER
 62
3
100
AcDbLine
 10
297.3228145147008
 20
104.3187686733597
 30
0.0000000000000000
 11
291.3228145147008
 21
104.3187686733597
 31
0.0000000000000000
  0
LINE
  5
317
100
AcDbEntity
  8
MAIN0
  6
CONTINUOUS
 62
3
100
AcDbLine
 10
345.2663895492153
 20
114.8187686735111
 30
0.0000000000000000
 11
345.2663895492092
 21
115.8187686735111
 31
0.0000000000000000
  0
LINE
  5
318
100
AcDbEntity
  8
MAIN0
  6
CONTINUOUS
 62
3
100
AcDbLine
 10
351.3285673760618
 20
114.8187686735380
 30
0.0000000000000000
 11
351.3285673760573
 21
115.8187686735380
 31
0.0000000000000000
  0
LINE
  5
319
100
AcDbEntity
  8
MAIN0
  6
CONTINUOUS
 62
3
100
AcDbLine
 10
355.6586943945656
 20
114.8187686735572
 30
0.0000000000000000
 11
355.6586943945612
 21
115.8187686735572
 31
0.0000000000000000
  0
LINE
  5
31A
100
AcDbEntity
  8
MAIN0
  6
CONTINUOUS
 62
3
100
AcDbLine
 10
368.0868976249543
 20
106.8187686735100
 30
0.0000000000000000
 11
368.0868976249215
 21
115.8187686736123
 31
0.0000000000000000
  0
LINE
  5
31B
100
AcDbEntity
  8
MAIN0
  6
CONTINUOUS
 62
3
100
AcDbLine
 10
362.5868976250461
 20
106.8187686734795
 30
0.0000000000000000
 11
362.5868976250202
 21
115.8187686735880
 31
0.0000000000000000
  0
LINE
  5
31C
100
AcDbEntity
  8
MAIN0
  6
CONTINUOUS
 62
3
100
AcDbLine
 10
368.0868976249213
 20
115.8187686736124
 30
0.0000000000000000
 11
345.2663895492091
 21
115.8187686735111
 31
0.0000000000000000
  0
LINE
  5
31D
100
AcDbEntity
  8
MAIN0
  6
CONTINUOUS
 62
3
100
AcDbLine
 10
369.5868976249761
 20
100.8187686734366
 30
0.0000000000000000
 11
361.0868976248889
 21
100.8187686734036
 31
0.0000000000000000
  0
LINE
  5
31E
100
AcDbEntity
  8
MAIN0
  6
CONTINUOUS
 62
3
100
AcDbLine
 10
369.5868976249763
 20
100.8187686734365
 30
0.0000000000000000
 11
369.5868976249544
 21
106.8187686735184
 31
0.0000000000000000
  0
LINE
  5
31F
100
AcDbEntity
  8
MAIN0
  6
CONTINUOUS
 62
3
100
AcDbLine
 10
361.0868976248890
 20
100.8187686734035
 30
0.0000000000000000
 11
361.0868976248624
 21
106.8187686734712
 31
0.0000000000000000
  0
LINE
  5
320
100
AcDbEntity
  8
MAIN0
  6
CONTINUOUS
 62
3
100
AcDbLine
 10
369.5868976249544
 20
106.8187686735183
 30
0.0000000000000000
 11
368.0868976249544
 21
106.8187686735100
 31
0.0000000000000000
  0
LINE
  5
321
100
AcDbEntity
  8
MAIN0
  6
CONTINUOUS
 62
3
100
AcDbLine
 10
362.5868976250463
 20
106.8187686734795
 30
0.0000000000000000
 11
361.0868976248626
 21
106.8187686734712
 31
0.0000000000000000
  0
ELLIPSE
  5
322
100
AcDbEntity
  8
MAIN0
  6
CONTINUOUS
 62
3
100
AcDbEllipse
 10
365.3368976248935
 20
104.3187686735173
 30
0.0000000000000000
 11
0.0000000000000000
 21
-2.000000000000000
 31
0.0000000000000000
210
0.0000000000000000
220
0.0000000000000000
230
1.000000000000000
 40
0.5000000000000000
 41
0.0000000000000000
 42
6.283185307179586
  0
LINE
  5
323
100
AcDbEntity
  8
MAIN0
  6
CENTER
 62
3
100
AcDbLine
 10
362.3368976248934
 20
104.3187686735040
 30
0.0000000000000000
 11
368.3368976248934
 21
104.3187686735306
 31
0.0000000000000000
  0
LINE
  5
324
100
AcDbEntity
  8
MAIN0
  6
CONTINUOUS
 62
3
100
AcDbLine
 10
345.2663895492123
 20
115.3187686735056
 30
0.0000000000000000
 11
314.3933225903332
 21
115.3187686735056
 31
0.0000000000000000
  0
LINE
  5
325
100
AcDbEntity
  8
MAIN0
  6
CONTINUOUS
 62
3
100
AcDbLine
 10
306.3298560698186
 20
94.21876867353950
 30
0.0000000000000000
 11
306.3298560698186
 21
91.41876867357547
 31
0.0000000000000000
  0
LINE
  5
326
100
AcDbEntity
  8
MAIN0
  6
CONTINUOUS
 62
3
100
AcDbLine
 10
306.3298560698185
 20
91.41876867357576
 30
0.0000000000000000
 11
306.5298560698185
 21
91.21876867357580
 31
0.0000000000000000
  0
LINE
  5
327
100
AcDbEntity
  8
MAIN0
  6
CONTINUOUS
 62
3
100
AcDbLine
 10
353.3298560698186
 20
94.21876867364148
 30
0.0000000000000000
 11
353.3298560698186
 21
91.41876867357547
 31
0.0000000000000000
  0
LINE
  5
328
100
AcDbEntity
  8
MAIN0
  6
CONTINUOUS
 62
3
100
AcDbLine
 10
353.3298560698187
 20
91.41876867357533
 30
0.0000000000000000
 11
353.1298560698187
 21
91.21876867357540
 31
0.0000000000000000
  0
LINE
  5
329
100
AcDbEntity
  8
MAIN0
  6
CONTINUOUS
 62
3
100
AcDbLine
 10
306.5298560698185
 20
91.21876867357543
 30
0.0000000000000000
 11
353.1298560698185
 21
91.21876867357543
 31
0.0000000000000000
  0
CIRCLE
  5
32A
100
AcDbEntity
  8
MAIN0
  6
CONTINUOUS
 62
3
100
AcDbCircle
 10
345.4183133371948
 20
202.2187686731109
 30
0.0000000000000000
 40
2.350000000000165
  0
LINE
  5
32B
100
AcDbEntity
  8
MAIN0
  6
CONTINUOUS
 62
3
100
AcDbLine
 10
345.0300847699734
 20
200.7698799335869
 30
0.0000000000000000
 11
345.8065419052709
 21
203.6676574124055
 31
0.0000000000000000
  0
LINE
  5
32C
100
AcDbEntity
  8
MAIN0
  6
CONTINUOUS
 62
3
100
AcDbLine
 10
346.8672020767866
 20
201.8305401060596
 30
0.0000000000000000
 11
343.9694245979246
 21
202.6069972413618
 31
0.0000000000000000
  0
CIRCLE
  5
32D
100
AcDbEntity
  8
MAIN0
  6
CONTINUOUS
 62
3
100
AcDbCircle
 10
314.2413988021834
 20
202.2187686733042
 30
0.0000000000000000
 40
2.350000000000165
  0
LINE
  5
32E
100
AcDbEntity
  8
MAIN0
  6
CONTINUOUS
 62
3
100
AcDbLine
 10
315.6902875414790
 20
202.6069972413777
 30
0.0000000000000000
 11
312.7925100626590
 21
201.8305401060858
 31
0.0000000000000000
  0
LINE
  5
32F
100
AcDbEntity
  8
MAIN0
  6
CONTINUOUS
 62
3
100
AcDbLine
 10
313.8531702339286
 20
203.6676574125738
 30
0.0000000000000000
 11
314.6296273692382
 21
200.7698799337138
 31
0.0000000000000000
  0
LINE
  5
330
100
AcDbEntity
  8
WAKU0
  6
CONTINUOUS
 62
3
100
AcDbLine
 10
240.0000000000000
 20
51.00000000000000
 30
0.0000000000000000
 11
410.0000000000000
 21
51.00000000000000
 31
0.0000000000000000
  0
LINE
  5
331
100
AcDbEntity
  8
WAKU0
  6
CONTINUOUS
 62
3
100
AcDbLine
 10
240.0000000000000
 20
51.00000000000000
 30
0.0000000000000000
 11
240.0000000000000
 21
12.00000000000000
 31
0.0000000000000000
  0
LINE
  5
332
100
AcDbEntity
  8
WAKU0
  6
CONTINUOUS
 62
3
100
AcDbLine
 10
312.0000000000000
 20
51.00000000000000
 30
0.0000000000000000
 11
312.0000000000000
 21
12.00000000000000
 31
0.0000000000000000
  0
LINE
  5
333
100
AcDbEntity
  8
WAKU0
  6
CONTINUOUS
 62
3
100
AcDbLine
 10
332.0000000000000
 20
51.00000000000000
 30
0.0000000000000000
 11
332.0000000000000
 21
12.00000000000000
 31
0.0000000000000000
  0
LINE
  5
334
100
AcDbEntity
  8
WAKU0
  6
CONTINUOUS
 62
3
100
AcDbLine
 10
344.0000000000000
 20
51.00000000000000
 30
0.0000000000000000
 11
344.0000000000000
 21
12.00000000000000
 31
0.0000000000000000
  0
LINE
  5
335
100
AcDbEntity
  8
WAKU0
  6
CONTINUOUS
 62
3
100
AcDbLine
 10
344.0000000000000
 20
37.00000000000000
 30
0.0000000000000000
 11
410.0000000000000
 21
37.00000000000000
 31
0.0000000000000000
  0
LINE
  5
336
100
AcDbEntity
  8
WAKU0
  6
CONTINUOUS
 62
3
100
AcDbLine
 10
332.0000000000000
 20
23.00000000000000
 30
0.0000000000000000
 11
410.0000000000000
 21
23.00000000000000
 31
0.0000000000000000
  0
LINE
  5
337
100
AcDbEntity
  8
WAKU0
  6
CONTINUOUS
 62
3
100
AcDbLine
 10
375.0000000000000
 20
51.00000000000000
 30
0.0000000000000000
 11
375.0000000000000
 21
44.00000000000000
 31
0.0000000000000000
  0
LINE
  5
338
100
AcDbEntity
  8
WAKU0
  6
CONTINUOUS
 62
3
100
AcDbLine
 10
387.0000000000000
 20
51.00000000000000
 30
0.0000000000000000
 11
387.0000000000000
 21
44.00000000000000
 31
0.0000000000000000
  0
LINE
  5
339
100
AcDbEntity
  8
WAKU0
  6
CONTINUOUS
 62
3
100
AcDbLine
 10
312.0000000000000
 20
31.50000000000000
 30
0.0000000000000000
 11
332.0000000000000
 21
31.50000000000000
 31
0.0000000000000000
  0
LINE
  5
33A
100
AcDbEntity
  8
WAKU0
  6
CONTINUOUS
 62
3
100
AcDbLine
 10
332.0000000000000
 20
44.00000000000000
 30
0.0000000000000000
 11
410.0000000000000
 21
44.00000000000000
 31
0.0000000000000000
  0
LINE
  5
33B
100
AcDbEntity
  8
WAKU0
  6
CONTINUOUS
 62
3
100
AcDbLine
 10
240.0000000000000
 20
37.00000000000000
 30
0.0000000000000000
 11
312.0000000000000
 21
37.00000000000000
 31
0.0000000000000000
  0
LINE
  5
33C
100
AcDbEntity
  8
WAKU0
  6
CONTINUOUS
 62
3
100
AcDbLine
 10
240.0000000000000
 20
23.00000000000000
 30
0.0000000000000000
 11
312.0000000000000
 21
23.00000000000000
 31
0.0000000000000000
  0
LINE
  5
33D
100
AcDbEntity
  8
WAKU0
  6
CONTINUOUS
 62
3
100
AcDbLine
 10
288.0000000000000
 20
37.00000000000000
 30
0.0000000000000000
 11
288.0000000000000
 21
12.00000000000000
 31
0.0000000000000000
  0
LINE
  5
33E
100
AcDbEntity
  8
WAKU0
  6
CONTINUOUS
 62
3
100
AcDbLine
 10
264.0000000000000
 20
37.00000000000000
 30
0.0000000000000000
 11
264.0000000000000
 21
23.00000000000000
 31
0.0000000000000000
  0
LINE
  5
33F
100
AcDbEntity
  8
WAKU0
  6
CONTINUOUS
 62
3
100
AcDbLine
 10
300.0000000000000
 20
26.00000000000000
 30
0.0000000000000000
 11
300.0000000000000
 21
23.00000000000000
 31
0.0000000000000000
  0
LINE
  5
340
100
AcDbEntity
  8
WAKU0
  6
CONTINUOUS
 62
3
100
AcDbLine
 10
276.0000000000000
 20
26.00000000000000
 30
0.0000000000000000
 11
276.0000000000000
 21
23.00000000000000
 31
0.0000000000000000
  0
LINE
  5
341
100
AcDbEntity
  8
WAKU0
  6
CONTINUOUS
 62
3
100
AcDbLine
 10
252.0000000000000
 20
26.00000000000000
 30
0.0000000000000000
 11
252.0000000000000
 21
23.00000000000000
 31
0.0000000000000000
  0
LINE
  5
342
100
AcDbEntity
  8
WAKU0
  6
CONTINUOUS
 62
3
100
AcDbLine
 10
258.0000000000000
 20
51.00000000000000
 30
0.0000000000000000
 11
258.0000000000000
 21
37.00000000000000
 31
0.0000000000000000
  0
LINE
  5
343
100
AcDbEntity
  8
WAKU0
  6
CONTINUOUS
 62
3
100
AcDbLine
 10
240.0000000000000
 20
45.00000000000000
 30
0.0000000000000000
 11
312.0000000000000
 21
45.00000000000000
 31
0.0000000000000000
  0
LINE
  5
344
100
AcDbEntity
  8
WAKU0
  6
HIDDEN
 62
3
100
AcDbLine
 10
360.5000000000000
 20
23.00000000000000
 30
0.0000000000000000
 11
360.5000000000000
 21
12.00000000000000
 31
0.0000000000000000
  0
LINE
  5
345
100
AcDbEntity
  8
WAKU0
  6
HIDDEN
 62
3
100
AcDbLine
 10
372.9000000000000
 20
23.00000000000000
 30
0.0000000000000000
 11
372.9000000000000
 21
12.00000000000000
 31
0.0000000000000000
  0
MTEXT
  5
346
100
AcDbEntity
  8
WAKU0
  6
CONTINUOUS
 62
3
100
AcDbMText
 10
344.4820000243485
 20
49.04999995231628
 30
0.0000000000000000
 40
3.099999904632568
 41
0.0000000000000000
 71
     1
 72
     1
  1
{\H0.92x;{QG30608}}
 11
1.000000000000000
 21
0.0000000000000000
 31
0.0000000000000000
  7
STANDARD
  0
MTEXT
  5
347
100
AcDbEntity
  8
WAKU0
  6
CONTINUOUS
 62
3
100
AcDbMText
 10
365.3900001943111
 20
43.50000000000000
 30
0.0000000000000000
 40
3.000000000000000
 41
0.0000000000000000
 71
     1
 72
     1
  1
{\H0.93x;{グリッパ\PＧＲＩＰＰＥＲ}}
 11
1.000000000000000
 21
0.0000000000000000
 31
0.0000000000000000
  7
KNJYOKO
  0
MTEXT
  5
348
100
AcDbEntity
  8
WAKU0
  6
CONTINUOUS
 62
3
100
AcDbMText
 10
351.0499999858439
 20
34.23333326975504
 30
0.0000000000000000
 40
3.099999904632568
 41
0.0000000000000000
 71
     1
 72
     1
  1
{\H0.70x;{ＱＧ３０６０８　ガイケイ\PＱＧ３０６０８　ＯＵＴＳＩＤＥ　ＶＩＥＷ}}
 11
1.000000000000000
 21
0.0000000000000000
 31
0.0000000000000000
  7
KNJYOKO
  0
MTEXT
  5
349
100
AcDbEntity
  8
WAKU0
  6
CONTINUOUS
 62
3
100
AcDbMText
 10
318.0049998760223
 20
39.29999995231628
 30
0.0000000000000000
 40
3.099999904632568
 41
0.0000000000000000
 71
     1
 72
     1
  1
{\H0.90x;{1:1}}
 11
1.000000000000000
 21
0.0000000000000000
 31
0.0000000000000000
  7
STANDARD
  0
MTEXT
  5
34A
100
AcDbEntity
  8
WAKU0
  6
CONTINUOUS
 62
3
100
AcDbMText
 10
374.4000001549721
 20
20.15000009536743
 30
0.0000000000000000
 40
5.300000190734863
 41
0.0000000000000000
 71
     1
 72
     1
  1
{\H0.90x;{9968}}
 11
1.000000000000000
 21
0.0000000000000000
 31
0.0000000000000000
  7
STANDARD
  0
MTEXT
  5
34B
100
AcDbEntity
  8
WAKU0
  6
CONTINUOUS
 62
3
100
AcDbMText
 10
362.3000000834465
 20
20.15000009536743
 30
0.0000000000000000
 40
5.300000190734863
 41
0.0000000000000000
 71
     1
 72
     1
  1
{\H0.87x;{84}}
 11
1.000000000000000
 21
0.0000000000000000
 31
0.0000000000000000
  7
STANDARD
  0
MTEXT
  5
34C
100
AcDbEntity
  8
WAKU0
  6
CONTINUOUS
 62
3
100
AcDbMText
 10
345.5000001192093
 20
20.15000009536743
 30
0.0000000000000000
 40
5.300000190734863
 41
0.0000000000000000
 71
     1
 72
     1
  1
{\H0.89x;{61G}}
 11
1.000000000000000
 21
0.0000000000000000
 31
0.0000000000000000
  7
STANDARD
  0
MTEXT
  5
34D
100
AcDbEntity
  8
WAKU0
  6
CONTINUOUS
 62
3
100
AcDbMText
 10
400.0000000476837
 20
20.15000009536743
 30
0.0000000000000000
 40
5.300000190734863
 41
0.0000000000000000
 71
     1
 72
     1
  1
{\H0.81x;{1}}
 11
1.000000000000000
 21
0.0000000000000000
 31
0.0000000000000000
  7
STANDARD
  0
MTEXT
  5
34E
100
AcDbEntity
  8
WAKU0
  6
CONTINUOUS
 62
3
100
AcDbMText
 10
400.0000000819564
 20
44.84999990463257
 30
0.0000000000000000
 40
5.300000190734863
 41
0.0000000000000000
 71
     7
 72
     1
  1
{\H0.81x;{ }}
 11
1.000000000000000
 21
0.0000000000000000
 31
0.0000000000000000
  7
STANDARD
  0
MTEXT
  5
34F
100
AcDbEntity
  8
WAKU0
  6
CONTINUOUS
 62
3
100
AcDbMText
 10
289.3850002884865
 20
33.00000000000000
 30
0.0000000000000000
 40
3.000000000000000
 41
0.0000000000000000
 71
     7
 72
     1
  1
{\H0.93x;{DRAWN BY}}
 11
1.000000000000000
 21
0.0000000000000000
 31
0.0000000000000000
  7
STANDARD
  0
MTEXT
  5
350
100
AcDbEntity
  8
WAKU0
  6
CONTINUOUS
 62
3
100
AcDbMText
 10
269.2149997949600
 20
32.95000004768372
 30
0.0000000000000000
 40
3.099999904632568
 41
0.0000000000000000
 71
     7
 72
     1
  1
{\H0.92x;{CHIEF}}
 11
1.000000000000000
 21
0.0000000000000000
 31
0.0000000000000000
  7
STANDARD
  0
MTEXT
  5
351
100
AcDbEntity
  8
WAKU0
  6
CONTINUOUS
 62
3
100
AcDbMText
 10
242.4249997138977
 20
32.95000004768372
 30
0.0000000000000000
 40
3.099999904632568
 41
0.0000000000000000
 71
     7
 72
     1
  1
{\H0.92x;{MANAGER}}
 11
1.000000000000000
 21
0.0000000000000000
 31
0.0000000000000000
  7
STANDARD
  0
MTEXT
  5
352
100
AcDbEntity
  8
WAKU0
  6
CONTINUOUS
 62
3
100
AcDbMText
 10
241.0850002169609
 20
46.50000000000000
 30
0.0000000000000000
 40
3.000000000000000
 41
0.0000000000000000
 71
     7
 72
     1
  1
{\H0.92x;{CAREER}}
 11
1.000000000000000
 21
0.0000000000000000
 31
0.0000000000000000
  7
STANDARD
  0
MTEXT
  5
353
100
AcDbEntity
  8
WAKU0
  6
CONTINUOUS
 62
3
100
AcDbMText
 10
294.6099998354912
 20
18.95000004768372
 30
0.0000000000000000
 40
3.099999904632568
 41
0.0000000000000000
 71
     7
 72
     1
  1
{\H0.91x;{DATE}}
 11
1.000000000000000
 21
0.0000000000000000
 31
0.0000000000000000
  7
STANDARD
  0
MTEXT
  5
354
100
AcDbEntity
  8
WAKU0
  6
CONTINUOUS
 62
3
100
AcDbMText
 10
313.9000002145767
 20
26.50000000000000
 30
0.0000000000000000
 40
3.000000000000000
 41
0.0000000000000000
 71
     7
 72
     1
  1
{\H0.63x;{3RD ANGLE}}
 11
1.000000000000000
 21
0.0000000000000000
 31
0.0000000000000000
  7
STANDARD
  0
MTEXT
  5
355
100
AcDbEntity
  8
WAKU0
  6
CONTINUOUS
 62
3
100
AcDbMText
 10
315.2149997949600
 20
45.95000004768372
 30
0.0000000000000000
 40
3.099999904632568
 41
0.0000000000000000
 71
     7
 72
     1
  1
{\H0.92x;{SCALE}}
 11
1.000000000000000
 21
0.0000000000000000
 31
0.0000000000000000
  7
STANDARD
  0
MTEXT
  5
356
100
AcDbEntity
  8
WAKU0
  6
CONTINUOUS
 62
3
100
AcDbMText
 10
405.7000000476837
 20
46.00000000000000
 30
0.0000000000000000
 40
3.000000000000000
 41
0.0000000000000000
 71
     7
 72
     1
  1
{\H0.63x;{kg}}
 11
1.000000000000000
 21
0.0000000000000000
 31
0.0000000000000000
  7
STANDARD
  0
MTEXT
  5
357
100
AcDbEntity
  8
WAKU0
  6
CONTINUOUS
 62
3
100
AcDbMText
 10
375.6000001430512
 20
46.00000000000000
 30
0.0000000000000000
 40
3.000000000000000
 41
0.0000000000000000
 71
     7
 72
     1
  1
{\H0.63x;{WEIGHT}}
 11
1.000000000000000
 21
0.0000000000000000
 31
0.0000000000000000
  7
STANDARD
  0
MTEXT
  5
358
100
AcDbEntity
  8
WAKU0
  6
CONTINUOUS
 62
3
100
AcDbMText
 10
334.0049998760223
 20
18.13333336512248
 30
0.0000000000000000
 40
3.099999904632568
 41
0.0000000000000000
 71
     7
 72
     1
  1
{\H0.90x;{DRW\PNO.}}
 11
1.000000000000000
 21
0.0000000000000000
 31
0.0000000000000000
  7
STANDARD
  0
MTEXT
  5
359
100
AcDbEntity
  8
WAKU0
  6
CONTINUOUS
 62
3
100
AcDbMText
 10
332.6099998354912
 20
31.95000004768372
 30
0.0000000000000000
 40
3.099999904632568
 41
0.0000000000000000
 71
     7
 72
     1
  1
{\H0.91x;{NAME}}
 11
1.000000000000000
 21
0.0000000000000000
 31
0.0000000000000000
  7
STANDARD
  0
MTEXT
  5
35A
100
AcDbEntity
  8
WAKU0
  6
CONTINUOUS
 62
3
100
AcDbMText
 10
332.6099998354912
 20
45.95000004768372
 30
0.0000000000000000
 40
3.099999904632568
 41
0.0000000000000000
 71
     7
 72
     1
  1
{\H0.91x;{TYPE}}
 11
1.000000000000000
 21
0.0000000000000000
 31
0.0000000000000000
  7
STANDARD
  0
LINE
  5
35B
100
AcDbEntity
  8
WAKU0
  6
HIDDEN
 62
3
100
AcDbLine
 10
407.1599564743885
 20
13.84999990463257
 30
0.0000000000000000
 11
396.9400436209789
 21
13.84999990463257
 31
0.0000000000000000
  0
LINE
  5
35C
100
AcDbEntity
  8
WAKU0
  6
HIDDEN
 62
3
100
AcDbLine
 10
407.1599564743885
 20
13.84999990463250
 30
0.0000000000000000
 11
402.0500000476852
 21
22.70070406014901
 31
0.0000000000000000
  0
LINE
  5
35D
100
AcDbEntity
  8
WAKU0
  6
HIDDEN
 62
3
100
AcDbLine
 10
402.0500000476852
 20
22.70070406014902
 30
0.0000000000000000
 11
396.9400436209789
 21
13.84999990463248
 31
0.0000000000000000
  0
MTEXT
  5
35E
100
AcDbEntity
  8
WAKU0
  6
CONTINUOUS
 62
3
100
AcDbMText
 10
247.0000009614873
 20
20.63471521698214
 30
0.0000000000000000
 40
3.140094041824341
 41
0.0000000000000000
 71
     1
 72
     1
  1
{\H0.83x;{Ｋｉｔａｇａｗａ\PＣｏｒｐｏｒａｔｉｏｎ}}
 11
1.000000000000000
 21
0.0000000000000000
 31
0.0000000000000000
  7
KNJYOKO
  0
LINE
  5
35F
100
AcDbEntity
  8
WAKU0
  6
CONTINUOUS
 62
3
100
AcDbLine
 10
330.4713877753800
 20
15.78041421262812
 30
0.0000000000000000
 11
330.4713877753800
 21
21.78041421262815
 31
0.0000000000000000
  0
LINE
  5
360
100
AcDbEntity
  8
WAKU0
  6
CONTINUOUS
 62
3
100
AcDbLine
 10
323.9336941228225
 20
17.28041421262811
 30
0.0000000000000000
 11
323.9336941228225
 21
20.28041421262824
 31
0.0000000000000000
  0
LINE
  5
361
100
AcDbEntity
  8
WAKU0
  6
CENTER
 62
12
100
AcDbLine
 10
313.4321805514995
 20
18.78041421262813
 30
0.0000000000000000
 11
331.2765788964694
 21
18.78041421262813
 31
0.0000000000000000
  0
LINE
  5
362
100
AcDbEntity
  8
WAKU0
  6
CENTER
 62
12
100
AcDbLine
 10
317.4474565857986
 20
14.55921662918448
 30
0.0000000000000000
 11
317.4474565857986
 21
22.89865102149943
 31
0.0000000000000000
  0
LINE
  5
363
100
AcDbEntity
  8
WAKU0
  6
CONTINUOUS
 62
3
100
AcDbLine
 10
323.9336941228225
 20
20.28041421262797
 30
0.0000000000000000
 11
330.4713877753800
 21
21.78041421262795
 31
0.0000000000000000
  0
LINE
  5
364
100
AcDbEntity
  8
WAKU0
  6
CONTINUOUS
 62
3
100
AcDbLine
 10
323.9336941228225
 20
17.28041421262811
 30
0.0000000000000000
 11
330.4713877753799
 21
15.78041421262812
 31
0.0000000000000000
  0
CIRCLE
  5
365
100
AcDbEntity
  8
WAKU0
  6
CONTINUOUS
 62
3
100
AcDbCircle
 10
317.4474565857986
 20
18.78041421262813
 30
0.0000000000000000
 40
1.499999999999972
  0
CIRCLE
  5
366
100
AcDbEntity
  8
WAKU0
  6
CONTINUOUS
 62
3
100
AcDbCircle
 10
317.4474565857986
 20
18.78041421262813
 30
0.0000000000000000
 40
2.999999999999979
  0
ENDSEC
  0
SECTION
  2
OBJECTS
  0
DICTIONARY
  5
3A4
100
AcDbDictionary
  3
ACAD_GROUP
350
3A5
  3
ACAD_MLINESTYLE
350
3A6
  0
DICTIONARY
  5
3A5
102
{ACAD_REACTORS
330
3A4
102
}
100
AcDbDictionary
  0
DICTIONARY
  5
3A6
102
{ACAD_REACTORS
330
3A4
102
}
100
AcDbDictionary
  3
STANDARD
350
3A7
  0
MLINESTYLE
  5
3A7
102
{ACAD_REACTORS
330
3A6
102
}
100
AcDbMlineStyle
  2
STANDARD
 70
     0
  3

 62
   256
 51
90.00
 52
90.00
 71
     2
 49
0.50
 62
   256
  6
BYLAYER
 49
-0.50
 62
   256
  6
BYLAYER
  0
ENDSEC
  0
EOF
