  0
SECTION
  2
HEADER
  9
$ACADVER
  1
AC1014
  9
$DWGCODEPAGE
  3
ANSI_932
  9
$LTSCALE
 40
20.0
  9
$FILLMODE
 70
     1
  9
$CLAYER
  8
0
  9
$PDMODE
 70
     0
  9
$SPLFRAME
 70
     0
  9
$SPLINETYPE
 70
     6
  9
$SPLINESEGS
 70
     8
  9
$DIMASZ
 40
2.000000
  9
$DIMEXE
 40
2.000000
  9
$DIMEXO
 40
0.800000
  9
$DIMTAD
 70
     1
  9
$DIMTIH
 70
     0
  9
$DIMTOH
 70
     0
  9
$DIMTVP
 40
0.500000
  9
$DIMTXT
 40
3.100000
  9
$EXTMIN
 10
0.000000
 20
0.000000
 30
0.000000
  9
$EXTMAX
 10
297.000000
 20
420.000000
 30
0.000000
  9
$MEASUREMENT
 70
  1
  9
$LIMMIN
 10
0.000000
 20
0.000000
  9
$LIMMAX
 10
297.000000
 20
420.000000
  9
$HANDLING
 70
     1
  9
$HANDSEED
  5
557
  9
$DIMBLK
  1
_OPEN
  9
$DIMDEC
 70
     3
  9
$DIMAUNIT
 70
     1
  9
$DIMZIN
 70
     8
  9
$DIMTOFL
 70
     1
  0
ENDSEC
  0
SECTION
  2
CLASSES
  0
ENDSEC
  0
SECTION
  2
TABLES
  0
TABLE
  2
VPORT
  5
4F7
100
AcDbSymbolTable
 70
     1
  0
VPORT
  5
4F8
100
AcDbSymbolTableRecord
100
AcDbViewportTableRecord
  2
*ACTIVE
 70
     0
 12
210.120582
 22
148.500000
 40
297.000000
 41
1.414953
  0
ENDTAB
  0
TABLE
  2
LTYPE
  5
4F9
100
AcDbSymbolTable
 70
     3
  0
LTYPE
  5
4FA
100
AcDbSymbolTableRecord
100
AcDbLinetypeTableRecord
  2
BYBLOCK
 70
     0
  3

 72
    65
 73
     0
 40
0.0
  0
LTYPE
  5
4FB
100
AcDbSymbolTableRecord
100
AcDbLinetypeTableRecord
  2
BYLAYER
 70
     0
  3

 72
    65
 73
     0
 40
0.0
  0
LTYPE
  5
4FC
100
AcDbSymbolTableRecord
100
AcDbLinetypeTableRecord
  2
CONTINUOUS
 70
     0
  3
Solid line (NEC CAE2D for Win R14.2 : 2022.02.25)
 72
    65
 73
     0
 40
0.0
  0
LTYPE
  5
4FD
100
AcDbSymbolTableRecord
100
AcDbLinetypeTableRecord
  2
HIDDEN
 70
     0
  3
__ __ __ __ __ __ __ __ __ __ __ __ __ __
 72
    65
 73
     2
 40
0.375
 49
0.25
 74
     0
 49
-0.125
 74
     0
  0
LTYPE
  5
4FE
100
AcDbSymbolTableRecord
100
AcDbLinetypeTableRecord
  2
CENTER
 70
     0
  3
____ _ ____ _ ____ _ ____ _ ____ _ ____
 72
    65
 73
     4
 40
2.0
 49
1.25
 74
     0
 49
-0.25
 74
     0
 49
0.25
 74
     0
 49
-0.25
 74
     0
  0
ENDTAB
  0
TABLE
  2
LAYER
  5
4FF
100
AcDbSymbolTable
 70
    14
  0
LAYER
  5
500
100
AcDbSymbolTableRecord
100
AcDbLayerTableRecord
  2
0
 70
     0
 62
     7
  6
CONTINUOUS
  0
LAYER
  5
501
100
AcDbSymbolTableRecord
100
AcDbLayerTableRecord
  2
MAIN0
 70
     0
 62
     7
  6
CONTINUOUS
  0
LAYER
  5
502
100
AcDbSymbolTableRecord
100
AcDbLayerTableRecord
  2
MAIN1
 70
     0
 62
     7
  6
CONTINUOUS
  0
LAYER
  5
503
100
AcDbSymbolTableRecord
100
AcDbLayerTableRecord
  2
MAIN2
 70
     0
 62
     7
  6
CONTINUOUS
  0
LAYER
  5
504
100
AcDbSymbolTableRecord
100
AcDbLayerTableRecord
  2
MAIN3
 70
     0
 62
     7
  6
CONTINUOUS
  0
LAYER
  5
505
100
AcDbSymbolTableRecord
100
AcDbLayerTableRecord
  2
MAIN4
 70
     0
 62
     7
  6
CONTINUOUS
  0
LAYER
  5
506
100
AcDbSymbolTableRecord
100
AcDbLayerTableRecord
  2
MAIN10
 70
     0
 62
     7
  6
CONTINUOUS
  0
LAYER
  5
507
100
AcDbSymbolTableRecord
100
AcDbLayerTableRecord
  2
MAIN1023
 70
     0
 62
    16
  6
CONTINUOUS
  0
LAYER
  5
508
100
AcDbSymbolTableRecord
100
AcDbLayerTableRecord
  2
S0
 70
     0
 62
     7
  6
CONTINUOUS
  0
LAYER
  5
509
100
AcDbSymbolTableRecord
100
AcDbLayerTableRecord
  2
S1023
 70
     0
 62
    16
  6
CONTINUOUS
  0
LAYER
  5
50A
100
AcDbSymbolTableRecord
100
AcDbLayerTableRecord
  2
WAKU0
 70
     0
 62
     7
  6
CONTINUOUS
  0
LAYER
  5
50B
100
AcDbSymbolTableRecord
100
AcDbLayerTableRecord
  2
WAKU1023
 70
     0
 62
    16
  6
CONTINUOUS
  0
LAYER
  5
50C
100
AcDbSymbolTableRecord
100
AcDbLayerTableRecord
  2
MDF0
 70
     0
 62
     7
  6
CONTINUOUS
  0
LAYER
  5
50D
100
AcDbSymbolTableRecord
100
AcDbLayerTableRecord
  2
MDF1023
 70
     0
 62
    16
  6
CONTINUOUS
  0
ENDTAB
  0
TABLE
  2
STYLE
  5
50E
100
AcDbSymbolTable
 70
     4
  0
STYLE
  5
50F
100
AcDbSymbolTableRecord
100
AcDbTextStyleTableRecord
  2
STANDARD
 70
    64
 40
0.0
 41
1.0
 50
0.0
 71
     0
 42
3.140094041824341
  3
TXT
  4

  0
STYLE
  5
510
100
AcDbSymbolTableRecord
100
AcDbTextStyleTableRecord
  2
ANKTATE
 70
    68
 40
0.0
 41
1.0
 50
0.0
 71
     0
 42
3.140094041824341
  3
TXT
  4

  0
STYLE
  5
5F
100
AcDbSymbolTableRecord
100
AcDbTextStyleTableRecord
  2
KNJYOKO
 70
    64
 40
0.0
 41
1.0
 50
0.0
 71
     0
 42
3.140094041824341
  3
TXT
  4
BIGFONT
  0
STYLE
  5
511
100
AcDbSymbolTableRecord
100
AcDbTextStyleTableRecord
  2
KNJTATE
 70
    68
 40
0.0
 41
1.0
 50
0.0
 71
     0
 42
3.140094041824341
  3
TXT
  4
BIGFONT
  0
ENDTAB
  0
TABLE
  2
VIEW
  5
512
100
AcDbSymbolTable
 70
     0
  0
ENDTAB
  0
TABLE
  2
UCS
  5
513
100
AcDbSymbolTable
 70
     0
  0
ENDTAB
  0
TABLE
  2
APPID
  5
514
100
AcDbSymbolTable
 70
     1
  0
APPID
  5
515
100
AcDbSymbolTableRecord
100
AcDbRegAppTableRecord
  2
ACAD
 70
     0
  0
ENDTAB
  0
TABLE
  2
DIMSTYLE
  5
516
100
AcDbSymbolTable
 70
     1
  0
DIMSTYLE
105
517
100
AcDbSymbolTableRecord
100
AcDbDimStyleTableRecord
  2
STANDARD
 70
     0
 41
2.000000
 44
2.000000
 42
0.800000
145
0.661290
140
3.100000
144
1.000000
146
0.903226
340
50F
  0
DIMSTYLE
105
518
100
AcDbSymbolTableRecord
100
AcDbDimStyleTableRecord
  2
MAIN001
 70
     0
 41
2.000000
 44
2.000000
 42
0.800000
145
0.661290
140
3.100000
144
1.000000
146
0.903226
 77
     1
 73
     0
 74
     0
271
     3
275
     1
 78
     8
172
     1
340
50F
  0
DIMSTYLE
105
519
100
AcDbSymbolTableRecord
100
AcDbDimStyleTableRecord
  2
S002
 70
     0
 41
4.000000
 44
4.000000
 42
1.600000
145
0.580645
140
6.200000
144
1.000000
146
0.903226
 77
     1
 73
     0
 74
     0
271
     3
275
     1
 78
     8
172
     1
340
50F
  0
DIMSTYLE
105
51A
100
AcDbSymbolTableRecord
100
AcDbDimStyleTableRecord
  2
WAKU003
 70
     0
 41
2.000000
 44
2.000000
 42
0.800000
145
0.661290
140
3.100000
144
1.000000
146
0.903226
 77
     1
 73
     0
 74
     0
271
     3
275
     1
 78
     8
172
     1
340
50F
  0
DIMSTYLE
105
51B
100
AcDbSymbolTableRecord
100
AcDbDimStyleTableRecord
  2
MDF004
 70
     0
 41
2.000000
 44
2.000000
 42
0.800000
145
0.661290
140
3.100000
144
1.000000
146
0.903226
 77
     1
 73
     0
 74
     0
271
     3
275
     1
 78
     8
172
     1
340
50F
  0
ENDTAB
  0
TABLE
  2
BLOCK_RECORD
  5
51C
100
AcDbSymbolTable
 70
    60
  0
BLOCK_RECORD
  5
51D
100
AcDbSymbolTableRecord
100
AcDbBlockTableRecord
  2
*MODEL_SPACE
  0
BLOCK_RECORD
  5
51E
100
AcDbSymbolTableRecord
100
AcDbBlockTableRecord
  2
*PAPER_SPACE
  0
BLOCK_RECORD
  5
1
100
AcDbSymbolTableRecord
100
AcDbBlockTableRecord
  2
_NONE
  0
BLOCK_RECORD
  5
4
100
AcDbSymbolTableRecord
100
AcDbBlockTableRecord
  2
_CLOSED
  0
BLOCK_RECORD
  5
B
100
AcDbSymbolTableRecord
100
AcDbBlockTableRecord
  2
_DOT
  0
BLOCK_RECORD
  5
13
100
AcDbSymbolTableRecord
100
AcDbBlockTableRecord
  2
_OPEN
  0
BLOCK_RECORD
  5
19
100
AcDbSymbolTableRecord
100
AcDbBlockTableRecord
  2
_ORIGIN
  0
BLOCK_RECORD
  5
1E
100
AcDbSymbolTableRecord
100
AcDbBlockTableRecord
  2
_OPEN30
  0
BLOCK_RECORD
  5
24
100
AcDbSymbolTableRecord
100
AcDbBlockTableRecord
  2
_BOXFILLED
  0
BLOCK_RECORD
  5
29
100
AcDbSymbolTableRecord
100
AcDbBlockTableRecord
  2
_BOXBLANK
  0
BLOCK_RECORD
  5
31
100
AcDbSymbolTableRecord
100
AcDbBlockTableRecord
  2
_OBLIQUE
  0
BLOCK_RECORD
  5
35
100
AcDbSymbolTableRecord
100
AcDbBlockTableRecord
  2
_OPEN90
  0
BLOCK_RECORD
  5
3B
100
AcDbSymbolTableRecord
100
AcDbBlockTableRecord
  2
_CLOSEDBLANK
  0
BLOCK_RECORD
  5
41
100
AcDbSymbolTableRecord
100
AcDbBlockTableRecord
  2
_DOTBLANK
  0
BLOCK_RECORD
  5
51F
100
AcDbSymbolTableRecord
100
AcDbBlockTableRecord
  2
*D0
  0
BLOCK_RECORD
  5
520
100
AcDbSymbolTableRecord
100
AcDbBlockTableRecord
  2
*D1
  0
BLOCK_RECORD
  5
521
100
AcDbSymbolTableRecord
100
AcDbBlockTableRecord
  2
*D2
  0
BLOCK_RECORD
  5
522
100
AcDbSymbolTableRecord
100
AcDbBlockTableRecord
  2
*D3
  0
BLOCK_RECORD
  5
523
100
AcDbSymbolTableRecord
100
AcDbBlockTableRecord
  2
*D4
  0
BLOCK_RECORD
  5
524
100
AcDbSymbolTableRecord
100
AcDbBlockTableRecord
  2
*D5
  0
BLOCK_RECORD
  5
525
100
AcDbSymbolTableRecord
100
AcDbBlockTableRecord
  2
*D6
  0
BLOCK_RECORD
  5
526
100
AcDbSymbolTableRecord
100
AcDbBlockTableRecord
  2
*D7
  0
BLOCK_RECORD
  5
527
100
AcDbSymbolTableRecord
100
AcDbBlockTableRecord
  2
*D8
  0
BLOCK_RECORD
  5
528
100
AcDbSymbolTableRecord
100
AcDbBlockTableRecord
  2
*D9
  0
BLOCK_RECORD
  5
529
100
AcDbSymbolTableRecord
100
AcDbBlockTableRecord
  2
*D10
  0
BLOCK_RECORD
  5
52A
100
AcDbSymbolTableRecord
100
AcDbBlockTableRecord
  2
*D11
  0
BLOCK_RECORD
  5
52B
100
AcDbSymbolTableRecord
100
AcDbBlockTableRecord
  2
*D12
  0
BLOCK_RECORD
  5
52C
100
AcDbSymbolTableRecord
100
AcDbBlockTableRecord
  2
*D13
  0
BLOCK_RECORD
  5
52D
100
AcDbSymbolTableRecord
100
AcDbBlockTableRecord
  2
*D14
  0
BLOCK_RECORD
  5
52E
100
AcDbSymbolTableRecord
100
AcDbBlockTableRecord
  2
*D15
  0
BLOCK_RECORD
  5
52F
100
AcDbSymbolTableRecord
100
AcDbBlockTableRecord
  2
*D16
  0
BLOCK_RECORD
  5
530
100
AcDbSymbolTableRecord
100
AcDbBlockTableRecord
  2
*D17
  0
BLOCK_RECORD
  5
531
100
AcDbSymbolTableRecord
100
AcDbBlockTableRecord
  2
*D18
  0
BLOCK_RECORD
  5
532
100
AcDbSymbolTableRecord
100
AcDbBlockTableRecord
  2
*D19
  0
BLOCK_RECORD
  5
533
100
AcDbSymbolTableRecord
100
AcDbBlockTableRecord
  2
*D20
  0
BLOCK_RECORD
  5
534
100
AcDbSymbolTableRecord
100
AcDbBlockTableRecord
  2
*D21
  0
BLOCK_RECORD
  5
535
100
AcDbSymbolTableRecord
100
AcDbBlockTableRecord
  2
*D22
  0
BLOCK_RECORD
  5
536
100
AcDbSymbolTableRecord
100
AcDbBlockTableRecord
  2
*D23
  0
BLOCK_RECORD
  5
537
100
AcDbSymbolTableRecord
100
AcDbBlockTableRecord
  2
*D24
  0
BLOCK_RECORD
  5
538
100
AcDbSymbolTableRecord
100
AcDbBlockTableRecord
  2
*D25
  0
BLOCK_RECORD
  5
539
100
AcDbSymbolTableRecord
100
AcDbBlockTableRecord
  2
*D26
  0
BLOCK_RECORD
  5
53A
100
AcDbSymbolTableRecord
100
AcDbBlockTableRecord
  2
*D27
  0
BLOCK_RECORD
  5
53B
100
AcDbSymbolTableRecord
100
AcDbBlockTableRecord
  2
*D28
  0
BLOCK_RECORD
  5
53C
100
AcDbSymbolTableRecord
100
AcDbBlockTableRecord
  2
*D29
  0
BLOCK_RECORD
  5
53D
100
AcDbSymbolTableRecord
100
AcDbBlockTableRecord
  2
*D30
  0
BLOCK_RECORD
  5
53E
100
AcDbSymbolTableRecord
100
AcDbBlockTableRecord
  2
*D31
  0
BLOCK_RECORD
  5
53F
100
AcDbSymbolTableRecord
100
AcDbBlockTableRecord
  2
*D32
  0
BLOCK_RECORD
  5
540
100
AcDbSymbolTableRecord
100
AcDbBlockTableRecord
  2
*D33
  0
BLOCK_RECORD
  5
541
100
AcDbSymbolTableRecord
100
AcDbBlockTableRecord
  2
*D34
  0
BLOCK_RECORD
  5
542
100
AcDbSymbolTableRecord
100
AcDbBlockTableRecord
  2
*D35
  0
BLOCK_RECORD
  5
543
100
AcDbSymbolTableRecord
100
AcDbBlockTableRecord
  2
*D36
  0
BLOCK_RECORD
  5
544
100
AcDbSymbolTableRecord
100
AcDbBlockTableRecord
  2
*D37
  0
BLOCK_RECORD
  5
545
100
AcDbSymbolTableRecord
100
AcDbBlockTableRecord
  2
*D38
  0
BLOCK_RECORD
  5
546
100
AcDbSymbolTableRecord
100
AcDbBlockTableRecord
  2
*D39
  0
BLOCK_RECORD
  5
547
100
AcDbSymbolTableRecord
100
AcDbBlockTableRecord
  2
*D40
  0
BLOCK_RECORD
  5
548
100
AcDbSymbolTableRecord
100
AcDbBlockTableRecord
  2
*D41
  0
BLOCK_RECORD
  5
549
100
AcDbSymbolTableRecord
100
AcDbBlockTableRecord
  2
*D42
  0
BLOCK_RECORD
  5
54A
100
AcDbSymbolTableRecord
100
AcDbBlockTableRecord
  2
*D43
  0
BLOCK_RECORD
  5
54B
100
AcDbSymbolTableRecord
100
AcDbBlockTableRecord
  2
*X0
  0
BLOCK_RECORD
  5
54C
100
AcDbSymbolTableRecord
100
AcDbBlockTableRecord
  2
*X1
  0
BLOCK_RECORD
  5
54D
100
AcDbSymbolTableRecord
100
AcDbBlockTableRecord
  2
*X2
  0
BLOCK_RECORD
  5
54E
100
AcDbSymbolTableRecord
100
AcDbBlockTableRecord
  2
*X3
  0
ENDTAB
  0
ENDSEC
  0
SECTION
  2
BLOCKS
  0
BLOCK
  5
54F
100
AcDbEntity
  8
0
100
AcDbBlockBegin
  2
*MODEL_SPACE
 70
     0
 10
0.0
 20
0.0
 30
0.0
  3
*MODEL_SPACE
  1

  0
ENDBLK
  5
550
100
AcDbEntity
  8
0
100
AcDbBlockEnd
  0
BLOCK
  5
551
100
AcDbEntity
  8
0
100
AcDbBlockBegin
  2
*PAPER_SPACE
 70
     0
 10
0.0
 20
0.0
 30
0.0
  3
*PAPER_SPACE
  1

  0
ENDBLK
  5
552
100
AcDbEntity
  8
0
100
AcDbBlockEnd
  0
BLOCK
  5
2
100
AcDbEntity
  8
0
100
AcDbBlockBegin
  2
_NONE
 70
     0
 10
0.0
 20
0.0
 30
0.0
  3
_NONE
  1

  0
ENDBLK
  5
3
100
AcDbEntity
  8
0
100
AcDbBlockEnd
  0
BLOCK
  5
5
100
AcDbEntity
  8
0
100
AcDbBlockBegin
  2
_CLOSED
 70
     0
 10
0.0
 20
0.0
 30
0.0
  3
_CLOSED
  1

  0
LINE
  5
6
100
AcDbEntity
  8
0
  6
BYBLOCK
 62
     0
100
AcDbLine
 10
-1.0
 20
0.166667
 30
0.0
 11
0.0
 21
0.0
 31
0.0
  0
LINE
  5
7
100
AcDbEntity
  8
0
  6
BYBLOCK
 62
     0
100
AcDbLine
 10
0.0
 20
0.0
 30
0.0
 11
-1.0
 21
-0.166667
 31
0.0
  0
LINE
  5
8
100
AcDbEntity
  8
0
  6
BYBLOCK
 62
     0
100
AcDbLine
 10
-1.0
 20
0.166667
 30
0.0
 11
-1.0
 21
-0.166667
 31
0.0
  0
LINE
  5
9
100
AcDbEntity
  8
0
  6
BYBLOCK
 62
     0
100
AcDbLine
 10
0.0
 20
0.0
 30
0.0
 11
-1.0
 21
0.0
 31
0.0
  0
ENDBLK
  5
A
100
AcDbEntity
  8
0
100
AcDbBlockEnd
  0
BLOCK
  5
C
100
AcDbEntity
  8
0
100
AcDbBlockBegin
  2
_DOT
 70
     0
 10
0.0
 20
0.0
 30
0.0
  3
_DOT
  1

  0
POLYLINE
  5
D
100
AcDbEntity
  8
0
  6
BYBLOCK
 62
     0
100
AcDb2dPolyline
 66
     1
 10
0.0
 20
0.0
 30
0.0
 70
     1
 40
0.5
 41
0.5
  0
VERTEX
  5
E
100
AcDbEntity
  8
0
  6
BYBLOCK
 62
     0
100
AcDbVertex
100
AcDb2dVertex
 10
-0.25
 20
0.0
 30
0.0
 42
1.0
  0
VERTEX
  5
F
100
AcDbEntity
  8
0
  6
BYBLOCK
 62
     0
100
AcDbVertex
100
AcDb2dVertex
 10
0.25
 20
0.0
 30
0.0
 42
1.0
  0
SEQEND
  5
10
100
AcDbEntity
  8
0
  6
BYBLOCK
 62
     0
  0
LINE
  5
11
100
AcDbEntity
  8
0
  6
BYBLOCK
 62
     0
100
AcDbLine
 10
-0.5
 20
0.0
 30
0.0
 11
-1.0
 21
0.0
 31
0.0
  0
ENDBLK
  5
12
100
AcDbEntity
  8
0
100
AcDbBlockEnd
  0
BLOCK
  5
14
100
AcDbEntity
  8
0
100
AcDbBlockBegin
  2
_OPEN
 70
     0
 10
0.0
 20
0.0
 30
0.0
  3
_OPEN
  1

  0
LINE
  5
15
100
AcDbEntity
  8
0
  6
BYBLOCK
 62
     0
100
AcDbLine
 10
-1.0
 20
0.166667
 30
0.0
 11
0.0
 21
0.0
 31
0.0
  0
LINE
  5
16
100
AcDbEntity
  8
0
  6
BYBLOCK
 62
     0
100
AcDbLine
 10
0.0
 20
0.0
 30
0.0
 11
-1.0
 21
-0.166667
 31
0.0
  0
LINE
  5
17
100
AcDbEntity
  8
0
  6
BYBLOCK
 62
     0
100
AcDbLine
 10
0.0
 20
0.0
 30
0.0
 11
-1.0
 21
0.0
 31
0.0
  0
ENDBLK
  5
18
100
AcDbEntity
  8
0
100
AcDbBlockEnd
  0
BLOCK
  5
1A
100
AcDbEntity
  8
0
100
AcDbBlockBegin
  2
_ORIGIN
 70
     0
 10
0.0
 20
0.0
 30
0.0
  3
_ORIGIN
  1

  0
CIRCLE
  5
1B
100
AcDbEntity
  8
0
  6
BYBLOCK
 62
     0
100
AcDbCircle
 10
0.0
 20
0.0
 30
0.0
 40
0.5
  0
LINE
  5
1C
100
AcDbEntity
  8
0
  6
BYBLOCK
 62
     0
100
AcDbLine
 10
0.0
 20
0.0
 30
0.0
 11
-1.0
 21
0.0
 31
0.0
  0
ENDBLK
  5
1D
100
AcDbEntity
  8
0
100
AcDbBlockEnd
  0
BLOCK
  5
1F
100
AcDbEntity
  8
0
100
AcDbBlockBegin
  2
_OPEN30
 70
     0
 10
0.0
 20
0.0
 30
0.0
  3
_OPEN30
  1

  0
LINE
  5
20
100
AcDbEntity
  8
0
  6
BYBLOCK
 62
     0
100
AcDbLine
 10
-1.0
 20
0.267949
 30
0.0
 11
0.0
 21
0.0
 31
0.0
  0
LINE
  5
21
100
AcDbEntity
  8
0
  6
BYBLOCK
 62
     0
100
AcDbLine
 10
0.0
 20
0.0
 30
0.0
 11
-1.0
 21
-0.267949
 31
0.0
  0
LINE
  5
22
100
AcDbEntity
  8
0
  6
BYBLOCK
 62
     0
100
AcDbLine
 10
0.0
 20
0.0
 30
0.0
 11
-1.0
 21
0.0
 31
0.0
  0
ENDBLK
  5
23
100
AcDbEntity
  8
0
100
AcDbBlockEnd
  0
BLOCK
  5
25
100
AcDbEntity
  8
0
100
AcDbBlockBegin
  2
_BOXFILLED
 70
     0
 10
0.0
 20
0.0
 30
0.0
  3
_BOXFILLED
  1

  0
SOLID
  5
26
100
AcDbEntity
  8
0
  6
BYBLOCK
 62
     0
100
AcDbTrace
 10
-0.5
 20
0.5
 30
0.0
 11
0.5
 21
0.5
 31
0.0
 12
-0.5
 22
-0.5
 32
0.0
 13
0.5
 23
-0.5
 33
0.0
  0
LINE
  5
27
100
AcDbEntity
  8
0
  6
BYBLOCK
 62
     0
100
AcDbLine
 10
-0.5
 20
0.0
 30
0.0
 11
-1.0
 21
0.0
 31
0.0
  0
ENDBLK
  5
28
100
AcDbEntity
  8
0
100
AcDbBlockEnd
  0
BLOCK
  5
2A
100
AcDbEntity
  8
0
100
AcDbBlockBegin
  2
_BOXBLANK
 70
     0
 10
0.0
 20
0.0
 30
0.0
  3
_BOXBLANK
  1

  0
LINE
  5
2B
100
AcDbEntity
  8
0
  6
BYBLOCK
 62
     0
100
AcDbLine
 10
-0.5
 20
-0.5
 30
0.0
 11
0.5
 21
-0.5
 31
0.0
  0
LINE
  5
2C
100
AcDbEntity
  8
0
  6
BYBLOCK
 62
     0
100
AcDbLine
 10
0.5
 20
-0.5
 30
0.0
 11
0.5
 21
0.5
 31
0.0
  0
LINE
  5
2D
100
AcDbEntity
  8
0
  6
BYBLOCK
 62
     0
100
AcDbLine
 10
0.5
 20
0.5
 30
0.0
 11
-0.5
 21
0.5
 31
0.0
  0
LINE
  5
2E
100
AcDbEntity
  8
0
  6
BYBLOCK
 62
     0
100
AcDbLine
 10
-0.5
 20
0.5
 30
0.0
 11
-0.5
 21
-0.5
 31
0.0
  0
LINE
  5
2F
100
AcDbEntity
  8
0
  6
BYBLOCK
 62
     0
100
AcDbLine
 10
-0.5
 20
0.0
 30
0.0
 11
-1.0
 21
0.0
 31
0.0
  0
ENDBLK
  5
30
100
AcDbEntity
  8
0
100
AcDbBlockEnd
  0
BLOCK
  5
32
100
AcDbEntity
  8
0
100
AcDbBlockBegin
  2
_OBLIQUE
 70
     0
 10
0.0
 20
0.0
 30
0.0
  3
_OBLIQUE
  1

  0
LINE
  5
33
100
AcDbEntity
  8
0
  6
BYBLOCK
 62
     0
100
AcDbLine
 10
-0.5
 20
-0.5
 30
0.0
 11
0.5
 21
0.5
 31
0.0
  0
ENDBLK
  5
34
100
AcDbEntity
  8
0
100
AcDbBlockEnd
  0
BLOCK
  5
36
100
AcDbEntity
  8
0
100
AcDbBlockBegin
  2
_OPEN90
 70
     0
 10
0.0
 20
0.0
 30
0.0
  3
_OPEN90
  1

  0
LINE
  5
37
100
AcDbEntity
  8
0
  6
BYBLOCK
 62
     0
100
AcDbLine
 10
-0.5
 20
0.5
 30
0.0
 11
0.0
 21
0.0
 31
0.0
  0
LINE
  5
38
100
AcDbEntity
  8
0
  6
BYBLOCK
 62
     0
100
AcDbLine
 10
0.0
 20
0.0
 30
0.0
 11
-0.5
 21
-0.5
 31
0.0
  0
LINE
  5
39
100
AcDbEntity
  8
0
  6
BYBLOCK
 62
     0
100
AcDbLine
 10
0.0
 20
0.0
 30
0.0
 11
-1.0
 21
0.0
 31
0.0
  0
ENDBLK
  5
3A
100
AcDbEntity
  8
0
100
AcDbBlockEnd
  0
BLOCK
  5
3C
100
AcDbEntity
  8
0
100
AcDbBlockBegin
  2
_CLOSEDBLANK
 70
     0
 10
0.0
 20
0.0
 30
0.0
  3
_CLOSEDBLANK
  1

  0
LINE
  5
3D
100
AcDbEntity
  8
0
  6
BYBLOCK
 62
     0
100
AcDbLine
 10
-1.0
 20
0.1666666666666666
 30
0.0
 11
0.0
 21
0.0
 31
0.0
  0
LINE
  5
3E
100
AcDbEntity
  8
0
  6
BYBLOCK
 62
     0
100
AcDbLine
 10
0.0
 20
0.0
 30
0.0
 11
-1.0
 21
-0.1666666666666666
 31
0.0
  0
LINE
  5
3F
100
AcDbEntity
  8
0
  6
BYBLOCK
 62
     0
100
AcDbLine
 10
-1.0
 20
0.1666666666666666
 30
0.0
 11
-1.0
 21
-0.1666666666666666
 31
0.0
  0
ENDBLK
  5
40
100
AcDbEntity
  8
0
100
AcDbBlockEnd
  0
BLOCK
  5
42
100
AcDbEntity
  8
0
100
AcDbBlockBegin
  2
_DOTBLANK
 70
     0
 10
0.0
 20
0.0
 30
0.0
  3
_DOTBLANK
  1

  0
CIRCLE
  5
43
100
AcDbEntity
  8
0
  6
BYBLOCK
 62
     0
100
AcDbCircle
 10
0.0
 20
0.0
 30
0.0
 40
0.5
  0
LINE
  5
44
100
AcDbEntity
  8
0
  6
BYBLOCK
 62
     0
100
AcDbLine
 10
-0.5
 20
0.0
 30
0.0
 11
-1.0
 21
0.0
 31
0.0
  0
ENDBLK
  5
45
100
AcDbEntity
  8
0
100
AcDbBlockEnd
  0
BLOCK
  5
4C
100
AcDbEntity
  8
MAIN0
  6
CONTINUOUS
 62
3
100
AcDbBlockBegin
  2
*D0
 70
    65
 10
0.0
 20
0.0
 30
0.0
  0
LINE
  5
4D
100
AcDbEntity
  8
MAIN0
  6
BYBLOCK
 62
0
100
AcDbLine
 10
231.8705791363915
 20
224.4729334102219
 30
0.0000000000000000
 11
182.6208312730633
 21
224.4729334102219
 31
0.0000000000000000
  0
LINE
  5
4E
100
AcDbEntity
  8
MAIN0
  6
BYBLOCK
 62
0
100
AcDbLine
 10
184.6208312730633
 20
222.4729334102219
 30
0.0000000000000000
 11
184.6208312730633
 21
211.2729334102684
 31
0.0000000000000000
  0
INSERT
  5
4F
100
AcDbEntity
  8
MAIN0
  6
BYBLOCK
 62
0
100
AcDbBlockReference
  2
_OPEN
 10
184.6208312730633
 20
224.4729334102219
 30
0.0000000000000000
 41
2.000000000000000
 42
2.000000000000000
 43
2.000000000000000
 50
90.00000000000000
  0
INSERT
  5
50
100
AcDbEntity
  8
MAIN0
  6
BYBLOCK
 62
0
100
AcDbBlockReference
  2
_OPEN
 10
184.6208312730633
 20
209.2729334102684
 30
0.0000000000000000
 41
2.000000000000000
 42
2.000000000000000
 43
2.000000000000000
 50
270.0000000000000
  0
LINE
  5
51
100
AcDbEntity
  8
MAIN0
  6
BYBLOCK
 62
0
100
AcDbLine
 10
231.8880074991581
 20
209.2729334102684
 30
0.0000000000000000
 11
182.6208312730633
 21
209.2729334102684
 31
0.0000000000000000
  0
MTEXT
  5
52
100
AcDbEntity
  8
MAIN0
  6
BYBLOCK
 62
0
100
AcDbMText
 10
182.5708313207470
 20
216.8729334102451
 30
0.0000000000000000
 40
3.099999904632568
 41
0.0000000000000000
 71
     5
 72
     1
  1
\A1;\U+220515.2
 11
6.123233995736766e-017
 21
1.000000000000000
 31
0.0000000000000000
  7
STANDARD
  0
ENDBLK
  5
53
100
AcDbEntity
  8
MAIN0
  6
CONTINUOUS
 62
3
100
AcDbBlockEnd
  0
BLOCK
  5
55
100
AcDbEntity
  8
MAIN0
  6
CONTINUOUS
 62
3
100
AcDbBlockBegin
  2
*D1
 70
    65
 10
0.0
 20
0.0
 30
0.0
  0
LINE
  5
56
100
AcDbEntity
  8
MAIN0
  6
BYBLOCK
 62
0
100
AcDbLine
 10
191.7208312611425
 20
226.8729334100220
 30
0.0000000000000000
 11
175.1208312730633
 21
226.8729334100220
 31
0.0000000000000000
  0
LINE
  5
57
100
AcDbEntity
  8
MAIN0
  6
BYBLOCK
 62
0
100
AcDbLine
 10
177.1208312730633
 20
224.8729334100220
 30
0.0000000000000000
 11
177.1208312730633
 21
208.8729334100220
 31
0.0000000000000000
  0
INSERT
  5
58
100
AcDbEntity
  8
MAIN0
  6
BYBLOCK
 62
0
100
AcDbBlockReference
  2
_OPEN
 10
177.1208312730633
 20
226.8729334100220
 30
0.0000000000000000
 41
2.000000000000000
 42
2.000000000000000
 43
2.000000000000000
 50
90.00000000000000
  0
INSERT
  5
59
100
AcDbEntity
  8
MAIN0
  6
BYBLOCK
 62
0
100
AcDbBlockReference
  2
_OPEN
 10
177.1208312730633
 20
206.8729334100220
 30
0.0000000000000000
 41
2.000000000000000
 42
2.000000000000000
 43
2.000000000000000
 50
270.0000000000000
  0
LINE
  5
5A
100
AcDbEntity
  8
MAIN0
  6
BYBLOCK
 62
0
100
AcDbLine
 10
177.1208312730633
 20
226.8729334100220
 30
0.0000000000000000
 11
177.1208312730633
 21
228.8221451266739
 31
0.0000000000000000
  0
LINE
  5
5B
100
AcDbEntity
  8
MAIN0
  6
BYBLOCK
 62
0
100
AcDbLine
 10
191.7208312611425
 20
206.8729334100220
 30
0.0000000000000000
 11
175.1208312730633
 21
206.8729334100220
 31
0.0000000000000000
  0
MTEXT
  5
5C
100
AcDbEntity
  8
MAIN0
  6
BYBLOCK
 62
0
100
AcDbMText
 10
175.0708313207470
 20
218.3471450126686
 30
0.0000000000000000
 40
3.099999904632568
 41
0.0000000000000000
 71
     5
 72
     1
  1
\A1;\U+220520H8\H0.903226x;\S＋0.033^ 　0;
 11
6.123233995736766e-017
 21
1.000000000000000
 31
0.0000000000000000
  7
KNJYOKO
  0
ENDBLK
  5
5D
100
AcDbEntity
  8
MAIN0
  6
CONTINUOUS
 62
3
100
AcDbBlockEnd
  0
BLOCK
  5
60
100
AcDbEntity
  8
MAIN0
  6
CONTINUOUS
 62
3
100
AcDbBlockBegin
  2
*D2
 70
    65
 10
0.0
 20
0.0
 30
0.0
  0
LINE
  5
61
100
AcDbEntity
  8
MAIN0
  6
BYBLOCK
 62
0
100
AcDbLine
 10
191.5208312611423
 20
250.3729334101263
 30
0.0000000000000000
 11
167.6208312730633
 21
250.3729334101263
 31
0.0000000000000000
  0
LINE
  5
62
100
AcDbEntity
  8
MAIN0
  6
BYBLOCK
 62
0
100
AcDbLine
 10
169.6208312730633
 20
248.3729334101263
 30
0.0000000000000000
 11
169.6208312730633
 21
185.3729334101262
 31
0.0000000000000000
  0
INSERT
  5
63
100
AcDbEntity
  8
MAIN0
  6
BYBLOCK
 62
0
100
AcDbBlockReference
  2
_OPEN
 10
169.6208312730633
 20
250.3729334101263
 30
0.0000000000000000
 41
2.000000000000000
 42
2.000000000000000
 43
2.000000000000000
 50
90.00000000000000
  0
INSERT
  5
64
100
AcDbEntity
  8
MAIN0
  6
BYBLOCK
 62
0
100
AcDbBlockReference
  2
_OPEN
 10
169.6208312730633
 20
183.3729334101262
 30
0.0000000000000000
 41
2.000000000000000
 42
2.000000000000000
 43
2.000000000000000
 50
270.0000000000000
  0
LINE
  5
65
100
AcDbEntity
  8
MAIN0
  6
BYBLOCK
 62
0
100
AcDbLine
 10
191.7208312611423
 20
183.3729334101262
 30
0.0000000000000000
 11
167.6208312730633
 21
183.3729334101262
 31
0.0000000000000000
  0
MTEXT
  5
66
100
AcDbEntity
  8
MAIN0
  6
BYBLOCK
 62
0
100
AcDbMText
 10
167.5708313207470
 20
216.8729334101263
 30
0.0000000000000000
 40
3.099999904632568
 41
0.0000000000000000
 71
     5
 72
     1
  1
\A1;\U+220567
 11
6.123233995736766e-017
 21
1.000000000000000
 31
0.0000000000000000
  7
STANDARD
  0
ENDBLK
  5
67
100
AcDbEntity
  8
MAIN0
  6
CONTINUOUS
 62
3
100
AcDbBlockEnd
  0
BLOCK
  5
69
100
AcDbEntity
  8
MAIN0
  6
CONTINUOUS
 62
3
100
AcDbBlockBegin
  2
*D3
 70
    65
 10
0.0
 20
0.0
 30
0.0
  0
LINE
  5
6A
100
AcDbEntity
  8
MAIN0
  6
BYBLOCK
 62
0
100
AcDbLine
 10
229.1208312611610
 20
256.8729334100166
 30
0.0000000000000000
 11
160.1208312730633
 21
256.8729334100166
 31
0.0000000000000000
  0
LINE
  5
6B
100
AcDbEntity
  8
MAIN0
  6
BYBLOCK
 62
0
100
AcDbLine
 10
162.1208312730633
 20
254.8729334100166
 30
0.0000000000000000
 11
162.1208312730633
 21
178.8729334102339
 31
0.0000000000000000
  0
INSERT
  5
6C
100
AcDbEntity
  8
MAIN0
  6
BYBLOCK
 62
0
100
AcDbBlockReference
  2
_OPEN
 10
162.1208312730633
 20
256.8729334100166
 30
0.0000000000000000
 41
2.000000000000000
 42
2.000000000000000
 43
2.000000000000000
 50
90.00000000000000
  0
INSERT
  5
6D
100
AcDbEntity
  8
MAIN0
  6
BYBLOCK
 62
0
100
AcDbBlockReference
  2
_OPEN
 10
162.1208312730633
 20
176.8729334102339
 30
0.0000000000000000
 41
2.000000000000000
 42
2.000000000000000
 43
2.000000000000000
 50
270.0000000000000
  0
LINE
  5
6E
100
AcDbEntity
  8
MAIN0
  6
BYBLOCK
 62
0
100
AcDbLine
 10
229.1208312611610
 20
176.8729334102339
 30
0.0000000000000000
 11
160.1208312730633
 21
176.8729334102339
 31
0.0000000000000000
  0
MTEXT
  5
6F
100
AcDbEntity
  8
MAIN0
  6
BYBLOCK
 62
0
100
AcDbMText
 10
160.0708313207470
 20
216.8729334101253
 30
0.0000000000000000
 40
3.099999904632568
 41
0.0000000000000000
 71
     5
 72
     1
  1
\A1;\U+220580
 11
6.123233995736766e-017
 21
1.000000000000000
 31
0.0000000000000000
  7
STANDARD
  0
ENDBLK
  5
70
100
AcDbEntity
  8
MAIN0
  6
CONTINUOUS
 62
3
100
AcDbBlockEnd
  0
BLOCK
  5
72
100
AcDbEntity
  8
MAIN0
  6
CONTINUOUS
 62
3
100
AcDbBlockBegin
  2
*D4
 70
    65
 10
0.0
 20
0.0
 30
0.0
  0
LINE
  5
73
100
AcDbEntity
  8
MAIN0
  6
BYBLOCK
 62
0
100
AcDbLine
 10
192.1208312730633
 20
201.0538608454646
 30
0.0000000000000000
 11
195.6208312730633
 21
201.0538608454646
 31
0.0000000000000000
  0
INSERT
  5
74
100
AcDbEntity
  8
MAIN0
  6
BYBLOCK
 62
0
100
AcDbBlockReference
  2
_OPEN
 10
192.1208312730633
 20
201.0538608454646
 30
0.0000000000000000
 41
2.000000000000000
 42
2.000000000000000
 43
2.000000000000000
 50
0.0000000000000000
  0
INSERT
  5
75
100
AcDbEntity
  8
MAIN0
  6
BYBLOCK
 62
0
100
AcDbBlockReference
  2
_OPEN
 10
195.6208312730633
 20
201.0538608454646
 30
0.0000000000000000
 41
2.000000000000000
 42
2.000000000000000
 43
2.000000000000000
 50
180.0000000000000
  0
LINE
  5
76
100
AcDbEntity
  8
MAIN0
  6
BYBLOCK
 62
0
100
AcDbLine
 10
190.1208312730633
 20
201.0538608454646
 30
0.0000000000000000
 11
183.8555600862347
 21
201.0538608454646
 31
0.0000000000000000
  0
LINE
  5
77
100
AcDbEntity
  8
MAIN0
  6
BYBLOCK
 62
0
100
AcDbLine
 10
197.6208312730633
 20
201.0538608454646
 30
0.0000000000000000
 11
198.6208312730633
 21
201.0538608454646
 31
0.0000000000000000
  0
LINE
  5
78
100
AcDbEntity
  8
MAIN0
  6
BYBLOCK
 62
0
100
AcDbLine
 10
195.6208312730633
 20
206.0729333981010
 30
0.0000000000000000
 11
195.6208312730633
 21
199.0538608454646
 31
0.0000000000000000
  0
MTEXT
  5
79
100
AcDbEntity
  8
MAIN0
  6
BYBLOCK
 62
0
100
AcDbMText
 10
186.5055604983670
 20
203.1038607977809
 30
0.0000000000000000
 40
3.099999904632568
 41
0.0000000000000000
 71
     5
 72
     1
  1
\A1;3.5
 11
1.000000000000000
 21
0.0000000000000000
 31
0.0000000000000000
  7
STANDARD
  0
ENDBLK
  5
7A
100
AcDbEntity
  8
MAIN0
  6
CONTINUOUS
 62
3
100
AcDbBlockEnd
  0
BLOCK
  5
7C
100
AcDbEntity
  8
MAIN0
  6
CONTINUOUS
 62
3
100
AcDbBlockBegin
  2
*D5
 70
    65
 10
0.0
 20
0.0
 30
0.0
  0
LINE
  5
7D
100
AcDbEntity
  8
MAIN0
  6
BYBLOCK
 62
0
100
AcDbLine
 10
229.5208312730812
 20
257.2729334219368
 30
0.0000000000000000
 11
229.5208312730767
 21
266.0146765633957
 31
0.0000000000000000
  0
LINE
  5
7E
100
AcDbEntity
  8
MAIN0
  6
BYBLOCK
 62
0
100
AcDbLine
 10
231.5208312730777
 20
264.0146765633957
 30
0.0000000000000000
 11
237.5208312730825
 21
264.0146765633957
 31
0.0000000000000000
  0
INSERT
  5
7F
100
AcDbEntity
  8
MAIN0
  6
BYBLOCK
 62
0
100
AcDbBlockReference
  2
_OPEN
 10
229.5208312730777
 20
264.0146765633957
 30
0.0000000000000000
 41
2.000000000000000
 42
2.000000000000000
 43
2.000000000000000
 50
180.0000000000000
  0
INSERT
  5
80
100
AcDbEntity
  8
MAIN0
  6
BYBLOCK
 62
0
100
AcDbBlockReference
  2
_OPEN
 10
239.5208312730825
 20
264.0146765633957
 30
0.0000000000000000
 41
2.000000000000000
 42
2.000000000000000
 43
2.000000000000000
 50
0.0000000000000000
  0
LINE
  5
81
100
AcDbEntity
  8
MAIN0
  6
BYBLOCK
 62
0
100
AcDbLine
 10
239.5208312730825
 20
257.6729334219547
 30
0.0000000000000000
 11
239.5208312730825
 21
266.0146765633957
 31
0.0000000000000000
  0
MTEXT
  5
82
100
AcDbEntity
  8
MAIN0
  6
BYBLOCK
 62
0
100
AcDbMText
 10
234.5208312730801
 20
266.0646765157120
 30
0.0000000000000000
 40
3.099999904632568
 41
0.0000000000000000
 71
     5
 72
     1
  1
\A1;10
 11
1.000000000000000
 21
0.0000000000000000
 31
0.0000000000000000
  7
STANDARD
  0
ENDBLK
  5
83
100
AcDbEntity
  8
MAIN0
  6
CONTINUOUS
 62
3
100
AcDbBlockEnd
  0
BLOCK
  5
85
100
AcDbEntity
  8
MAIN0
  6
CONTINUOUS
 62
3
100
AcDbBlockBegin
  2
*D6
 70
    65
 10
0.0
 20
0.0
 30
0.0
  0
LINE
  5
86
100
AcDbEntity
  8
MAIN0
  6
BYBLOCK
 62
0
100
AcDbLine
 10
238.5887804774259
 20
230.3729334103029
 30
0.0000000000000000
 11
284.1208312730633
 21
230.3729334103029
 31
0.0000000000000000
  0
LINE
  5
87
100
AcDbEntity
  8
MAIN0
  6
BYBLOCK
 62
0
100
AcDbLine
 10
282.1208312730633
 20
228.3729334103029
 30
0.0000000000000000
 11
282.1208312730633
 21
205.3729334103029
 31
0.0000000000000000
  0
INSERT
  5
88
100
AcDbEntity
  8
MAIN0
  6
BYBLOCK
 62
0
100
AcDbBlockReference
  2
_OPEN
 10
282.1208312730633
 20
230.3729334103029
 30
0.0000000000000000
 41
2.000000000000000
 42
2.000000000000000
 43
2.000000000000000
 50
90.00000000000000
  0
INSERT
  5
89
100
AcDbEntity
  8
MAIN0
  6
BYBLOCK
 62
0
100
AcDbBlockReference
  2
_OPEN
 10
282.1208312730633
 20
203.3729334103029
 30
0.0000000000000000
 41
2.000000000000000
 42
2.000000000000000
 43
2.000000000000000
 50
270.0000000000000
  0
LINE
  5
8A
100
AcDbEntity
  8
MAIN0
  6
BYBLOCK
 62
0
100
AcDbLine
 10
238.5887804774259
 20
203.3729334103029
 30
0.0000000000000000
 11
284.1208312730633
 21
203.3729334103029
 31
0.0000000000000000
  0
MTEXT
  5
8B
100
AcDbEntity
  8
MAIN0
  6
BYBLOCK
 62
0
100
AcDbMText
 10
280.0708313207470
 20
219.6353053326201
 30
0.0000000000000000
 40
3.099999904632568
 41
0.0000000000000000
 71
     5
 72
     1
  1
\A1;\U+220527H7\H0.903226x;\S＋0.021^ 　0;
 11
6.123233995736766e-017
 21
1.000000000000000
 31
0.0000000000000000
  7
KNJYOKO
  0
ENDBLK
  5
8C
100
AcDbEntity
  8
MAIN0
  6
CONTINUOUS
 62
3
100
AcDbBlockEnd
  0
BLOCK
  5
8E
100
AcDbEntity
  8
MAIN0
  6
CONTINUOUS
 62
3
100
AcDbBlockBegin
  2
*D7
 70
    65
 10
0.0
 20
0.0
 30
0.0
  0
LINE
  5
8F
100
AcDbEntity
  8
MAIN0
  6
BYBLOCK
 62
0
100
AcDbLine
 10
250.1208312850020
 20
257.8729334100491
 30
0.0000000000000000
 11
291.6208312730633
 21
257.8729334100404
 31
0.0000000000000000
  0
LINE
  5
90
100
AcDbEntity
  8
MAIN0
  6
BYBLOCK
 62
0
100
AcDbLine
 10
289.6208312730633
 20
255.8729334100408
 30
0.0000000000000000
 11
289.6208312730633
 21
177.8729334100177
 31
0.0000000000000000
  0
INSERT
  5
91
100
AcDbEntity
  8
MAIN0
  6
BYBLOCK
 62
0
100
AcDbBlockReference
  2
_OPEN
 10
289.6208312730633
 20
257.8729334100408
 30
0.0000000000000000
 41
2.000000000000000
 42
2.000000000000000
 43
2.000000000000000
 50
90.00000000000000
  0
INSERT
  5
92
100
AcDbEntity
  8
MAIN0
  6
BYBLOCK
 62
0
100
AcDbBlockReference
  2
_OPEN
 10
289.6208312730633
 20
175.8729334100177
 30
0.0000000000000000
 41
2.000000000000000
 42
2.000000000000000
 43
2.000000000000000
 50
270.0000000000000
  0
LINE
  5
93
100
AcDbEntity
  8
MAIN0
  6
BYBLOCK
 62
0
100
AcDbLine
 10
250.1208312850020
 20
175.8729334100177
 30
0.0000000000000000
 11
291.6208312730633
 21
175.8729334100177
 31
0.0000000000000000
  0
MTEXT
  5
94
100
AcDbEntity
  8
MAIN0
  6
BYBLOCK
 62
0
100
AcDbMText
 10
287.5708313207470
 20
216.8729334100293
 30
0.0000000000000000
 40
3.099999904632568
 41
0.0000000000000000
 71
     5
 72
     1
  1
\A1;\U+220582
 11
6.123233995736766e-017
 21
1.000000000000000
 31
0.0000000000000000
  7
STANDARD
  0
ENDBLK
  5
95
100
AcDbEntity
  8
MAIN0
  6
CONTINUOUS
 62
3
100
AcDbBlockEnd
  0
BLOCK
  5
97
100
AcDbEntity
  8
MAIN0
  6
CONTINUOUS
 62
3
100
AcDbBlockBegin
  2
*D8
 70
    65
 10
0.0
 20
0.0
 30
0.0
  0
LINE
  5
98
100
AcDbEntity
  8
MAIN0
  6
BYBLOCK
 62
0
100
AcDbLine
 10
251.5208312730470
 20
179.2729333981126
 30
0.0000000000000000
 11
251.5208312730461
 21
167.1722132233628
 31
0.0000000000000000
  0
LINE
  5
99
100
AcDbEntity
  8
MAIN0
  6
BYBLOCK
 62
0
100
AcDbLine
 10
249.5208312730462
 20
169.1722132233628
 30
0.0000000000000000
 11
241.5208312730765
 21
169.1722132233628
 31
0.0000000000000000
  0
INSERT
  5
9A
100
AcDbEntity
  8
MAIN0
  6
BYBLOCK
 62
0
100
AcDbBlockReference
  2
_OPEN
 10
251.5208312730462
 20
169.1722132233628
 30
0.0000000000000000
 41
2.000000000000000
 42
2.000000000000000
 43
2.000000000000000
 50
360.0000000000000
  0
INSERT
  5
9B
100
AcDbEntity
  8
MAIN0
  6
BYBLOCK
 62
0
100
AcDbBlockReference
  2
_OPEN
 10
239.5208312730765
 20
169.1722132233628
 30
0.0000000000000000
 41
2.000000000000000
 42
2.000000000000000
 43
2.000000000000000
 50
180.0000000000000
  0
LINE
  5
9C
100
AcDbEntity
  8
MAIN0
  6
BYBLOCK
 62
0
100
AcDbLine
 10
251.5208312730462
 20
169.1722132233628
 30
0.0000000000000000
 11
260.9299890260370
 21
169.1722132233628
 31
0.0000000000000000
  0
LINE
  5
9D
100
AcDbEntity
  8
MAIN0
  6
BYBLOCK
 62
0
100
AcDbLine
 10
239.5208312730765
 20
194.9755698850365
 30
0.0000000000000000
 11
239.5208312730765
 21
167.1722132233628
 31
0.0000000000000000
  0
MTEXT
  5
9E
100
AcDbEntity
  8
MAIN0
  6
BYBLOCK
 62
0
100
AcDbMText
 10
258.8299889429408
 20
171.2222131756790
 30
0.0000000000000000
 40
3.099999904632568
 41
0.0000000000000000
 71
     5
 72
     1
  1
\A1;12
 11
1.000000000000000
 21
0.0000000000000000
 31
0.0000000000000000
  7
STANDARD
  0
ENDBLK
  5
9F
100
AcDbEntity
  8
MAIN0
  6
CONTINUOUS
 62
3
100
AcDbBlockEnd
  0
BLOCK
  5
A1
100
AcDbEntity
  8
MAIN0
  6
CONTINUOUS
 62
3
100
AcDbBlockBegin
  2
*D9
 70
    65
 10
0.0
 20
0.0
 30
0.0
  0
LINE
  5
A2
100
AcDbEntity
  8
MAIN0
  6
BYBLOCK
 62
0
100
AcDbLine
 10
239.5208312730765
 20
194.9755698850365
 30
0.0000000000000000
 11
239.5208312730765
 21
167.1722132233628
 31
0.0000000000000000
  0
LINE
  5
A3
100
AcDbEntity
  8
MAIN0
  6
BYBLOCK
 62
0
100
AcDbLine
 10
237.5208312730765
 20
169.1722132233628
 30
0.0000000000000000
 11
194.1208312730633
 21
169.1722132233628
 31
0.0000000000000000
  0
INSERT
  5
A4
100
AcDbEntity
  8
MAIN0
  6
BYBLOCK
 62
0
100
AcDbBlockReference
  2
_OPEN
 10
239.5208312730765
 20
169.1722132233628
 30
0.0000000000000000
 41
2.000000000000000
 42
2.000000000000000
 43
2.000000000000000
 50
360.0000000000000
  0
INSERT
  5
A5
100
AcDbEntity
  8
MAIN0
  6
BYBLOCK
 62
0
100
AcDbBlockReference
  2
_OPEN
 10
192.1208312730633
 20
169.1722132233628
 30
0.0000000000000000
 41
2.000000000000000
 42
2.000000000000000
 43
2.000000000000000
 50
180.0000000000000
  0
LINE
  5
A6
100
AcDbEntity
  8
MAIN0
  6
BYBLOCK
 62
0
100
AcDbLine
 10
192.1208312730633
 20
182.9729333982054
 30
0.0000000000000000
 11
192.1208312730633
 21
167.1722132233628
 31
0.0000000000000000
  0
MTEXT
  5
A7
100
AcDbEntity
  8
MAIN0
  6
BYBLOCK
 62
0
100
AcDbMText
 10
215.8208312730699
 20
171.2222131756790
 30
0.0000000000000000
 40
3.099999904632568
 41
0.0000000000000000
 71
     5
 72
     1
  1
\A1;47.4
 11
1.000000000000000
 21
0.0000000000000000
 31
0.0000000000000000
  7
STANDARD
  0
ENDBLK
  5
A8
100
AcDbEntity
  8
MAIN0
  6
CONTINUOUS
 62
3
100
AcDbBlockEnd
  0
BLOCK
  5
AB
100
AcDbEntity
  8
MAIN0
  6
CONTINUOUS
 62
3
100
AcDbBlockBegin
  2
*D10
 70
    65
 10
0.0
 20
0.0
 30
0.0
  0
LINE
  5
AC
100
AcDbEntity
  8
MAIN0
  6
BYBLOCK
 62
0
100
AcDbLine
 10
239.5208312730718
 20
236.8165410490466
 30
0.0000000000000000
 11
239.5208312730718
 21
242.2099951257746
 31
0.0000000000000000
  0
LINE
  5
AD
100
AcDbEntity
  8
MAIN0
  6
BYBLOCK
 62
0
100
AcDbLine
 10
241.5208312730718
 20
240.2099951257746
 30
0.0000000000000000
 11
264.1208312729213
 21
240.2099951257746
 31
0.0000000000000000
  0
INSERT
  5
AE
100
AcDbEntity
  8
MAIN0
  6
BYBLOCK
 62
0
100
AcDbBlockReference
  2
_OPEN
 10
239.5208312730718
 20
240.2099951257746
 30
0.0000000000000000
 41
2.000000000000000
 42
2.000000000000000
 43
2.000000000000000
 50
180.0000000000000
  0
INSERT
  5
AF
100
AcDbEntity
  8
MAIN0
  6
BYBLOCK
 62
0
100
AcDbBlockReference
  2
_OPEN
 10
266.1208312729213
 20
240.2099951257746
 30
0.0000000000000000
 41
2.000000000000000
 42
2.000000000000000
 43
2.000000000000000
 50
0.0000000000000000
  0
LINE
  5
B0
100
AcDbEntity
  8
MAIN0
  6
BYBLOCK
 62
0
100
AcDbLine
 10
266.1208312729213
 20
240.2099951257746
 30
0.0000000000000000
 11
285.7297122696254
 21
240.2099951257746
 31
0.0000000000000000
  0
LINE
  5
B1
100
AcDbEntity
  8
MAIN0
  6
BYBLOCK
 62
0
100
AcDbLine
 10
266.1208312729465
 20
225.5729334243632
 30
0.0000000000000000
 11
266.1208312729179
 21
242.2099951257746
 31
0.0000000000000000
  0
MTEXT
  5
B2
100
AcDbEntity
  8
MAIN0
  6
BYBLOCK
 62
0
100
AcDbMText
 10
277.8297114460676
 20
242.2599950780909
 30
0.0000000000000000
 40
3.099999904632568
 41
0.0000000000000000
 71
     5
 72
     1
  1
\A1;MAX 26.6
 11
1.000000000000000
 21
0.0000000000000000
 31
0.0000000000000000
  7
STANDARD
  0
ENDBLK
  5
B3
100
AcDbEntity
  8
MAIN0
  6
CONTINUOUS
 62
3
100
AcDbBlockEnd
  0
BLOCK
  5
B6
100
AcDbEntity
  8
MAIN0
  6
CONTINUOUS
 62
3
100
AcDbBlockBegin
  2
*D11
 70
    65
 10
0.0
 20
0.0
 30
0.0
  0
LINE
  5
B7
100
AcDbEntity
  8
MAIN0
  6
BYBLOCK
 62
0
100
AcDbLine
 10
132.4648230761497
 20
225.0709223896333
 30
0.0000000000000000
 11
145.0125795170790
 21
227.9678002218563
 31
0.0000000000000000
  0
LINE
  5
B8
100
AcDbEntity
  8
MAIN0
  6
BYBLOCK
 62
0
100
AcDbLine
 10
125.1445585620363
 20
233.1479334159639
 30
0.0000000000000000
 11
139.6688855994738
 21
241.5335575408266
 31
0.0000000000000000
  0
ARC
  5
B9
100
AcDbEntity
  8
MAIN0
  6
BYBLOCK
 62
0
100
AcDbCircle
 10
96.95543170185931
 20
216.8729334350203
 30
0.0000000000000000
 40
47.32124821161278
100
AcDbArc
 50
15.42156670335805
 51
27.57843329673524
  0
INSERT
  5
BA
100
AcDbEntity
  8
MAIN0
  6
BYBLOCK
 62
0
100
AcDbBlockReference
  2
_OPEN
 10
143.0638393875093
 20
227.5178981131654
 30
0.0000000000000000
 41
2.000000000000000
 42
2.000000000000000
 43
2.000000000000000
 50
283.0000000000934
  0
INSERT
  5
BB
100
AcDbEntity
  8
MAIN0
  6
BYBLOCK
 62
0
100
AcDbBlockReference
  2
_OPEN
 10
137.9368347919049
 20
240.5335575408266
 30
0.0000000000000000
 41
2.000000000000000
 42
2.000000000000000
 43
2.000000000000000
 50
119.9999999999999
  0
MTEXT
  5
BC
100
AcDbEntity
  8
MAIN0
  6
BYBLOCK
 62
0
100
AcDbMText
 10
142.8913083467645
 20
234.9675564520474
 30
0.0000000000000000
 40
3.099999904632568
 41
0.0000000000000000
 71
     5
 72
     1
  1
\A1;17\U+00B0
 11
0.3665012267250546
 21
-0.9304175679817262
 31
0.0000000000000000
  7
STANDARD
  0
ENDBLK
  5
BD
100
AcDbEntity
  8
MAIN0
  6
CONTINUOUS
 62
3
100
AcDbBlockEnd
  0
BLOCK
  5
BF
100
AcDbEntity
  8
MAIN0
  6
CONTINUOUS
 62
3
100
AcDbBlockBegin
  2
*D12
 70
    65
 10
0.0
 20
0.0
 30
0.0
  0
LINE
  5
C0
100
AcDbEntity
  8
MAIN0
  6
BYBLOCK
 62
0
100
AcDbLine
 10
125.1445585620363
 20
233.1479334159639
 30
0.0000000000000000
 11
139.6688855994738
 21
241.5335575408266
 31
0.0000000000000000
  0
LINE
  5
C1
100
AcDbEntity
  8
MAIN0
  6
BYBLOCK
 62
0
100
AcDbLine
 10
123.0092302418391
 20
244.8122117782882
 30
0.0000000000000000
 11
130.5924420908760
 21
252.9442108900911
 31
0.0000000000000000
  0
ARC
  5
C2
100
AcDbEntity
  8
MAIN0
  6
BYBLOCK
 62
0
100
AcDbCircle
 10
96.95543170185931
 20
216.8729334350203
 30
0.0000000000000000
 40
47.32124821161279
100
AcDbArc
 50
32.42156670326459
 51
44.57843330870986
  0
INSERT
  5
C3
100
AcDbEntity
  8
MAIN0
  6
BYBLOCK
 62
0
100
AcDbBlockReference
  2
_OPEN
 10
137.9368347919050
 20
240.5335575408266
 30
0.0000000000000000
 41
2.000000000000000
 42
2.000000000000000
 43
2.000000000000000
 50
299.9999999999999
  0
INSERT
  5
C4
100
AcDbEntity
  8
MAIN0
  6
BYBLOCK
 62
0
100
AcDbBlockReference
  2
_OPEN
 10
129.2284453710567
 20
251.4815034865677
 30
0.0000000000000000
 41
2.000000000000000
 42
2.000000000000000
 43
2.000000000000000
 50
137.0000000119745
  0
MTEXT
  5
C5
100
AcDbEntity
  8
MAIN0
  6
BYBLOCK
 62
0
100
AcDbMText
 10
135.5937732257233
 20
247.6072580501719
 30
0.0000000000000000
 40
3.099999904632568
 41
0.0000000000000000
 71
     5
 72
     1
  1
\A1;17\U+00B0
 11
0.6225146367193994
 21
-0.7826081567873633
 31
0.0000000000000000
  7
STANDARD
  0
ENDBLK
  5
C6
100
AcDbEntity
  8
MAIN0
  6
CONTINUOUS
 62
3
100
AcDbBlockEnd
  0
BLOCK
  5
C8
100
AcDbEntity
  8
MAIN0
  6
CONTINUOUS
 62
3
100
AcDbBlockBegin
  2
*D13
 70
    65
 10
0.0
 20
0.0
 30
0.0
  0
LINE
  5
C9
100
AcDbEntity
  8
MAIN0
  6
BYBLOCK
 62
0
100
AcDbLine
 10
123.0092302418391
 20
244.8122117782882
 30
0.0000000000000000
 11
130.5924420908760
 21
252.9442108900911
 31
0.0000000000000000
  0
LINE
  5
CA
100
AcDbEntity
  8
MAIN0
  6
BYBLOCK
 62
0
100
AcDbLine
 10
106.6256975347485
 20
250.5971583596048
 30
0.0000000000000000
 11
110.5502100762676
 21
264.2835601562758
 31
0.0000000000000000
  0
ARC
  5
CB
100
AcDbEntity
  8
MAIN0
  6
BYBLOCK
 62
0
100
AcDbCircle
 10
96.95543170185931
 20
216.8729334350203
 30
0.0000000000000000
 40
47.32124821161279
100
AcDbArc
 50
49.42156671523921
 51
71.57843337919685
  0
INSERT
  5
CC
100
AcDbEntity
  8
MAIN0
  6
BYBLOCK
 62
0
100
AcDbBlockReference
  2
_OPEN
 10
129.2284453710567
 20
251.4815034865677
 30
0.0000000000000000
 41
2.000000000000000
 42
2.000000000000000
 43
2.000000000000000
 50
317.0000000119745
  0
INSERT
  5
CD
100
AcDbEntity
  8
MAIN0
  6
BYBLOCK
 62
0
100
AcDbBlockReference
  2
_OPEN
 10
109.9989353674005
 20
262.3610367636059
 30
0.0000000000000000
 41
2.000000000000000
 42
2.000000000000000
 43
2.000000000000000
 50
164.0000000824615
  0
MTEXT
  5
CE
100
AcDbEntity
  8
MAIN0
  6
BYBLOCK
 62
0
100
AcDbMText
 10
121.2669974540806
 20
259.8434805101937
 30
0.0000000000000000
 40
3.099999904632568
 41
0.0000000000000000
 71
     5
 72
     1
  1
\A1;27\U+00B0
 11
0.8703556963457111
 21
-0.4924235593861980
 31
0.0000000000000000
  7
STANDARD
  0
ENDBLK
  5
CF
100
AcDbEntity
  8
MAIN0
  6
CONTINUOUS
 62
3
100
AcDbBlockEnd
  0
BLOCK
  5
D6
100
AcDbEntity
  8
MAIN0
  6
CONTINUOUS
 62
3
100
AcDbBlockBegin
  2
*D14
 70
    65
 10
0.0
 20
0.0
 30
0.0
  0
LINE
  5
D7
100
AcDbEntity
  8
MAIN0
  6
BYBLOCK
 62
0
100
AcDbLine
 10
154.3401317396534
 20
271.8110163897694
 30
0.0000000000000000
 11
144.8379922268564
 21
280.6719048360084
 31
0.0000000000000000
  0
LINE
  5
D8
100
AcDbEntity
  8
MAIN0
  6
BYBLOCK
 62
0
100
AcDbLine
 10
147.6646963502197
 20
280.7706155191265
 30
0.0000000000000000
 11
150.3926897917313
 21
283.6960303269657
 31
0.0000000000000000
  0
INSERT
  5
D9
100
AcDbEntity
  8
MAIN0
  6
BYBLOCK
 62
0
100
AcDbBlockReference
  2
_OPEN
 10
146.3006996300971
 20
279.3079081158859
 30
0.0000000000000000
 41
2.000000000000000
 42
2.000000000000000
 43
2.000000000000000
 50
227.0000000000933
  0
INSERT
  5
DA
100
AcDbEntity
  8
MAIN0
  6
BYBLOCK
 62
0
100
AcDbBlockReference
  2
_OPEN
 10
151.7566865118539
 20
285.1587377302063
 30
0.0000000000000000
 41
2.000000000000000
 42
2.000000000000000
 43
2.000000000000000
 50
47.00000000009332
  0
LINE
  5
DB
100
AcDbEntity
  8
MAIN0
  6
BYBLOCK
 62
0
100
AcDbLine
 10
146.3006996300971
 20
279.3079081158859
 30
0.0000000000000000
 11
141.4692443107879
 21
274.1268066075595
 31
0.0000000000000000
  0
LINE
  5
DC
100
AcDbEntity
  8
MAIN0
  6
BYBLOCK
 62
0
100
AcDbLine
 10
161.8073413009915
 20
275.7863505138043
 30
0.0000000000000000
 11
150.2939791086133
 21
286.5227344503288
 31
0.0000000000000000
  0
MTEXT
  5
DD
100
AcDbEntity
  8
MAIN0
  6
BYBLOCK
 62
0
100
AcDbMText
 10
140.6860676642479
 20
276.2928247380343
 30
0.0000000000000000
 40
3.099999904632568
 41
0.0000000000000000
 71
     5
 72
     1
  1
\A1;8
 11
0.6819983600613051
 21
0.7313537016202834
 31
0.0000000000000000
  7
STANDARD
  0
ENDBLK
  5
DE
100
AcDbEntity
  8
MAIN0
  6
CONTINUOUS
 62
3
100
AcDbBlockEnd
  0
BLOCK
  5
E0
100
AcDbEntity
  8
MAIN0
  6
CONTINUOUS
 62
3
100
AcDbBlockBegin
  2
*D15
 70
    65
 10
0.0
 20
0.0
 30
0.0
  0
LINE
  5
E1
100
AcDbEntity
  8
MAIN0
  6
BYBLOCK
 62
0
100
AcDbLine
 10
154.3401317396535
 20
271.8110163897695
 30
0.0000000000000000
 11
149.3464101069232
 21
276.4677371482482
 31
0.0000000000000000
  0
LINE
  5
E2
100
AcDbEntity
  8
MAIN0
  6
BYBLOCK
 62
0
100
AcDbLine
 10
150.8091175101636
 20
275.1037404281254
 30
0.0000000000000000
 11
153.2643116063831
 21
277.7366137539572
 31
0.0000000000000000
  0
INSERT
  5
E3
100
AcDbEntity
  8
MAIN0
  6
BYBLOCK
 62
0
100
AcDbBlockReference
  2
_OPEN
 10
150.8091175101636
 20
275.1037404281254
 30
0.0000000000000000
 41
2.000000000000000
 42
2.000000000000000
 43
2.000000000000000
 50
47.00000000009354
  0
INSERT
  5
E4
100
AcDbEntity
  8
MAIN0
  6
BYBLOCK
 62
0
100
AcDbBlockReference
  2
_OPEN
 10
153.2643116063831
 20
277.7366137539572
 30
0.0000000000000000
 41
2.000000000000000
 42
2.000000000000000
 43
2.000000000000000
 50
227.0000000000935
  0
LINE
  5
E5
100
AcDbEntity
  8
MAIN0
  6
BYBLOCK
 62
0
100
AcDbLine
 10
149.4451207900410
 20
273.6410330248849
 30
0.0000000000000000
 11
145.2690626193146
 21
269.1627589113404
 31
0.0000000000000000
  0
LINE
  5
E6
100
AcDbEntity
  8
MAIN0
  6
BYBLOCK
 62
0
100
AcDbLine
 10
154.6283083265057
 20
279.1993211571977
 30
0.0000000000000000
 11
155.3103066865670
 21
279.9306748588180
 31
0.0000000000000000
  0
LINE
  5
E7
100
AcDbEntity
  8
MAIN0
  6
BYBLOCK
 62
0
100
AcDbLine
 10
156.7953258358755
 20
274.4438897155997
 30
0.0000000000000000
 11
151.8016042031426
 21
279.1006104740798
 31
0.0000000000000000
  0
MTEXT
  5
E8
100
AcDbEntity
  8
MAIN0
  6
BYBLOCK
 62
0
100
AcDbMText
 10
145.5770831640092
 20
272.4989427661654
 30
0.0000000000000000
 40
3.099999904632568
 41
0.0000000000000000
 71
     5
 72
     1
  1
\A1;3.6
 11
0.6819983600613072
 21
0.7313537016202814
 31
0.0000000000000000
  7
STANDARD
  0
ENDBLK
  5
E9
100
AcDbEntity
  8
MAIN0
  6
CONTINUOUS
 62
3
100
AcDbBlockEnd
  0
BLOCK
  5
EB
100
AcDbEntity
  8
MAIN0
  6
CONTINUOUS
 62
3
100
AcDbBlockBegin
  2
*D16
 70
    65
 10
0.0
 20
0.0
 30
0.0
  0
LINE
  5
EC
100
AcDbEntity
  8
MAIN0
  6
BYBLOCK
 62
0
100
AcDbLine
 10
159.7900617990273
 20
274.7961064277955
 30
0.0000000000000000
 11
166.3854101362274
 21
281.8687516163308
 31
0.0000000000000000
  0
LINE
  5
ED
100
AcDbEntity
  8
MAIN0
  6
BYBLOCK
 62
0
100
AcDbLine
 10
165.0214134161032
 20
280.4060442130915
 30
0.0000000000000000
 11
167.3617452612859
 21
278.2236494608932
 31
0.0000000000000000
  0
INSERT
  5
EE
100
AcDbEntity
  8
MAIN0
  6
BYBLOCK
 62
0
100
AcDbBlockReference
  2
_OPEN
 10
165.0214134161032
 20
280.4060442130915
 30
0.0000000000000000
 41
2.000000000000000
 42
2.000000000000000
 43
2.000000000000000
 50
317.0000000000375
  0
INSERT
  5
EF
100
AcDbEntity
  8
MAIN0
  6
BYBLOCK
 62
0
100
AcDbBlockReference
  2
_OPEN
 10
167.3617452612859
 20
278.2236494608932
 30
0.0000000000000000
 41
2.000000000000000
 42
2.000000000000000
 43
2.000000000000000
 50
137.0000000000375
  0
LINE
  5
F0
100
AcDbEntity
  8
MAIN0
  6
BYBLOCK
 62
0
100
AcDbLine
 10
163.5587060128640
 20
281.7700409332156
 30
0.0000000000000000
 11
162.8273523112444
 21
282.4520392932776
 31
0.0000000000000000
  0
LINE
  5
F1
100
AcDbEntity
  8
MAIN0
  6
BYBLOCK
 62
0
100
AcDbLine
 10
168.8244526645251
 20
276.8596527407691
 30
0.0000000000000000
 11
172.8746511811832
 21
273.0827815221379
 31
0.0000000000000000
  0
LINE
  5
F2
100
AcDbEntity
  8
MAIN0
  6
BYBLOCK
 62
0
100
AcDbLine
 10
162.1303936442067
 20
272.6137116755932
 30
0.0000000000000000
 11
168.7257419814099
 21
279.6863568641325
 31
0.0000000000000000
  0
MTEXT
  5
F3
100
AcDbEntity
  8
MAIN0
  6
BYBLOCK
 62
0
100
AcDbMText
 10
172.3346604864728
 20
276.3893522213796
 30
0.0000000000000000
 40
3.099999904632568
 41
0.0000000000000000
 71
     5
 72
     1
  1
\A1;3.2
 11
0.7313537016196110
 21
-0.6819983600620261
 31
0.0000000000000000
  7
STANDARD
  0
ENDBLK
  5
F4
100
AcDbEntity
  8
MAIN0
  6
CONTINUOUS
 62
3
100
AcDbBlockEnd
  0
BLOCK
  5
F6
100
AcDbEntity
  8
MAIN0
  6
CONTINUOUS
 62
3
100
AcDbBlockBegin
  2
*D17
 70
    65
 10
0.0
 20
0.0
 30
0.0
  0
LINE
  5
F7
100
AcDbEntity
  8
MAIN0
  6
BYBLOCK
 62
0
100
AcDbLine
 10
154.3796160136646
 20
270.6803347234170
 30
0.0000000000000000
 11
149.3758607066324
 21
265.3144640995189
 31
0.0000000000000000
  0
LINE
  5
F8
100
AcDbEntity
  8
MAIN0
  6
BYBLOCK
 62
0
100
AcDbLine
 10
150.7398574267550
 20
266.7771715027593
 30
0.0000000000000000
 11
154.7623027856629
 21
263.0261805224181
 31
0.0000000000000000
  0
INSERT
  5
F9
100
AcDbEntity
  8
MAIN0
  6
BYBLOCK
 62
0
100
AcDbBlockReference
  2
_OPEN
 10
150.7398574267550
 20
266.7771715027593
 30
0.0000000000000000
 41
2.000000000000000
 42
2.000000000000000
 43
2.000000000000000
 50
317.0000000000368
  0
INSERT
  5
FA
100
AcDbEntity
  8
MAIN0
  6
BYBLOCK
 62
0
100
AcDbBlockReference
  2
_OPEN
 10
154.7623027856629
 20
263.0261805224181
 30
0.0000000000000000
 41
2.000000000000000
 42
2.000000000000000
 43
2.000000000000000
 50
137.0000000000368
  0
LINE
  5
FB
100
AcDbEntity
  8
MAIN0
  6
BYBLOCK
 62
0
100
AcDbLine
 10
149.2771500235158
 20
268.1411682228833
 30
0.0000000000000000
 11
148.5457963218962
 21
268.8231665829454
 31
0.0000000000000000
  0
LINE
  5
FC
100
AcDbEntity
  8
MAIN0
  6
BYBLOCK
 62
0
100
AcDbLine
 10
156.2250101889021
 20
261.6621838022941
 30
0.0000000000000000
 11
160.1770083092678
 21
257.9768859346701
 31
0.0000000000000000
  0
LINE
  5
FD
100
AcDbEntity
  8
MAIN0
  6
BYBLOCK
 62
0
100
AcDbLine
 10
158.4020613725674
 20
266.9293437430705
 30
0.0000000000000000
 11
153.3983060655402
 21
261.5634731191777
 31
0.0000000000000000
  0
MTEXT
  5
FE
100
AcDbEntity
  8
MAIN0
  6
BYBLOCK
 62
0
100
AcDbMText
 10
159.6370176829804
 20
261.2834565701065
 30
0.0000000000000000
 40
3.099999904632568
 41
0.0000000000000000
 71
     5
 72
     1
  1
\A1;5.5
 11
0.7313537016196110
 21
-0.6819983600620261
 31
0.0000000000000000
  7
STANDARD
  0
ENDBLK
  5
FF
100
AcDbEntity
  8
MAIN0
  6
CONTINUOUS
 62
3
100
AcDbBlockEnd
  0
BLOCK
  5
10A
100
AcDbEntity
  8
MAIN0
  6
CONTINUOUS
 62
3
100
AcDbBlockBegin
  2
*D18
 70
    65
 10
0.0
 20
0.0
 30
0.0
  0
LINE
  5
10B
100
AcDbEntity
  8
MAIN0
  6
BYBLOCK
 62
0
100
AcDbLine
 10
380.1006401327492
 20
74.26014496994455
 30
0.0000000000000000
 11
389.0858640435259
 21
74.26014496994455
 31
0.0000000000000000
  0
LINE
  5
10C
100
AcDbEntity
  8
MAIN0
  6
BYBLOCK
 62
0
100
AcDbLine
 10
387.0858640435259
 20
74.26014496994455
 30
0.0000000000000000
 11
387.0858640435259
 21
82.76014496994455
 31
0.0000000000000000
  0
INSERT
  5
10D
100
AcDbEntity
  8
MAIN0
  6
BYBLOCK
 62
0
100
AcDbBlockReference
  2
_OPEN
 10
387.0858640435259
 20
74.26014496994455
 30
0.0000000000000000
 41
2.000000000000000
 42
2.000000000000000
 43
2.000000000000000
 50
90.00000000000000
  0
INSERT
  5
10E
100
AcDbEntity
  8
MAIN0
  6
BYBLOCK
 62
0
100
AcDbBlockReference
  2
_OPEN
 10
387.0858640435259
 20
82.76014496994455
 30
0.0000000000000000
 41
2.000000000000000
 42
2.000000000000000
 43
2.000000000000000
 50
270.0000000000000
  0
LINE
  5
10F
100
AcDbEntity
  8
MAIN0
  6
BYBLOCK
 62
0
100
AcDbLine
 10
387.0858640435259
 20
72.26014496994455
 30
0.0000000000000000
 11
387.0858640435259
 21
71.26014496994455
 31
0.0000000000000000
  0
LINE
  5
110
100
AcDbEntity
  8
MAIN0
  6
BYBLOCK
 62
0
100
AcDbLine
 10
387.0858640435259
 20
84.76014496994455
 30
0.0000000000000000
 11
387.0858640435259
 21
85.76014496994455
 31
0.0000000000000000
  0
LINE
  5
111
100
AcDbEntity
  8
MAIN0
  6
BYBLOCK
 62
0
100
AcDbLine
 10
362.2761209378882
 20
82.76014496994455
 30
0.0000000000000000
 11
389.0858640435259
 21
82.76014496994455
 31
0.0000000000000000
  0
MTEXT
  5
112
100
AcDbEntity
  8
MAIN0
  6
BYBLOCK
 62
0
100
AcDbMText
 10
385.0358640912097
 20
78.51014496994455
 30
0.0000000000000000
 40
3.099999904632568
 41
0.0000000000000000
 71
     5
 72
     1
  1
\A1;8.5
 11
6.123233995736766e-017
 21
1.000000000000000
 31
0.0000000000000000
  7
STANDARD
  0
ENDBLK
  5
113
100
AcDbEntity
  8
MAIN0
  6
CONTINUOUS
 62
3
100
AcDbBlockEnd
  0
BLOCK
  5
115
100
AcDbEntity
  8
MAIN0
  6
CONTINUOUS
 62
3
100
AcDbBlockBegin
  2
*D19
 70
    65
 10
0.0
 20
0.0
 30
0.0
  0
LINE
  5
116
100
AcDbEntity
  8
MAIN0
  6
BYBLOCK
 62
0
100
AcDbLine
 10
380.1006401327492
 20
74.26014496994455
 30
0.0000000000000000
 11
396.8609671538897
 21
74.26014496994455
 31
0.0000000000000000
  0
LINE
  5
117
100
AcDbEntity
  8
MAIN0
  6
BYBLOCK
 62
0
100
AcDbLine
 10
394.8609671538897
 20
76.26014496994455
 30
0.0000000000000000
 11
394.8609671538897
 21
114.1601449700862
 31
0.0000000000000000
  0
INSERT
  5
118
100
AcDbEntity
  8
MAIN0
  6
BYBLOCK
 62
0
100
AcDbBlockReference
  2
_OPEN
 10
394.8609671538897
 20
74.26014496994455
 30
0.0000000000000000
 41
2.000000000000000
 42
2.000000000000000
 43
2.000000000000000
 50
270.0000000000000
  0
INSERT
  5
119
100
AcDbEntity
  8
MAIN0
  6
BYBLOCK
 62
0
100
AcDbBlockReference
  2
_OPEN
 10
394.8609671538897
 20
116.1601449700862
 30
0.0000000000000000
 41
2.000000000000000
 42
2.000000000000000
 43
2.000000000000000
 50
90.00000000000000
  0
LINE
  5
11A
100
AcDbEntity
  8
MAIN0
  6
BYBLOCK
 62
0
100
AcDbLine
 10
351.7506401329473
 20
116.1601449700862
 30
0.0000000000000000
 11
396.8609671538897
 21
116.1601449700862
 31
0.0000000000000000
  0
MTEXT
  5
11B
100
AcDbEntity
  8
MAIN0
  6
BYBLOCK
 62
0
100
AcDbMText
 10
392.8109672015734
 20
95.21014497001536
 30
0.0000000000000000
 40
3.099999904632568
 41
0.0000000000000000
 71
     5
 72
     1
  1
\A1;41.9
 11
6.123233995736766e-017
 21
1.000000000000000
 31
0.0000000000000000
  7
STANDARD
  0
ENDBLK
  5
11C
100
AcDbEntity
  8
MAIN0
  6
CONTINUOUS
 62
3
100
AcDbBlockEnd
  0
BLOCK
  5
11E
100
AcDbEntity
  8
MAIN0
  6
CONTINUOUS
 62
3
100
AcDbBlockBegin
  2
*D20
 70
    65
 10
0.0
 20
0.0
 30
0.0
  0
LINE
  5
11F
100
AcDbEntity
  8
MAIN0
  6
BYBLOCK
 62
0
100
AcDbLine
 10
312.3006401089073
 20
74.26014496994455
 30
0.0000000000000000
 11
303.9503121905837
 21
74.26014496994455
 31
0.0000000000000000
  0
LINE
  5
120
100
AcDbEntity
  8
MAIN0
  6
BYBLOCK
 62
0
100
AcDbLine
 10
305.9503121905837
 20
76.26014496994455
 30
0.0000000000000000
 11
305.9503121905837
 21
103.2601449699446
 31
0.0000000000000000
  0
INSERT
  5
121
100
AcDbEntity
  8
MAIN0
  6
BYBLOCK
 62
0
100
AcDbBlockReference
  2
_OPEN
 10
305.9503121905837
 20
74.26014496994455
 30
0.0000000000000000
 41
2.000000000000000
 42
2.000000000000000
 43
2.000000000000000
 50
270.0000000000000
  0
INSERT
  5
122
100
AcDbEntity
  8
MAIN0
  6
BYBLOCK
 62
0
100
AcDbBlockReference
  2
_OPEN
 10
305.9503121905837
 20
105.2601449699446
 30
0.0000000000000000
 41
2.000000000000000
 42
2.000000000000000
 43
2.000000000000000
 50
90.00000000000000
  0
LINE
  5
123
100
AcDbEntity
  8
MAIN0
  6
BYBLOCK
 62
0
100
AcDbLine
 10
330.5907241566441
 20
105.2601449699446
 30
0.0000000000000000
 11
303.9503121905837
 21
105.2601449699446
 31
0.0000000000000000
  0
MTEXT
  5
124
100
AcDbEntity
  8
MAIN0
  6
BYBLOCK
 62
0
100
AcDbMText
 10
303.9003122382674
 20
89.76014496994455
 30
0.0000000000000000
 40
3.099999904632568
 41
0.0000000000000000
 71
     5
 72
     1
  1
\A1;31
 11
6.123233995736766e-017
 21
1.000000000000000
 31
0.0000000000000000
  7
STANDARD
  0
ENDBLK
  5
125
100
AcDbEntity
  8
MAIN0
  6
CONTINUOUS
 62
3
100
AcDbBlockEnd
  0
BLOCK
  5
127
100
AcDbEntity
  8
MAIN0
  6
CONTINUOUS
 62
3
100
AcDbBlockBegin
  2
*D21
 70
    65
 10
0.0
 20
0.0
 30
0.0
  0
LINE
  5
128
100
AcDbEntity
  8
MAIN0
  6
BYBLOCK
 62
0
100
AcDbLine
 10
341.4506401210264
 20
122.0601449820072
 30
0.0000000000000000
 11
341.4506401210264
 21
162.3104950329372
 31
0.0000000000000000
  0
LINE
  5
129
100
AcDbEntity
  8
MAIN0
  6
BYBLOCK
 62
0
100
AcDbLine
 10
343.4506401210264
 20
160.3104950329372
 30
0.0000000000000000
 11
348.9506401210264
 21
160.3104950329372
 31
0.0000000000000000
  0
INSERT
  5
12A
100
AcDbEntity
  8
MAIN0
  6
BYBLOCK
 62
0
100
AcDbBlockReference
  2
_OPEN
 10
341.4506401210264
 20
160.3104950329372
 30
0.0000000000000000
 41
2.000000000000000
 42
2.000000000000000
 43
2.000000000000000
 50
180.0000000000000
  0
INSERT
  5
12B
100
AcDbEntity
  8
MAIN0
  6
BYBLOCK
 62
0
100
AcDbBlockReference
  2
_OPEN
 10
350.9506401210264
 20
160.3104950329372
 30
0.0000000000000000
 41
2.000000000000000
 42
2.000000000000000
 43
2.000000000000000
 50
0.0000000000000000
  0
LINE
  5
12C
100
AcDbEntity
  8
MAIN0
  6
BYBLOCK
 62
0
100
AcDbLine
 10
341.4506401210264
 20
160.3104950329372
 30
0.0000000000000000
 11
325.9890808253721
 21
160.3104950329372
 31
0.0000000000000000
  0
LINE
  5
12D
100
AcDbEntity
  8
MAIN0
  6
BYBLOCK
 62
0
100
AcDbLine
 10
350.9506401210264
 20
122.0601449820071
 30
0.0000000000000000
 11
350.9506401210264
 21
162.3104950329372
 31
0.0000000000000000
  0
MTEXT
  5
12E
100
AcDbEntity
  8
MAIN0
  6
BYBLOCK
 62
0
100
AcDbMText
 10
332.0390811494826
 20
162.3604949852535
 30
0.0000000000000000
 40
3.099999904632568
 41
0.0000000000000000
 71
     5
 72
     1
  1
\A1;3-\U+22059.5
 11
1.000000000000000
 21
0.0000000000000000
 31
0.0000000000000000
  7
STANDARD
  0
ENDBLK
  5
12F
100
AcDbEntity
  8
MAIN0
  6
CONTINUOUS
 62
3
100
AcDbBlockEnd
  0
BLOCK
  5
131
100
AcDbEntity
  8
MAIN0
  6
CONTINUOUS
 62
3
100
AcDbBlockBegin
  2
*D22
 70
    65
 10
0.0
 20
0.0
 30
0.0
  0
LINE
  5
132
100
AcDbEntity
  8
MAIN0
  6
BYBLOCK
 62
0
100
AcDbLine
 10
343.4506401209749
 20
73.86014495819640
 30
0.0000000000000000
 11
343.4506401209749
 21
62.30200171179810
 31
0.0000000000000000
  0
LINE
  5
133
100
AcDbEntity
  8
MAIN0
  6
BYBLOCK
 62
0
100
AcDbLine
 10
343.4506401209749
 20
64.30200171179810
 30
0.0000000000000000
 11
348.9506401209749
 21
64.30200171179810
 31
0.0000000000000000
  0
INSERT
  5
134
100
AcDbEntity
  8
MAIN0
  6
BYBLOCK
 62
0
100
AcDbBlockReference
  2
_OPEN
 10
343.4506401209749
 20
64.30200171179810
 30
0.0000000000000000
 41
2.000000000000000
 42
2.000000000000000
 43
2.000000000000000
 50
0.0000000000000000
  0
INSERT
  5
135
100
AcDbEntity
  8
MAIN0
  6
BYBLOCK
 62
0
100
AcDbBlockReference
  2
_OPEN
 10
348.9506401209749
 20
64.30200171179810
 30
0.0000000000000000
 41
2.000000000000000
 42
2.000000000000000
 43
2.000000000000000
 50
180.0000000000000
  0
LINE
  5
136
100
AcDbEntity
  8
MAIN0
  6
BYBLOCK
 62
0
100
AcDbLine
 10
341.4506401209749
 20
64.30200171179810
 30
0.0000000000000000
 11
328.1623701243318
 21
64.30200171179810
 31
0.0000000000000000
  0
LINE
  5
137
100
AcDbEntity
  8
MAIN0
  6
BYBLOCK
 62
0
100
AcDbLine
 10
350.9506401209749
 20
64.30200171179810
 30
0.0000000000000000
 11
351.9506401209749
 21
64.30200171179810
 31
0.0000000000000000
  0
LINE
  5
138
100
AcDbEntity
  8
MAIN0
  6
BYBLOCK
 62
0
100
AcDbLine
 10
348.9506401209749
 20
73.86014495819640
 30
0.0000000000000000
 11
348.9506401209749
 21
62.30200171179810
 31
0.0000000000000000
  0
MTEXT
  5
139
100
AcDbEntity
  8
MAIN0
  6
BYBLOCK
 62
0
100
AcDbMText
 10
334.2123698903778
 20
66.35200166411438
 30
0.0000000000000000
 40
3.099999904632568
 41
0.0000000000000000
 71
     5
 72
     1
  1
\A1;3-\U+22055.5
 11
1.000000000000000
 21
0.0000000000000000
 31
0.0000000000000000
  7
STANDARD
  0
ENDBLK
  5
13A
100
AcDbEntity
  8
MAIN0
  6
CONTINUOUS
 62
3
100
AcDbBlockEnd
  0
BLOCK
  5
239
100
AcDbEntity
  8
MAIN0
  6
CONTINUOUS
 62
3
100
AcDbBlockBegin
  2
*D23
 70
    65
 10
0.0
 20
0.0
 30
0.0
  0
LINE
  5
23A
100
AcDbEntity
  8
MAIN0
  6
BYBLOCK
 62
0
100
AcDbLine
 10
366.1332055829384
 20
233.5670291963329
 30
0.0000000000000000
 11
326.2680746586098
 21
200.1788376252679
 31
0.0000000000000000
  0
INSERT
  5
23B
100
AcDbEntity
  8
MAIN0
  6
BYBLOCK
 62
0
100
AcDbBlockReference
  2
_OPEN
 10
367.6664798492587
 20
234.8511904106046
 30
0.0000000000000000
 41
2.000000000000000
 42
2.000000000000000
 43
2.000000000000000
 50
39.94714067160157
  0
INSERT
  5
23C
100
AcDbEntity
  8
MAIN0
  6
BYBLOCK
 62
0
100
AcDbBlockReference
  2
_OPEN
 10
324.7348003922895
 20
198.8946764109961
 30
0.0000000000000000
 41
2.000000000000000
 42
2.000000000000000
 43
2.000000000000000
 50
219.9471406716016
  0
MTEXT
  5
23D
100
AcDbEntity
  8
MAIN0
  6
BYBLOCK
 62
0
100
AcDbMText
 10
359.5098695232698
 20
230.6938110976205
 30
0.0000000000000000
 40
3.099999904632568
 41
0.0000000000000000
 71
     5
 72
     1
  1
\A1;\U+220556
 11
0.7666371331601660
 21
0.6420806071358657
 31
0.0000000000000000
  7
STANDARD
  0
ENDBLK
  5
23E
100
AcDbEntity
  8
MAIN0
  6
CONTINUOUS
 62
3
100
AcDbBlockEnd
  0
BLOCK
  5
240
100
AcDbEntity
  8
MAIN0
  6
CONTINUOUS
 62
3
100
AcDbBlockBegin
  2
*D24
 70
    65
 10
0.0
 20
0.0
 30
0.0
  0
LINE
  5
241
100
AcDbEntity
  8
MAIN0
  6
BYBLOCK
 62
0
100
AcDbLine
 10
342.7006401207117
 20
257.5602747730804
 30
0.0000000000000000
 11
342.7006401207117
 21
263.6070981673047
 31
0.0000000000000000
  0
LINE
  5
242
100
AcDbEntity
  8
MAIN0
  6
BYBLOCK
 62
0
100
AcDbLine
 10
344.7006401207117
 20
261.6070981673047
 30
0.0000000000000000
 11
347.7006401207117
 21
261.6070981673047
 31
0.0000000000000000
  0
INSERT
  5
243
100
AcDbEntity
  8
MAIN0
  6
BYBLOCK
 62
0
100
AcDbBlockReference
  2
_OPEN
 10
342.7006401207117
 20
261.6070981673047
 30
0.0000000000000000
 41
2.000000000000000
 42
2.000000000000000
 43
2.000000000000000
 50
180.0000000000000
  0
INSERT
  5
244
100
AcDbEntity
  8
MAIN0
  6
BYBLOCK
 62
0
100
AcDbBlockReference
  2
_OPEN
 10
349.7006401207117
 20
261.6070981673047
 30
0.0000000000000000
 41
2.000000000000000
 42
2.000000000000000
 43
2.000000000000000
 50
0.0000000000000000
  0
LINE
  5
245
100
AcDbEntity
  8
MAIN0
  6
BYBLOCK
 62
0
100
AcDbLine
 10
342.7006401207117
 20
261.6070981673047
 30
0.0000000000000000
 11
338.1500004913477
 21
261.6070981673047
 31
0.0000000000000000
  0
LINE
  5
246
100
AcDbEntity
  8
MAIN0
  6
BYBLOCK
 62
0
100
AcDbLine
 10
349.7006401207117
 20
257.5602747730789
 30
0.0000000000000000
 11
349.7006401207117
 21
263.6070981673047
 31
0.0000000000000000
  0
MTEXT
  5
247
100
AcDbEntity
  8
MAIN0
  6
BYBLOCK
 62
0
100
AcDbMText
 10
339.2000005010551
 20
263.6570981196210
 30
0.0000000000000000
 40
3.099999904632568
 41
0.0000000000000000
 71
     5
 72
     1
  1
\A1;7
 11
1.000000000000000
 21
0.0000000000000000
 31
0.0000000000000000
  7
STANDARD
  0
ENDBLK
  5
248
100
AcDbEntity
  8
MAIN0
  6
CONTINUOUS
 62
3
100
AcDbBlockEnd
  0
BLOCK
  5
24A
100
AcDbEntity
  8
MAIN0
  6
CONTINUOUS
 62
3
100
AcDbBlockBegin
  2
*D25
 70
    65
 10
0.0
 20
0.0
 30
0.0
  0
LINE
  5
24B
100
AcDbEntity
  8
MAIN0
  6
BYBLOCK
 62
0
100
AcDbLine
 10
346.2006401208086
 20
173.0715206109112
 30
0.0000000000000000
 11
346.2006401208129
 21
167.5698354595286
 31
0.0000000000000000
  0
LINE
  5
24C
100
AcDbEntity
  8
MAIN0
  6
BYBLOCK
 62
0
100
AcDbLine
 10
384.9676269528485
 20
194.4908031276434
 30
0.0000000000000000
 11
388.8983754318538
 21
192.2213844351741
 31
0.0000000000000000
  0
ARC
  5
24D
100
AcDbEntity
  8
MAIN0
  6
BYBLOCK
 62
0
100
AcDbCircle
 10
346.2006401207743
 20
216.8729334108005
 30
0.0000000000000000
 40
47.30309795127195
100
AcDbArc
 50
272.4224958616100
 51
327.5775041384477
  0
INSERT
  5
24E
100
AcDbEntity
  8
MAIN0
  6
BYBLOCK
 62
0
100
AcDbBlockReference
  2
_OPEN
 10
346.2006401208114
 20
169.5698354595285
 30
0.0000000000000000
 41
2.000000000000000
 42
2.000000000000000
 43
2.000000000000000
 50
180.0000000000448
  0
INSERT
  5
24F
100
AcDbEntity
  8
MAIN0
  6
BYBLOCK
 62
0
100
AcDbBlockReference
  2
_OPEN
 10
387.1663246242848
 20
193.2213844351736
 30
0.0000000000000000
 41
2.000000000000000
 42
2.000000000000000
 43
2.000000000000000
 50
60.00000000001279
  0
MTEXT
  5
250
100
AcDbEntity
  8
MAIN0
  6
BYBLOCK
 62
0
100
AcDbMText
 10
368.8271891202717
 20
177.6826009437698
 30
0.0000000000000000
 40
3.099999904632568
 41
0.0000000000000000
 71
     5
 72
     1
  1
\A1;60\U+00B0
 11
0.8660254037841867
 21
0.5000000000004363
 31
0.0000000000000000
  7
STANDARD
  0
ENDBLK
  5
251
100
AcDbEntity
  8
MAIN0
  6
CONTINUOUS
 62
3
100
AcDbBlockEnd
  0
BLOCK
  5
253
100
AcDbEntity
  8
MAIN0
  6
CONTINUOUS
 62
3
100
AcDbBlockBegin
  2
*D26
 70
    65
 10
0.0
 20
0.0
 30
0.0
  0
LINE
  5
254
100
AcDbEntity
  8
MAIN0
  6
BYBLOCK
 62
0
100
AcDbLine
 10
384.9676269528485
 20
194.4908031276434
 30
0.0000000000000000
 11
388.8983754318538
 21
192.2213844351741
 31
0.0000000000000000
  0
LINE
  5
255
100
AcDbEntity
  8
MAIN0
  6
BYBLOCK
 62
0
100
AcDbLine
 10
390.5811958074690
 20
216.8729334108716
 30
0.0000000000000000
 11
395.5037380720462
 21
216.8729334107518
 31
0.0000000000000000
  0
ARC
  5
256
100
AcDbEntity
  8
MAIN0
  6
BYBLOCK
 62
0
100
AcDbCircle
 10
346.2006401207743
 20
216.8729334108005
 30
0.0000000000000000
 40
47.30309795127195
100
AcDbArc
 50
332.4224958615779
 51
357.5775041384349
  0
INSERT
  5
257
100
AcDbEntity
  8
MAIN0
  6
BYBLOCK
 62
0
100
AcDbBlockReference
  2
_OPEN
 10
387.1663246242848
 20
193.2213844351736
 30
0.0000000000000000
 41
2.000000000000000
 42
2.000000000000000
 43
2.000000000000000
 50
240.0000000000127
  0
INSERT
  5
258
100
AcDbEntity
  8
MAIN0
  6
BYBLOCK
 62
0
100
AcDbBlockReference
  2
_OPEN
 10
393.5037380720463
 20
216.8729334108005
 30
0.0000000000000000
 41
2.000000000000000
 42
2.000000000000000
 43
2.000000000000000
 50
90.00000000000000
  0
MTEXT
  5
259
100
AcDbEntity
  8
MAIN0
  6
BYBLOCK
 62
0
100
AcDbMText
 10
389.9117761975568
 20
205.1605697987849
 30
0.0000000000000000
 40
3.099999904632568
 41
0.0000000000000000
 71
     5
 72
     1
  1
\A1;30\U+00B0
 11
0.2588190451024124
 21
0.9659258262890973
 31
0.0000000000000000
  7
STANDARD
  0
ENDBLK
  5
25A
100
AcDbEntity
  8
MAIN0
  6
CONTINUOUS
 62
3
100
AcDbBlockEnd
  0
BLOCK
  5
25C
100
AcDbEntity
  8
MAIN0
  6
CONTINUOUS
 62
3
100
AcDbBlockBegin
  2
*D27
 70
    65
 10
0.0
 20
0.0
 30
0.0
  0
LINE
  5
25D
100
AcDbEntity
  8
MAIN0
  6
BYBLOCK
 62
0
100
AcDbLine
 10
390.5811958074690
 20
216.8729334108716
 30
0.0000000000000000
 11
395.5037380720462
 21
216.8729334107518
 31
0.0000000000000000
  0
LINE
  5
25E
100
AcDbEntity
  8
MAIN0
  6
BYBLOCK
 62
0
100
AcDbLine
 10
382.0386324952204
 20
237.5640079554132
 30
0.0000000000000000
 11
388.8983754318429
 21
241.5244823864458
 31
0.0000000000000000
  0
ARC
  5
25F
100
AcDbEntity
  8
MAIN0
  6
BYBLOCK
 62
0
100
AcDbCircle
 10
346.2006401207743
 20
216.8729334108005
 30
0.0000000000000000
 40
47.30309795127195
100
AcDbArc
 50
2.422495861565095
 51
27.57750413844754
  0
INSERT
  5
260
100
AcDbEntity
  8
MAIN0
  6
BYBLOCK
 62
0
100
AcDbBlockReference
  2
_OPEN
 10
393.5037380720463
 20
216.8729334108005
 30
0.0000000000000000
 41
2.000000000000000
 42
2.000000000000000
 43
2.000000000000000
 50
270.0000000000000
  0
INSERT
  5
261
100
AcDbEntity
  8
MAIN0
  6
BYBLOCK
 62
0
100
AcDbBlockReference
  2
_OPEN
 10
387.1663246242742
 20
240.5244823864455
 30
0.0000000000000000
 41
2.000000000000000
 42
2.000000000000000
 43
2.000000000000000
 50
120.0000000000127
  0
MTEXT
  5
262
100
AcDbEntity
  8
MAIN0
  6
BYBLOCK
 62
0
100
AcDbMText
 10
389.9117761975549
 20
228.5852970228259
 30
0.0000000000000000
 40
3.099999904632568
 41
0.0000000000000000
 71
     5
 72
     1
  1
\A1;30\U+00B0
 11
-0.2588190451026272
 21
0.9659258262890398
 31
0.0000000000000000
  7
STANDARD
  0
ENDBLK
  5
263
100
AcDbEntity
  8
MAIN0
  6
CONTINUOUS
 62
3
100
AcDbBlockEnd
  0
BLOCK
  5
265
100
AcDbEntity
  8
MAIN0
  6
CONTINUOUS
 62
3
100
AcDbBlockBegin
  2
*D28
 70
    65
 10
0.0
 20
0.0
 30
0.0
  0
LINE
  5
266
100
AcDbEntity
  8
MAIN0
  6
BYBLOCK
 62
0
100
AcDbLine
 10
382.0386324952204
 20
237.5640079554132
 30
0.0000000000000000
 11
388.8983754318429
 21
241.5244823864458
 31
0.0000000000000000
  0
LINE
  5
267
100
AcDbEntity
  8
MAIN0
  6
BYBLOCK
 62
0
100
AcDbLine
 10
346.2006401207403
 20
260.2576959849649
 30
0.0000000000000000
 11
346.2006401207356
 21
266.1760313620724
 31
0.0000000000000000
  0
ARC
  5
268
100
AcDbEntity
  8
MAIN0
  6
BYBLOCK
 62
0
100
AcDbCircle
 10
346.2006401207743
 20
216.8729334108005
 30
0.0000000000000000
 40
47.30309795127195
100
AcDbArc
 50
32.42249586157774
 51
87.57750413847981
  0
INSERT
  5
269
100
AcDbEntity
  8
MAIN0
  6
BYBLOCK
 62
0
100
AcDbBlockReference
  2
_OPEN
 10
387.1663246242742
 20
240.5244823864455
 30
0.0000000000000000
 41
2.000000000000000
 42
2.000000000000000
 43
2.000000000000000
 50
300.0000000000126
  0
INSERT
  5
26A
100
AcDbEntity
  8
MAIN0
  6
BYBLOCK
 62
0
100
AcDbBlockReference
  2
_OPEN
 10
346.2006401207373
 20
264.1760313620724
 30
0.0000000000000000
 41
2.000000000000000
 42
2.000000000000000
 43
2.000000000000000
 50
180.0000000000449
  0
MTEXT
  5
26B
100
AcDbEntity
  8
MAIN0
  6
BYBLOCK
 62
0
100
AcDbMText
 10
370.8771890725468
 20
259.6139699507805
 30
0.0000000000000000
 40
3.099999904632568
 41
0.0000000000000000
 71
     5
 72
     1
  1
\A1;60\U+00B0
 11
0.8660254037846897
 21
-0.4999999999995651
 31
0.0000000000000000
  7
STANDARD
  0
ENDBLK
  5
26C
100
AcDbEntity
  8
MAIN0
  6
CONTINUOUS
 62
3
100
AcDbBlockEnd
  0
BLOCK
  5
26E
100
AcDbEntity
  8
MAIN0
  6
CONTINUOUS
 62
3
100
AcDbBlockBegin
  2
*D29
 70
    65
 10
0.0
 20
0.0
 30
0.0
  0
LINE
  5
26F
100
AcDbEntity
  8
MAIN0
  6
BYBLOCK
 62
0
100
AcDbLine
 10
87.38043165853181
 20
187.5271991307426
 30
0.0000000000000000
 11
87.38043165853163
 21
144.8729334103671
 31
0.0000000000000000
  0
LINE
  5
270
100
AcDbEntity
  8
MAIN0
  6
BYBLOCK
 62
0
100
AcDbLine
 10
87.38043165853162
 20
146.8729334103671
 30
0.0000000000000000
 11
106.5304316585306
 21
146.8729334103671
 31
0.0000000000000000
  0
INSERT
  5
271
100
AcDbEntity
  8
MAIN0
  6
BYBLOCK
 62
0
100
AcDbBlockReference
  2
_OPEN
 10
87.38043165853162
 20
146.8729334103671
 30
0.0000000000000000
 41
2.000000000000000
 42
2.000000000000000
 43
2.000000000000000
 50
0.0000000000000000
  0
INSERT
  5
272
100
AcDbEntity
  8
MAIN0
  6
BYBLOCK
 62
0
100
AcDbBlockReference
  2
_OPEN
 10
106.5304316585306
 20
146.8729334103671
 30
0.0000000000000000
 41
2.000000000000000
 42
2.000000000000000
 43
2.000000000000000
 50
180.0000000000000
  0
LINE
  5
273
100
AcDbEntity
  8
MAIN0
  6
BYBLOCK
 62
0
100
AcDbLine
 10
85.38043165853162
 20
146.8729334103671
 30
0.0000000000000000
 11
84.38043165853162
 21
146.8729334103671
 31
0.0000000000000000
  0
LINE
  5
274
100
AcDbEntity
  8
MAIN0
  6
BYBLOCK
 62
0
100
AcDbLine
 10
108.5304316585306
 20
146.8729334103671
 30
0.0000000000000000
 11
109.5304316585306
 21
146.8729334103671
 31
0.0000000000000000
  0
LINE
  5
275
100
AcDbEntity
  8
MAIN0
  6
BYBLOCK
 62
0
100
AcDbLine
 10
106.5304316585305
 20
187.5271991307426
 30
0.0000000000000000
 11
106.5304316585306
 21
144.8729334103671
 31
0.0000000000000000
  0
MTEXT
  5
276
100
AcDbEntity
  8
MAIN0
  6
BYBLOCK
 62
0
100
AcDbMText
 10
96.95543171254781
 20
148.9229333626834
 30
0.0000000000000000
 40
3.099999904632568
 41
0.0000000000000000
 71
     5
 72
     1
  1
\A1;19.15\H0.903226x;\U+00B10.1
 11
1.000000000000000
 21
0.0000000000000000
 31
0.0000000000000000
  7
STANDARD
  0
ENDBLK
  5
277
100
AcDbEntity
  8
MAIN0
  6
CONTINUOUS
 62
3
100
AcDbBlockEnd
  0
BLOCK
  5
279
100
AcDbEntity
  8
MAIN0
  6
CONTINUOUS
 62
3
100
AcDbBlockBegin
  2
*D30
 70
    65
 10
0.0
 20
0.0
 30
0.0
  0
LINE
  5
27A
100
AcDbEntity
  8
MAIN0
  6
BYBLOCK
 62
0
100
AcDbLine
 10
78.95543165855708
 20
190.7865696917686
 30
0.0000000000000000
 11
78.95543165855713
 21
134.8729334103672
 31
0.0000000000000000
  0
LINE
  5
27B
100
AcDbEntity
  8
MAIN0
  6
BYBLOCK
 62
0
100
AcDbLine
 10
80.95543165855713
 20
136.8729334103671
 30
0.0000000000000000
 11
112.9554316585571
 21
136.8729334103671
 31
0.0000000000000000
  0
INSERT
  5
27C
100
AcDbEntity
  8
MAIN0
  6
BYBLOCK
 62
0
100
AcDbBlockReference
  2
_OPEN
 10
78.95543165855713
 20
136.8729334103671
 30
0.0000000000000000
 41
2.000000000000000
 42
2.000000000000000
 43
2.000000000000000
 50
180.0000000000000
  0
INSERT
  5
27D
100
AcDbEntity
  8
MAIN0
  6
BYBLOCK
 62
0
100
AcDbBlockReference
  2
_OPEN
 10
114.9554316585571
 20
136.8729334103671
 30
0.0000000000000000
 41
2.000000000000000
 42
2.000000000000000
 43
2.000000000000000
 50
0.0000000000000000
  0
LINE
  5
27E
100
AcDbEntity
  8
MAIN0
  6
BYBLOCK
 62
0
100
AcDbLine
 10
114.9554316585571
 20
190.7865696918085
 30
0.0000000000000000
 11
114.9554316585571
 21
134.8729334103671
 31
0.0000000000000000
  0
MTEXT
  5
27F
100
AcDbEntity
  8
MAIN0
  6
BYBLOCK
 62
0
100
AcDbMText
 10
96.95543163993068
 20
138.9229333626834
 30
0.0000000000000000
 40
3.099999904632568
 41
0.0000000000000000
 71
     5
 72
     1
  1
\A1;36\H0.903226x;\U+00B10.2
 11
1.000000000000000
 21
0.0000000000000000
 31
0.0000000000000000
  7
STANDARD
  0
ENDBLK
  5
280
100
AcDbEntity
  8
MAIN0
  6
CONTINUOUS
 62
3
100
AcDbBlockEnd
  0
BLOCK
  5
282
100
AcDbEntity
  8
MAIN0
  6
CONTINUOUS
 62
3
100
AcDbBlockBegin
  2
*D31
 70
    65
 10
0.0
 20
0.0
 30
0.0
  0
LINE
  5
283
100
AcDbEntity
  8
MAIN0
  6
BYBLOCK
 62
0
100
AcDbLine
 10
68.95543165864820
 20
213.0729333980825
 30
0.0000000000000000
 11
68.95543165864820
 21
124.8729334103671
 31
0.0000000000000000
  0
LINE
  5
284
100
AcDbEntity
  8
MAIN0
  6
BYBLOCK
 62
0
100
AcDbLine
 10
70.95543165864820
 20
126.8729334103671
 30
0.0000000000000000
 11
122.9554316586481
 21
126.8729334103671
 31
0.0000000000000000
  0
INSERT
  5
285
100
AcDbEntity
  8
MAIN0
  6
BYBLOCK
 62
0
100
AcDbBlockReference
  2
_OPEN
 10
68.95543165864820
 20
126.8729334103671
 30
0.0000000000000000
 41
2.000000000000000
 42
2.000000000000000
 43
2.000000000000000
 50
180.0000000000000
  0
INSERT
  5
286
100
AcDbEntity
  8
MAIN0
  6
BYBLOCK
 62
0
100
AcDbBlockReference
  2
_OPEN
 10
124.9554316586481
 20
126.8729334103671
 30
0.0000000000000000
 41
2.000000000000000
 42
2.000000000000000
 43
2.000000000000000
 50
0.0000000000000000
  0
LINE
  5
287
100
AcDbEntity
  8
MAIN0
  6
BYBLOCK
 62
0
100
AcDbLine
 10
124.9554316586481
 20
213.0729333980825
 30
0.0000000000000000
 11
124.9554316586481
 21
124.8729334103671
 31
0.0000000000000000
  0
MTEXT
  5
288
100
AcDbEntity
  8
MAIN0
  6
BYBLOCK
 62
0
100
AcDbMText
 10
96.95543167541194
 20
128.9229333626834
 30
0.0000000000000000
 40
3.099999904632568
 41
0.0000000000000000
 71
     5
 72
     1
  1
\A1;56\H0.903226x;\U+00B10.02
 11
1.000000000000000
 21
0.0000000000000000
 31
0.0000000000000000
  7
STANDARD
  0
ENDBLK
  5
289
100
AcDbEntity
  8
MAIN0
  6
CONTINUOUS
 62
3
100
AcDbBlockEnd
  0
BLOCK
  5
28B
100
AcDbEntity
  8
MAIN0
  6
CONTINUOUS
 62
3
100
AcDbBlockBegin
  2
*D32
 70
    65
 10
0.0
 20
0.0
 30
0.0
  0
LINE
  5
28C
100
AcDbEntity
  8
MAIN0
  6
BYBLOCK
 62
0
100
AcDbLine
 10
78.27756235020851
 20
241.1229334099638
 30
0.0000000000000000
 11
39.11033423040905
 21
241.1229334099639
 31
0.0000000000000000
  0
LINE
  5
28D
100
AcDbEntity
  8
MAIN0
  6
BYBLOCK
 62
0
100
AcDbLine
 10
41.11033423040908
 20
239.1229334099638
 30
0.0000000000000000
 11
41.11033423040908
 21
218.8729334100034
 31
0.0000000000000000
  0
INSERT
  5
28E
100
AcDbEntity
  8
MAIN0
  6
BYBLOCK
 62
0
100
AcDbBlockReference
  2
_OPEN
 10
41.11033423040908
 20
241.1229334099638
 30
0.0000000000000000
 41
2.000000000000000
 42
2.000000000000000
 43
2.000000000000000
 50
90.00000000000000
  0
INSERT
  5
28F
100
AcDbEntity
  8
MAIN0
  6
BYBLOCK
 62
0
100
AcDbBlockReference
  2
_OPEN
 10
41.11033423040908
 20
216.8729334100034
 30
0.0000000000000000
 41
2.000000000000000
 42
2.000000000000000
 43
2.000000000000000
 50
270.0000000000000
  0
LINE
  5
290
100
AcDbEntity
  8
MAIN0
  6
BYBLOCK
 62
0
100
AcDbLine
 10
54.11973366034511
 20
216.8729334100034
 30
0.0000000000000000
 11
39.11033423040908
 21
216.8729334100034
 31
0.0000000000000000
  0
MTEXT
  5
291
100
AcDbEntity
  8
MAIN0
  6
BYBLOCK
 62
0
100
AcDbMText
 10
39.06033427809280
 20
228.9979334640003
 30
0.0000000000000000
 40
3.099999904632568
 41
0.0000000000000000
 71
     5
 72
     1
  1
\A1;24.25\H0.903226x;\U+00B10.1
 11
6.123233995736766e-017
 21
1.000000000000000
 31
0.0000000000000000
  7
STANDARD
  0
ENDBLK
  5
292
100
AcDbEntity
  8
MAIN0
  6
CONTINUOUS
 62
3
100
AcDbBlockEnd
  0
BLOCK
  5
294
100
AcDbEntity
  8
MAIN0
  6
CONTINUOUS
 62
3
100
AcDbBlockBegin
  2
*D33
 70
    65
 10
0.0
 20
0.0
 30
0.0
  0
LINE
  5
295
100
AcDbEntity
  8
MAIN0
  6
BYBLOCK
 62
0
100
AcDbLine
 10
54.11973366034511
 20
216.8729334100034
 30
0.0000000000000000
 11
39.11033423040908
 21
216.8729334100034
 31
0.0000000000000000
  0
LINE
  5
296
100
AcDbEntity
  8
MAIN0
  6
BYBLOCK
 62
0
100
AcDbLine
 10
41.11033423040908
 20
214.8729334100034
 30
0.0000000000000000
 11
41.11033423040908
 21
197.4229334099548
 31
0.0000000000000000
  0
INSERT
  5
297
100
AcDbEntity
  8
MAIN0
  6
BYBLOCK
 62
0
100
AcDbBlockReference
  2
_OPEN
 10
41.11033423040908
 20
216.8729334100034
 30
0.0000000000000000
 41
2.000000000000000
 42
2.000000000000000
 43
2.000000000000000
 50
90.00000000000000
  0
INSERT
  5
298
100
AcDbEntity
  8
MAIN0
  6
BYBLOCK
 62
0
100
AcDbBlockReference
  2
_OPEN
 10
41.11033423040908
 20
195.4229334099548
 30
0.0000000000000000
 41
2.000000000000000
 42
2.000000000000000
 43
2.000000000000000
 50
270.0000000000000
  0
LINE
  5
299
100
AcDbEntity
  8
MAIN0
  6
BYBLOCK
 62
0
100
AcDbLine
 10
74.23532079043298
 20
195.4229334099548
 30
0.0000000000000000
 11
39.11033423040908
 21
195.4229334099548
 31
0.0000000000000000
  0
MTEXT
  5
29A
100
AcDbEntity
  8
MAIN0
  6
BYBLOCK
 62
0
100
AcDbMText
 10
39.06033427809280
 20
206.1479334639958
 30
0.0000000000000000
 40
3.099999904632568
 41
0.0000000000000000
 71
     5
 72
     1
  1
\A1;21.45\H0.903226x;\U+00B10.1
 11
6.123233995736766e-017
 21
1.000000000000000
 31
0.0000000000000000
  7
STANDARD
  0
ENDBLK
  5
29B
100
AcDbEntity
  8
MAIN0
  6
CONTINUOUS
 62
3
100
AcDbBlockEnd
  0
BLOCK
  5
29D
100
AcDbEntity
  8
MAIN0
  6
CONTINUOUS
 62
3
100
AcDbBlockBegin
  2
*D34
 70
    65
 10
0.0
 20
0.0
 30
0.0
  0
LINE
  5
29E
100
AcDbEntity
  8
MAIN0
  6
BYBLOCK
 62
0
100
AcDbLine
 10
54.11973366034511
 20
216.8729334100034
 30
0.0000000000000000
 11
27.36067020289647
 21
216.8729334100034
 31
0.0000000000000000
  0
LINE
  5
29F
100
AcDbEntity
  8
MAIN0
  6
BYBLOCK
 62
0
100
AcDbLine
 10
29.36067020289647
 20
214.8729334100034
 30
0.0000000000000000
 11
29.36067020289647
 21
192.5729334099975
 31
0.0000000000000000
  0
INSERT
  5
2A0
100
AcDbEntity
  8
MAIN0
  6
BYBLOCK
 62
0
100
AcDbBlockReference
  2
_OPEN
 10
29.36067020289647
 20
216.8729334100034
 30
0.0000000000000000
 41
2.000000000000000
 42
2.000000000000000
 43
2.000000000000000
 50
90.00000000000000
  0
INSERT
  5
2A1
100
AcDbEntity
  8
MAIN0
  6
BYBLOCK
 62
0
100
AcDbBlockReference
  2
_OPEN
 10
29.36067020289647
 20
190.5729334099975
 30
0.0000000000000000
 41
2.000000000000000
 42
2.000000000000000
 43
2.000000000000000
 50
270.0000000000000
  0
LINE
  5
2A2
100
AcDbEntity
  8
MAIN0
  6
BYBLOCK
 62
0
100
AcDbLine
 10
83.92066946552592
 20
190.5729334099976
 30
0.0000000000000000
 11
27.36067020289641
 21
190.5729334099975
 31
0.0000000000000000
  0
MTEXT
  5
2A3
100
AcDbEntity
  8
MAIN0
  6
BYBLOCK
 62
0
100
AcDbMText
 10
27.31067025058019
 20
203.7229333205935
 30
0.0000000000000000
 40
3.099999904632568
 41
0.0000000000000000
 71
     5
 72
     1
  1
\A1;26.3\H0.903226x;\U+00B10.1
 11
6.123233995736766e-017
 21
1.000000000000000
 31
0.0000000000000000
  7
STANDARD
  0
ENDBLK
  5
2A4
100
AcDbEntity
  8
MAIN0
  6
CONTINUOUS
 62
3
100
AcDbBlockEnd
  0
BLOCK
  5
2A6
100
AcDbEntity
  8
MAIN0
  6
CONTINUOUS
 62
3
100
AcDbBlockBegin
  2
*D35
 70
    65
 10
0.0
 20
0.0
 30
0.0
  0
LINE
  5
2A7
100
AcDbEntity
  8
MAIN0
  6
BYBLOCK
 62
0
100
AcDbLine
 10
82.95543165849804
 20
245.5417927417517
 30
0.0000000000000000
 11
82.95543165849811
 21
283.8729334103672
 31
0.0000000000000000
  0
LINE
  5
2A8
100
AcDbEntity
  8
MAIN0
  6
BYBLOCK
 62
0
100
AcDbLine
 10
84.95543165849813
 20
281.8729334103672
 30
0.0000000000000000
 11
108.9554316584981
 21
281.8729334103672
 31
0.0000000000000000
  0
INSERT
  5
2A9
100
AcDbEntity
  8
MAIN0
  6
BYBLOCK
 62
0
100
AcDbBlockReference
  2
_OPEN
 10
82.95543165849813
 20
281.8729334103672
 30
0.0000000000000000
 41
2.000000000000000
 42
2.000000000000000
 43
2.000000000000000
 50
180.0000000000000
  0
INSERT
  5
2AA
100
AcDbEntity
  8
MAIN0
  6
BYBLOCK
 62
0
100
AcDbBlockReference
  2
_OPEN
 10
110.9554316584981
 20
281.8729334103672
 30
0.0000000000000000
 41
2.000000000000000
 42
2.000000000000000
 43
2.000000000000000
 50
0.0000000000000000
  0
LINE
  5
2AB
100
AcDbEntity
  8
MAIN0
  6
BYBLOCK
 62
0
100
AcDbLine
 10
110.9554316584980
 20
245.5417927417825
 30
0.0000000000000000
 11
110.9554316584981
 21
283.8729334103672
 31
0.0000000000000000
  0
MTEXT
  5
2AC
100
AcDbEntity
  8
MAIN0
  6
BYBLOCK
 62
0
100
AcDbMText
 10
96.95543163987168
 20
283.9229333626835
 30
0.0000000000000000
 40
3.099999904632568
 41
0.0000000000000000
 71
     5
 72
     1
  1
\A1;28\H0.903226x;\U+00B10.2
 11
1.000000000000000
 21
0.0000000000000000
 31
0.0000000000000000
  7
STANDARD
  0
ENDBLK
  5
2AD
100
AcDbEntity
  8
MAIN0
  6
CONTINUOUS
 62
3
100
AcDbBlockEnd
  0
BLOCK
  5
2AF
100
AcDbEntity
  8
MAIN0
  6
CONTINUOUS
 62
3
100
AcDbBlockBegin
  2
*D36
 70
    65
 10
0.0
 20
0.0
 30
0.0
  0
LINE
  5
2B0
100
AcDbEntity
  8
MAIN0
  6
BYBLOCK
 62
0
100
AcDbLine
 10
96.95543165852905
 20
172.3490230672978
 30
0.0000000000000000
 11
96.95543165852904
 21
157.6053561528100
 31
0.0000000000000000
  0
LINE
  5
2B1
100
AcDbEntity
  8
MAIN0
  6
BYBLOCK
 62
0
100
AcDbLine
 10
128.5163715434852
 20
198.6512162642976
 30
0.0000000000000000
 11
148.2826591816441
 21
187.2391447604080
 31
0.0000000000000000
  0
ARC
  5
2B2
100
AcDbEntity
  8
MAIN0
  6
BYBLOCK
 62
0
100
AcDbCircle
 10
96.95543165852905
 20
216.8729334268950
 30
0.0000000000000000
 40
57.26757727408495
100
AcDbArc
 50
272.0009849286573
 51
327.9990150384742
  0
INSERT
  5
2B3
100
AcDbEntity
  8
MAIN0
  6
BYBLOCK
 62
0
100
AcDbBlockReference
  2
_OPEN
 10
96.95543165852904
 20
159.6053561528100
 30
0.0000000000000000
 41
2.000000000000000
 42
2.000000000000000
 43
2.000000000000000
 50
180.0000000000000
  0
INSERT
  5
2B4
100
AcDbEntity
  8
MAIN0
  6
BYBLOCK
 62
0
100
AcDbBlockReference
  2
_OPEN
 10
146.5506083746489
 20
188.2391447614016
 30
0.0000000000000000
 41
2.000000000000000
 42
2.000000000000000
 43
2.000000000000000
 50
59.99999996713154
  0
MTEXT
  5
2B5
100
AcDbEntity
  8
MAIN0
  6
BYBLOCK
 62
0
100
AcDbMText
 10
134.2818017019764
 20
176.1823578022477
 30
0.0000000000000000
 40
3.099999904632568
 41
0.0000000000000000
 71
     5
 72
     1
  1
\A1;60\U+00B0
 11
0.7369134539809964
 21
0.6759871014611136
 31
0.0000000000000000
  7
STANDARD
  0
ENDBLK
  5
2B6
100
AcDbEntity
  8
MAIN0
  6
CONTINUOUS
 62
3
100
AcDbBlockEnd
  0
BLOCK
  5
2B8
100
AcDbEntity
  8
MAIN0
  6
CONTINUOUS
 62
3
100
AcDbBlockBegin
  2
*D37
 70
    65
 10
0.0
 20
0.0
 30
0.0
  0
LINE
  5
2B9
100
AcDbEntity
  8
MAIN0
  6
BYBLOCK
 62
0
100
AcDbLine
 10
128.5163715434852
 20
198.6512162642976
 30
0.0000000000000000
 11
148.2826591816441
 21
187.2391447604080
 31
0.0000000000000000
  0
LINE
  5
2BA
100
AcDbEntity
  8
MAIN0
  6
BYBLOCK
 62
0
100
AcDbLine
 10
140.5993376505667
 20
216.8729334109403
 30
0.0000000000000000
 11
156.2230089326140
 21
216.8729334292372
 31
0.0000000000000000
  0
ARC
  5
2BB
100
AcDbEntity
  8
MAIN0
  6
BYBLOCK
 62
0
100
AcDbCircle
 10
96.95543165852905
 20
216.8729334268950
 30
0.0000000000000000
 40
57.26757727408495
100
AcDbArc
 50
332.0009848957889
 51
357.9990150713427
  0
INSERT
  5
2BC
100
AcDbEntity
  8
MAIN0
  6
BYBLOCK
 62
0
100
AcDbBlockReference
  2
_OPEN
 10
146.5506083746489
 20
188.2391447614016
 30
0.0000000000000000
 41
2.000000000000000
 42
2.000000000000000
 43
2.000000000000000
 50
239.9999999671315
  0
INSERT
  5
2BD
100
AcDbEntity
  8
MAIN0
  6
BYBLOCK
 62
0
100
AcDbBlockReference
  2
_OPEN
 10
154.2230089326140
 20
216.8729334268950
 30
0.0000000000000000
 41
2.000000000000000
 42
2.000000000000000
 43
2.000000000000000
 50
90.00000000000000
  0
MTEXT
  5
2BE
100
AcDbEntity
  8
MAIN0
  6
BYBLOCK
 62
0
100
AcDbMText
 10
150.2915156546397
 20
202.5815727763017
 30
0.0000000000000000
 40
3.099999904632568
 41
0.0000000000000000
 71
     5
 72
     1
  1
\A1;30\U+00B0
 11
0.2588190453795788
 21
0.9659258262148308
 31
0.0000000000000000
  7
STANDARD
  0
ENDBLK
  5
2BF
100
AcDbEntity
  8
MAIN0
  6
CONTINUOUS
 62
3
100
AcDbBlockEnd
  0
BLOCK
  5
2C1
100
AcDbEntity
  8
MAIN0
  6
CONTINUOUS
 62
3
100
AcDbBlockBegin
  2
*D38
 70
    65
 10
0.0
 20
0.0
 30
0.0
  0
LINE
  5
2C2
100
AcDbEntity
  8
MAIN0
  6
BYBLOCK
 62
0
100
AcDbLine
 10
140.5993376505667
 20
216.8729334109403
 30
0.0000000000000000
 11
156.2230089326140
 21
216.8729334292372
 31
0.0000000000000000
  0
LINE
  5
2C3
100
AcDbEntity
  8
MAIN0
  6
BYBLOCK
 62
0
100
AcDbLine
 10
125.1445585623485
 20
233.1479334154230
 30
0.0000000000000000
 11
148.2826592166975
 21
246.5067220326677
 31
0.0000000000000000
  0
ARC
  5
2C4
100
AcDbEntity
  8
MAIN0
  6
BYBLOCK
 62
0
100
AcDbCircle
 10
96.95543165852905
 20
216.8729334268950
 30
0.0000000000000000
 40
57.26757727408495
100
AcDbArc
 50
2.000984928657358
 51
27.99901503677950
  0
INSERT
  5
2C5
100
AcDbEntity
  8
MAIN0
  6
BYBLOCK
 62
0
100
AcDbBlockReference
  2
_OPEN
 10
154.2230089326140
 20
216.8729334268950
 30
0.0000000000000000
 41
2.000000000000000
 42
2.000000000000000
 43
2.000000000000000
 50
270.0000000000000
  0
INSERT
  5
2C6
100
AcDbEntity
  8
MAIN0
  6
BYBLOCK
 62
0
100
AcDbBlockReference
  2
_OPEN
 10
146.5506084083481
 20
245.5067220340196
 30
0.0000000000000000
 41
2.000000000000000
 42
2.000000000000000
 43
2.000000000000000
 50
119.9999999654369
  0
MTEXT
  5
2C7
100
AcDbEntity
  8
MAIN0
  6
BYBLOCK
 62
0
100
AcDbMText
 10
154.2518114590369
 20
232.2254521051454
 30
0.0000000000000000
 40
3.099999904632568
 41
0.0000000000000000
 71
     5
 72
     1
  1
\A1;30\U+00B0
 11
0.2588190448111777
 21
-0.9659258263671334
 31
0.0000000000000000
  7
STANDARD
  0
ENDBLK
  5
2C8
100
AcDbEntity
  8
MAIN0
  6
CONTINUOUS
 62
3
100
AcDbBlockEnd
  0
BLOCK
  5
2CA
100
AcDbEntity
  8
MAIN0
  6
CONTINUOUS
 62
3
100
AcDbBlockBegin
  2
*D39
 70
    65
 10
0.0
 20
0.0
 30
0.0
  0
LINE
  5
2CB
100
AcDbEntity
  8
MAIN0
  6
BYBLOCK
 62
0
100
AcDbLine
 10
125.1445585623485
 20
233.1479334154230
 30
0.0000000000000000
 11
148.2826592166975
 21
246.5067220326677
 31
0.0000000000000000
  0
LINE
  5
2CC
100
AcDbEntity
  8
MAIN0
  6
BYBLOCK
 62
0
100
AcDbLine
 10
96.95543165852905
 20
260.3674525277928
 30
0.0000000000000000
 11
96.95543165852905
 21
276.1405107009799
 31
0.0000000000000000
  0
ARC
  5
2CD
100
AcDbEntity
  8
MAIN0
  6
BYBLOCK
 62
0
100
AcDbCircle
 10
96.95543165852905
 20
216.8729334268950
 30
0.0000000000000000
 40
57.26757727408495
100
AcDbArc
 50
32.00098489409421
 51
87.99901507134263
  0
INSERT
  5
2CE
100
AcDbEntity
  8
MAIN0
  6
BYBLOCK
 62
0
100
AcDbBlockReference
  2
_OPEN
 10
146.5506084083481
 20
245.5067220340196
 30
0.0000000000000000
 41
2.000000000000000
 42
2.000000000000000
 43
2.000000000000000
 50
299.9999999654369
  0
INSERT
  5
2CF
100
AcDbEntity
  8
MAIN0
  6
BYBLOCK
 62
0
100
AcDbBlockReference
  2
_OPEN
 10
96.95543165852905
 20
274.1405107009799
 30
0.0000000000000000
 41
2.000000000000000
 42
2.000000000000000
 43
2.000000000000000
 50
180.0000000000000
  0
MTEXT
  5
2D0
100
AcDbEntity
  8
MAIN0
  6
BYBLOCK
 62
0
100
AcDbMText
 10
126.6142202872241
 20
268.2434621869581
 30
0.0000000000000000
 40
3.099999904632568
 41
0.0000000000000000
 71
     5
 72
     1
  1
\A1;60\U+00B0
 11
0.8660254036336283
 21
-0.5000000002612111
 31
0.0000000000000000
  7
STANDARD
  0
ENDBLK
  5
2D1
100
AcDbEntity
  8
MAIN0
  6
CONTINUOUS
 62
3
100
AcDbBlockEnd
  0
BLOCK
  5
2D3
100
AcDbEntity
  8
MAIN0
  6
CONTINUOUS
 62
3
100
AcDbBlockBegin
  2
*D40
 70
    65
 10
0.0
 20
0.0
 30
0.0
  0
LINE
  5
2D4
100
AcDbEntity
  8
MAIN0
  6
BYBLOCK
 62
0
100
AcDbLine
 10
96.95543165852905
 20
172.3490230672978
 30
0.0000000000000000
 11
96.95543165852905
 21
167.6048466790930
 31
0.0000000000000000
  0
LINE
  5
2D5
100
AcDbEntity
  8
MAIN0
  6
BYBLOCK
 62
0
100
AcDbLine
 10
108.6823241041578
 20
184.6535612189053
 30
0.0000000000000000
 11
113.8061097448424
 21
170.5760758689290
 31
0.0000000000000000
  0
ARC
  5
2D6
100
AcDbEntity
  8
MAIN0
  6
BYBLOCK
 62
0
100
AcDbCircle
 10
96.95543165852905
 20
216.8729334138045
 30
0.0000000000000000
 40
47.26808673471155
100
AcDbArc
 50
272.4242901911664
 51
287.5757098087418
  0
INSERT
  5
2D7
100
AcDbEntity
  8
MAIN0
  6
BYBLOCK
 62
0
100
AcDbBlockReference
  2
_OPEN
 10
96.95543165852904
 20
169.6048466790930
 30
0.0000000000000000
 41
2.000000000000000
 42
2.000000000000000
 43
2.000000000000000
 50
180.0000000000000
  0
INSERT
  5
2D8
100
AcDbEntity
  8
MAIN0
  6
BYBLOCK
 62
0
100
AcDbBlockReference
  2
_OPEN
 10
113.1220694581940
 20
172.4554611105019
 30
0.0000000000000000
 41
2.000000000000000
 42
2.000000000000000
 43
2.000000000000000
 50
19.99999999990814
  0
MTEXT
  5
2D9
100
AcDbEntity
  8
MAIN0
  6
BYBLOCK
 62
0
100
AcDbMText
 10
102.3116944690933
 20
171.9732026689057
 30
0.0000000000000000
 40
3.099999904632568
 41
0.0000000000000000
 71
     5
 72
     1
  1
\A1;20\U+00B0
 11
0.9929595420737577
 21
0.1184539902437792
 31
0.0000000000000000
  7
STANDARD
  0
ENDBLK
  5
2DA
100
AcDbEntity
  8
MAIN0
  6
CONTINUOUS
 62
3
100
AcDbBlockEnd
  0
BLOCK
  5
457
100
AcDbEntity
  8
MAIN0
  6
CONTINUOUS
 62
3
100
AcDbBlockBegin
  2
*D41
 70
    65
 10
0.0
 20
0.0
 30
0.0
  0
LINE
  5
458
100
AcDbEntity
  8
MAIN0
  6
BYBLOCK
 62
0
100
AcDbLine
 10
237.0987683230870
 20
140.0054836110624
 30
0.0000000000000000
 11
230.2438736920050
 21
140.0054836110624
 31
0.0000000000000000
  0
LINE
  5
459
100
AcDbEntity
  8
MAIN0
  6
BYBLOCK
 62
0
100
AcDbLine
 10
232.2438736920050
 20
140.0054836110624
 30
0.0000000000000000
 11
232.2438736920050
 21
137.0054836110624
 31
0.0000000000000000
  0
INSERT
  5
45A
100
AcDbEntity
  8
MAIN0
  6
BYBLOCK
 62
0
100
AcDbBlockReference
  2
_OPEN
 10
232.2438736920050
 20
140.0054836110624
 30
0.0000000000000000
 41
2.000000000000000
 42
2.000000000000000
 43
2.000000000000000
 50
270.0000000000000
  0
INSERT
  5
45B
100
AcDbEntity
  8
MAIN0
  6
BYBLOCK
 62
0
100
AcDbBlockReference
  2
_OPEN
 10
232.2438736920050
 20
137.0054836110624
 30
0.0000000000000000
 41
2.000000000000000
 42
2.000000000000000
 43
2.000000000000000
 50
90.00000000000000
  0
LINE
  5
45C
100
AcDbEntity
  8
MAIN0
  6
BYBLOCK
 62
0
100
AcDbLine
 10
232.2438736920050
 20
142.0054836110624
 30
0.0000000000000000
 11
232.2438736920050
 21
147.3876509503873
 31
0.0000000000000000
  0
LINE
  5
45D
100
AcDbEntity
  8
MAIN0
  6
BYBLOCK
 62
0
100
AcDbLine
 10
232.2438736920050
 20
135.0054836110624
 30
0.0000000000000000
 11
232.2438736920050
 21
134.0054836110624
 31
0.0000000000000000
  0
LINE
  5
45E
100
AcDbEntity
  8
MAIN0
  6
BYBLOCK
 62
0
100
AcDbLine
 10
237.0987683230870
 20
137.0054836110624
 30
0.0000000000000000
 11
230.2438736920050
 21
137.0054836110624
 31
0.0000000000000000
  0
MTEXT
  5
45F
100
AcDbEntity
  8
MAIN0
  6
BYBLOCK
 62
0
100
AcDbMText
 10
230.1938737396887
 20
145.0376511717245
 30
0.0000000000000000
 40
3.099999904632568
 41
0.0000000000000000
 71
     5
 72
     1
  1
\A1;\U+22053
 11
6.123233995736766e-017
 21
1.000000000000000
 31
0.0000000000000000
  7
STANDARD
  0
ENDBLK
  5
460
100
AcDbEntity
  8
MAIN0
  6
CONTINUOUS
 62
3
100
AcDbBlockEnd
  0
BLOCK
  5
462
100
AcDbEntity
  8
MAIN0
  6
CONTINUOUS
 62
3
100
AcDbBlockBegin
  2
*D42
 70
    65
 10
0.0
 20
0.0
 30
0.0
  0
LINE
  5
463
100
AcDbEntity
  8
MAIN0
  6
BYBLOCK
 62
0
100
AcDbLine
 10
246.0987683230872
 20
141.8054836110619
 30
0.0000000000000000
 11
222.7045615801646
 21
141.8054836110619
 31
0.0000000000000000
  0
LINE
  5
464
100
AcDbEntity
  8
MAIN0
  6
BYBLOCK
 62
0
100
AcDbLine
 10
224.7045615801646
 20
139.8054836110619
 30
0.0000000000000000
 11
224.7045615801646
 21
137.2054836110619
 31
0.0000000000000000
  0
INSERT
  5
465
100
AcDbEntity
  8
MAIN0
  6
BYBLOCK
 62
0
100
AcDbBlockReference
  2
_OPEN
 10
224.7045615801646
 20
141.8054836110619
 30
0.0000000000000000
 41
2.000000000000000
 42
2.000000000000000
 43
2.000000000000000
 50
90.00000000000000
  0
INSERT
  5
466
100
AcDbEntity
  8
MAIN0
  6
BYBLOCK
 62
0
100
AcDbBlockReference
  2
_OPEN
 10
224.7045615801646
 20
135.2054836110619
 30
0.0000000000000000
 41
2.000000000000000
 42
2.000000000000000
 43
2.000000000000000
 50
270.0000000000000
  0
LINE
  5
467
100
AcDbEntity
  8
MAIN0
  6
BYBLOCK
 62
0
100
AcDbLine
 10
224.7045615801646
 20
141.8054836110619
 30
0.0000000000000000
 11
224.7045615801646
 21
150.4608476476220
 31
0.0000000000000000
  0
LINE
  5
468
100
AcDbEntity
  8
MAIN0
  6
BYBLOCK
 62
0
100
AcDbLine
 10
246.0987683230869
 20
135.2054836110619
 30
0.0000000000000000
 11
222.7045615801646
 21
135.2054836110619
 31
0.0000000000000000
  0
MTEXT
  5
469
100
AcDbEntity
  8
MAIN0
  6
BYBLOCK
 62
0
100
AcDbMText
 10
222.6545616278483
 20
146.5108476393007
 30
0.0000000000000000
 40
3.099999904632568
 41
0.0000000000000000
 71
     5
 72
     1
  1
\A1;\U+22056.6
 11
6.123233995736766e-017
 21
1.000000000000000
 31
0.0000000000000000
  7
STANDARD
  0
ENDBLK
  5
46A
100
AcDbEntity
  8
MAIN0
  6
CONTINUOUS
 62
3
100
AcDbBlockEnd
  0
BLOCK
  5
46C
100
AcDbEntity
  8
MAIN0
  6
CONTINUOUS
 62
3
100
AcDbBlockBegin
  2
*D43
 70
    65
 10
0.0
 20
0.0
 30
0.0
  0
LINE
  5
46D
100
AcDbEntity
  8
MAIN0
  6
BYBLOCK
 62
0
100
AcDbLine
 10
247.8987683350079
 20
131.3521495116058
 30
0.0000000000000000
 11
247.8987683350080
 21
126.8111214917207
 31
0.0000000000000000
  0
LINE
  5
46E
100
AcDbEntity
  8
MAIN0
  6
BYBLOCK
 62
0
100
AcDbLine
 10
247.8987683350079
 20
128.8111214917207
 30
0.0000000000000000
 11
246.8987683350079
 21
128.8111214917207
 31
0.0000000000000000
  0
INSERT
  5
46F
100
AcDbEntity
  8
MAIN0
  6
BYBLOCK
 62
0
100
AcDbBlockReference
  2
_OPEN
 10
247.8987683350079
 20
128.8111214917207
 30
0.0000000000000000
 41
2.000000000000000
 42
2.000000000000000
 43
2.000000000000000
 50
180.0000000000000
  0
INSERT
  5
470
100
AcDbEntity
  8
MAIN0
  6
BYBLOCK
 62
0
100
AcDbBlockReference
  2
_OPEN
 10
246.8987683350079
 20
128.8111214917207
 30
0.0000000000000000
 41
2.000000000000000
 42
2.000000000000000
 43
2.000000000000000
 50
360.0000000000000
  0
LINE
  5
471
100
AcDbEntity
  8
MAIN0
  6
BYBLOCK
 62
0
100
AcDbLine
 10
249.8987683350079
 20
128.8111214917207
 30
0.0000000000000000
 11
250.8987683350079
 21
128.8111214917207
 31
0.0000000000000000
  0
LINE
  5
472
100
AcDbEntity
  8
MAIN0
  6
BYBLOCK
 62
0
100
AcDbLine
 10
244.8987683350079
 20
128.8111214917207
 30
0.0000000000000000
 11
243.5899354511730
 21
128.8111214917207
 31
0.0000000000000000
  0
LINE
  5
473
100
AcDbEntity
  8
MAIN0
  6
BYBLOCK
 62
0
100
AcDbLine
 10
246.8987683350079
 20
136.0224872784165
 30
0.0000000000000000
 11
246.8987683350079
 21
126.8111214917207
 31
0.0000000000000000
  0
MTEXT
  5
474
100
AcDbEntity
  8
MAIN0
  6
BYBLOCK
 62
0
100
AcDbMText
 10
244.6399355333067
 20
130.6944547773703
 30
0.0000000000000000
 40
3.099999904632568
 41
0.0000000000000000
 71
     5
 72
     1
  1
\A1;1
 11
1.000000000000000
 21
0.0000000000000000
 31
0.0000000000000000
  7
STANDARD
  0
ENDBLK
  5
475
100
AcDbEntity
  8
MAIN0
  6
CONTINUOUS
 62
3
100
AcDbBlockEnd
  0
BLOCK
  5
477
100
AcDbEntity
  8
MAIN0
  6
BYBLOCK
 62
3
100
AcDbBlockBegin
  2
*X0
 70
     1
 10
0.0
 20
0.0
 30
0.0
  0
LINE
  5
478
100
AcDbEntity
  8
MAIN0
  6
BYBLOCK
 62
0
100
AcDbLine
 10
249.3987683350013
 20
140.0054836110619
 30
0.0000000000000000
 11
254.2521024225355
 21
144.8588176985961
 31
0.0000000000000000
  0
LINE
  5
479
100
AcDbEntity
  8
MAIN0
  6
BYBLOCK
 62
0
100
AcDbLine
 10
248.4559592653209
 20
140.0054836110619
 30
0.0000000000000000
 11
253.3092933528547
 21
144.8588176985957
 31
0.0000000000000000
  0
LINE
  5
47A
100
AcDbEntity
  8
MAIN0
  6
BYBLOCK
 62
0
100
AcDbLine
 10
247.8987683350081
 20
140.3911017504291
 30
0.0000000000000000
 11
252.3664842831746
 21
144.8588176985956
 31
0.0000000000000000
  0
LINE
  5
47B
100
AcDbEntity
  8
MAIN0
  6
BYBLOCK
 62
0
100
AcDbLine
 10
247.9345547304847
 20
141.3696972155856
 30
0.0000000000000000
 11
251.4236752134947
 21
144.8588176985961
 31
0.0000000000000000
  0
LINE
  5
47C
100
AcDbEntity
  8
MAIN0
  6
BYBLOCK
 62
0
100
AcDbLine
 10
247.8987683350084
 20
142.2767198897897
 30
0.0000000000000000
 11
250.4808661438129
 21
144.8588176985942
 31
0.0000000000000000
  0
LINE
  5
47D
100
AcDbEntity
  8
MAIN0
  6
BYBLOCK
 62
0
100
AcDbLine
 10
247.8987683350089
 20
143.2195289594703
 30
0.0000000000000000
 11
249.5380570741342
 21
144.8588176985956
 31
0.0000000000000000
  0
LINE
  5
47E
100
AcDbEntity
  8
MAIN0
  6
BYBLOCK
 62
0
100
AcDbLine
 10
247.8987683350086
 20
144.1623380291509
 30
0.0000000000000000
 11
248.5952480044538
 21
144.8588176985952
 31
0.0000000000000000
  0
LINE
  5
47F
100
AcDbEntity
  8
MAIN0
  6
BYBLOCK
 62
0
100
AcDbLine
 10
250.3415774046819
 20
140.0054836110618
 30
0.0000000000000000
 11
255.1949114922140
 21
144.8588176985951
 31
0.0000000000000000
  0
LINE
  5
480
100
AcDbEntity
  8
MAIN0
  6
BYBLOCK
 62
0
100
AcDbLine
 10
251.2843864743609
 20
140.0054836110619
 30
0.0000000000000000
 11
256.1377205618929
 21
144.8588176985934
 31
0.0000000000000000
  0
LINE
  5
481
100
AcDbEntity
  8
MAIN0
  6
BYBLOCK
 62
0
100
AcDbLine
 10
251.9771955440416
 20
139.7554836110618
 30
0.0000000000000000
 11
257.0805296315745
 21
144.8588176985952
 31
0.0000000000000000
  0
LINE
  5
482
100
AcDbEntity
  8
MAIN0
  6
BYBLOCK
 62
0
100
AcDbLine
 10
252.9200046137222
 20
139.7554836110619
 30
0.0000000000000000
 11
257.8987683350056
 21
144.7342473323458
 31
0.0000000000000000
  0
LINE
  5
483
100
AcDbEntity
  8
MAIN0
  6
BYBLOCK
 62
0
100
AcDbLine
 10
253.8628136834019
 20
139.7554836110619
 30
0.0000000000000000
 11
257.8987683350079
 21
143.7914382626679
 31
0.0000000000000000
  0
LINE
  5
484
100
AcDbEntity
  8
MAIN0
  6
BYBLOCK
 62
0
100
AcDbLine
 10
254.8056227530818
 20
139.7554836110618
 30
0.0000000000000000
 11
257.8987683350078
 21
142.8486291929873
 31
0.0000000000000000
  0
LINE
  5
485
100
AcDbEntity
  8
MAIN0
  6
BYBLOCK
 62
0
100
AcDbLine
 10
255.7484318227625
 20
139.7554836110618
 30
0.0000000000000000
 11
257.8987683350075
 21
141.9058201233075
 31
0.0000000000000000
  0
LINE
  5
486
100
AcDbEntity
  8
MAIN0
  6
BYBLOCK
 62
0
100
AcDbLine
 10
256.6912408924422
 20
139.7554836110618
 30
0.0000000000000000
 11
257.8987683350074
 21
140.9630110536270
 31
0.0000000000000000
  0
ENDBLK
  5
487
100
AcDbEntity
  8
MAIN0
  6
BYBLOCK
 62
3
100
AcDbBlockEnd
  0
BLOCK
  5
489
100
AcDbEntity
  8
MAIN0
  6
BYBLOCK
 62
3
100
AcDbBlockBegin
  2
*X1
 70
     1
 10
0.0
 20
0.0
 30
0.0
  0
LINE
  5
48A
100
AcDbEntity
  8
MAIN0
  6
BYBLOCK
 62
0
100
AcDbLine
 10
247.8987683350088
 20
133.3054836110625
 30
0.0000000000000000
 11
251.5987683350082
 21
137.0054836110619
 31
0.0000000000000000
  0
LINE
  5
48B
100
AcDbEntity
  8
MAIN0
  6
BYBLOCK
 62
0
100
AcDbLine
 10
247.8987683350082
 20
134.2482926807417
 30
0.0000000000000000
 11
250.6559592653277
 21
137.0054836110619
 31
0.0000000000000000
  0
LINE
  5
48C
100
AcDbEntity
  8
MAIN0
  6
BYBLOCK
 62
0
100
AcDbLine
 10
247.8987683350078
 20
135.1911017504219
 30
0.0000000000000000
 11
249.7131501956478
 21
137.0054836110618
 31
0.0000000000000000
  0
LINE
  5
48D
100
AcDbEntity
  8
MAIN0
  6
BYBLOCK
 62
0
100
AcDbLine
 10
247.8987683350078
 20
132.3626745413810
 30
0.0000000000000000
 11
252.7915774046881
 21
137.2554836110619
 31
0.0000000000000000
  0
LINE
  5
48E
100
AcDbEntity
  8
MAIN0
  6
BYBLOCK
 62
0
100
AcDbLine
 10
248.6310523868324
 20
132.1521495235258
 30
0.0000000000000000
 11
253.7343864743685
 21
137.2554836110618
 31
0.0000000000000000
  0
LINE
  5
48F
100
AcDbEntity
  8
MAIN0
  6
BYBLOCK
 62
0
100
AcDbLine
 10
249.5738614565126
 20
132.1521495235263
 30
0.0000000000000000
 11
254.6771955440493
 21
137.2554836110619
 31
0.0000000000000000
  0
LINE
  5
490
100
AcDbEntity
  8
MAIN0
  6
BYBLOCK
 62
0
100
AcDbLine
 10
250.5166705261933
 20
132.1521495235259
 30
0.0000000000000000
 11
255.6200046137283
 21
137.2554836110620
 31
0.0000000000000000
  0
LINE
  5
491
100
AcDbEntity
  8
MAIN0
  6
BYBLOCK
 62
0
100
AcDbLine
 10
251.4594795958737
 20
132.1521495235268
 30
0.0000000000000000
 11
256.5628136834082
 21
137.2554836110618
 31
0.0000000000000000
  0
LINE
  5
492
100
AcDbEntity
  8
MAIN0
  6
BYBLOCK
 62
0
100
AcDbLine
 10
252.4022886655537
 20
132.1521495235267
 30
0.0000000000000000
 11
257.5056227530894
 21
137.2554836110618
 31
0.0000000000000000
  0
LINE
  5
493
100
AcDbEntity
  8
MAIN0
  6
BYBLOCK
 62
0
100
AcDbLine
 10
253.3450977352327
 20
132.1521495235254
 30
0.0000000000000000
 11
257.8987683350078
 21
136.7058201233006
 31
0.0000000000000000
  0
LINE
  5
494
100
AcDbEntity
  8
MAIN0
  6
BYBLOCK
 62
0
100
AcDbLine
 10
254.2879068049130
 20
132.1521495235253
 30
0.0000000000000000
 11
257.8987683350094
 21
135.7630110536217
 31
0.0000000000000000
  0
LINE
  5
495
100
AcDbEntity
  8
MAIN0
  6
BYBLOCK
 62
0
100
AcDbLine
 10
255.2307158745930
 20
132.1521495235258
 30
0.0000000000000000
 11
257.8987683350083
 21
134.8202019839402
 31
0.0000000000000000
  0
LINE
  5
496
100
AcDbEntity
  8
MAIN0
  6
BYBLOCK
 62
0
100
AcDbLine
 10
256.1735249442731
 20
132.1521495235253
 30
0.0000000000000000
 11
257.8987683350102
 21
133.8773929142624
 31
0.0000000000000000
  0
LINE
  5
497
100
AcDbEntity
  8
MAIN0
  6
BYBLOCK
 62
0
100
AcDbLine
 10
257.1163340139534
 20
132.1521495235253
 30
0.0000000000000000
 11
257.8987683350089
 21
132.9345838445808
 31
0.0000000000000000
  0
ENDBLK
  5
498
100
AcDbEntity
  8
MAIN0
  6
BYBLOCK
 62
3
100
AcDbBlockEnd
  0
BLOCK
  5
49A
100
AcDbEntity
  8
MAIN0
  6
BYBLOCK
 62
3
100
AcDbBlockBegin
  2
*X2
 70
     1
 10
0.0
 20
0.0
 30
0.0
  0
LINE
  5
49B
100
AcDbEntity
  8
MAIN0
  6
BYBLOCK
 62
0
100
AcDbLine
 10
243.0454342474730
 20
140.0054836110621
 30
0.0000000000000000
 11
247.8987683350102
 21
144.8588176985992
 31
0.0000000000000000
  0
LINE
  5
49C
100
AcDbEntity
  8
MAIN0
  6
BYBLOCK
 62
0
100
AcDbLine
 10
241.1598161081133
 20
140.0054836110622
 30
0.0000000000000000
 11
246.0131501956494
 21
144.8588176985989
 31
0.0000000000000000
  0
LINE
  5
49D
100
AcDbEntity
  8
MAIN0
  6
BYBLOCK
 62
0
100
AcDbLine
 10
239.2741979687520
 20
140.0054836110622
 30
0.0000000000000000
 11
244.1275320562900
 21
144.8588176985997
 31
0.0000000000000000
  0
LINE
  5
49E
100
AcDbEntity
  8
MAIN0
  6
BYBLOCK
 62
0
100
AcDbLine
 10
237.8987683350080
 20
140.5156721166781
 30
0.0000000000000000
 11
242.2419139169283
 21
144.8588176985984
 31
0.0000000000000000
  0
LINE
  5
49F
100
AcDbEntity
  8
MAIN0
  6
BYBLOCK
 62
0
100
AcDbLine
 10
237.8987683350083
 20
142.4012902560386
 30
0.0000000000000000
 11
240.3562957775694
 21
144.8588176985997
 31
0.0000000000000000
  0
LINE
  5
4A0
100
AcDbEntity
  8
MAIN0
  6
BYBLOCK
 62
0
100
AcDbLine
 10
237.8987683350087
 20
144.2869083953993
 30
0.0000000000000000
 11
238.4706776382090
 21
144.8588176986001
 31
0.0000000000000000
  0
LINE
  5
4A1
100
AcDbEntity
  8
MAIN0
  6
BYBLOCK
 62
0
100
AcDbLine
 10
244.9310523868337
 20
140.0054836110621
 30
0.0000000000000000
 11
247.8987683350081
 21
142.9731995592379
 31
0.0000000000000000
  0
ENDBLK
  5
4A2
100
AcDbEntity
  8
MAIN0
  6
BYBLOCK
 62
3
100
AcDbBlockEnd
  0
BLOCK
  5
4A4
100
AcDbEntity
  8
MAIN0
  6
BYBLOCK
 62
3
100
AcDbBlockBegin
  2
*X3
 70
     1
 10
0.0
 20
0.0
 30
0.0
  0
LINE
  5
4A5
100
AcDbEntity
  8
MAIN0
  6
BYBLOCK
 62
0
100
AcDbLine
 10
238.5454342474765
 20
132.1521495235299
 30
0.0000000000000000
 11
243.3987683350086
 21
137.0054836110621
 31
0.0000000000000000
  0
LINE
  5
4A6
100
AcDbEntity
  8
MAIN0
  6
BYBLOCK
 62
0
100
AcDbLine
 10
237.8987683350066
 20
133.3911017504208
 30
0.0000000000000000
 11
241.5131501956486
 21
137.0054836110622
 31
0.0000000000000000
  0
LINE
  5
4A7
100
AcDbEntity
  8
MAIN0
  6
BYBLOCK
 62
0
100
AcDbLine
 10
237.8987683350097
 20
135.2767198897843
 30
0.0000000000000000
 11
239.6275320562898
 21
137.0054836110622
 31
0.0000000000000000
  0
LINE
  5
4A8
100
AcDbEntity
  8
MAIN0
  6
BYBLOCK
 62
0
100
AcDbLine
 10
240.4310523868361
 20
132.1521495235290
 30
0.0000000000000000
 11
245.2843864743686
 21
137.0054836110620
 31
0.0000000000000000
  0
LINE
  5
4A9
100
AcDbEntity
  8
MAIN0
  6
BYBLOCK
 62
0
100
AcDbLine
 10
242.3166705261952
 20
132.1521495235281
 30
0.0000000000000000
 11
246.8987683350080
 21
136.7342473323404
 31
0.0000000000000000
  0
LINE
  5
4AA
100
AcDbEntity
  8
MAIN0
  6
BYBLOCK
 62
0
100
AcDbLine
 10
244.2022886655569
 20
132.1521495235295
 30
0.0000000000000000
 11
247.3271955440486
 21
135.2770564020213
 31
0.0000000000000000
  0
LINE
  5
4AB
100
AcDbEntity
  8
MAIN0
  6
BYBLOCK
 62
0
100
AcDbLine
 10
246.0879068049172
 20
132.1521495235300
 30
0.0000000000000000
 11
247.8987683350080
 21
133.9630110536194
 31
0.0000000000000000
  0
ENDBLK
  5
4AC
100
AcDbEntity
  8
MAIN0
  6
BYBLOCK
 62
3
100
AcDbBlockEnd
  0
ENDSEC
  0
SECTION
  2
ENTITIES
  0
LINE
  5
46
100
AcDbEntity
  8
MAIN0
  6
CONTINUOUS
 62
3
100
AcDbLine
 10
250.5208312729249
 20
210.9229334102311
 30
0.0000000000000000
 11
250.5208312729248
 21
210.8729334099998
 31
0.0000000000000000
  0
ARC
  5
47
100
AcDbEntity
  8
MAIN0
  6
CONTINUOUS
 62
3
100
AcDbCircle
 10
250.7208312729250
 20
210.9229334102309
 30
0.0000000000000000
 40
0.2000000000000000
100
AcDbArc
 50
90.00000000000000
 51
180.0000000000000
  0
ARC
  5
48
100
AcDbEntity
  8
MAIN0
  6
CONTINUOUS
 62
3
100
AcDbCircle
 10
250.7208312729492
 20
222.8229334114472
 30
0.0000000000000000
 40
0.2000000000000000
100
AcDbArc
 50
179.9999999997674
 51
269.9999999997673
  0
LINE
  5
49
100
AcDbEntity
  8
MAIN0
  6
CONTINUOUS
 62
3
100
AcDbLine
 10
250.5208312729492
 20
222.8229334114478
 30
0.0000000000000000
 11
250.5208312729494
 21
222.8729334116790
 31
0.0000000000000000
  0
LINE
  5
4A
100
AcDbEntity
  8
MAIN0
  6
CONTINUOUS
 62
3
100
AcDbLine
 10
266.1208312729207
 20
212.3259280269536
 30
0.0000000000000000
 11
258.5208312729124
 21
212.3259280269536
 31
0.0000000000000000
  0
CIRCLE
  5
4B
100
AcDbEntity
  8
MAIN0
  6
CONTINUOUS
 62
3
100
AcDbCircle
 10
96.95543165852905
 20
216.8729334100034
 30
0.0000000000000000
 40
40.00000000000000
  0
DIMENSION
  5
54
100
AcDbEntity
  8
MAIN0
  6
CONTINUOUS
 62
3
100
AcDbDimension
  2
*D0
 10
184.6208312730633
 20
224.4729334102219
 30
0.0000000000000000
 11
184.1208312730633
 21
216.8729334102451
 31
0.0000000000000000
 70
32
  1
\A1;\U+220515.2
  3
MAIN001
100
AcDbAlignedDimension
 13
232.6880075110791
 23
209.2729334102684
 33
0.0000000000000000
 14
232.6705791483125
 24
224.4729334102219
 34
0.0000000000000000
 50
90.00000000000000
100
AcDbRotatedDimension
1001
ACAD
1000
DSTYLE
1002
{
1070
   173
1070
     1
1070
     6
1000
_OPEN
1070
     7
1000
_OPEN
1070
    41
1040
2.000000
1002
}
  0
DIMENSION
  5
5E
100
AcDbEntity
  8
MAIN0
  6
CONTINUOUS
 62
3
100
AcDbDimension
  2
*D1
 10
177.1208312730633
 20
226.8729334100220
 30
0.0000000000000000
 11
176.6208312730633
 21
211.2721447992095
 31
0.0000000000000000
 70
160
  1
\A1;\U+220520H8\H0.903226x;\S＋0.033^ 　0;
  3
MAIN001
100
AcDbAlignedDimension
 13
192.5208312730634
 23
206.8729334100220
 33
0.0000000000000000
 14
192.5208312730634
 24
226.8729334100220
 34
0.0000000000000000
 50
90.00000000000000
100
AcDbRotatedDimension
1001
ACAD
1000
DSTYLE
1002
{
1070
   173
1070
     1
1070
     6
1000
_OPEN
1070
     7
1000
_OPEN
1070
    41
1040
2.000000
1070
   272
1070
     3
1070
    47
1040
0.033000
1070
    48
1040
0.000000
1070
    71
1070
     1
1070
   340
1005
5F
1002
}
  0
DIMENSION
  5
68
100
AcDbEntity
  8
MAIN0
  6
CONTINUOUS
 62
3
100
AcDbDimension
  2
*D2
 10
169.6208312730633
 20
250.3729334101263
 30
0.0000000000000000
 11
169.1208312730633
 21
216.8729334101263
 31
0.0000000000000000
 70
32
  1
\A1;\U+220567
  3
MAIN001
100
AcDbAlignedDimension
 13
192.5208312730633
 23
183.3729334101262
 33
0.0000000000000000
 14
192.3208312730632
 24
250.3729334101263
 34
0.0000000000000000
 50
90.00000000000000
100
AcDbRotatedDimension
1001
ACAD
1000
DSTYLE
1002
{
1070
   173
1070
     1
1070
     6
1000
_OPEN
1070
     7
1000
_OPEN
1070
    41
1040
2.000000
1002
}
  0
DIMENSION
  5
71
100
AcDbEntity
  8
MAIN0
  6
CONTINUOUS
 62
3
100
AcDbDimension
  2
*D3
 10
162.1208312730633
 20
256.8729334100166
 30
0.0000000000000000
 11
161.6208312730633
 21
216.8729334101253
 31
0.0000000000000000
 70
32
  1
\A1;\U+220580
  3
MAIN001
100
AcDbAlignedDimension
 13
229.9208312730820
 23
176.8729334102339
 33
0.0000000000000000
 14
229.9208312730819
 24
256.8729334100166
 34
0.0000000000000000
 50
90.00000000000000
100
AcDbRotatedDimension
1001
ACAD
1000
DSTYLE
1002
{
1070
   173
1070
     1
1070
     6
1000
_OPEN
1070
     7
1000
_OPEN
1070
    41
1040
2.000000
1002
}
  0
DIMENSION
  5
7B
100
AcDbEntity
  8
MAIN0
  6
CONTINUOUS
 62
3
100
AcDbDimension
  2
*D4
 10
192.1208312730633
 20
201.0538608454646
 30
0.0000000000000000
 11
186.5055604983670
 21
201.5538608454646
 31
0.0000000000000000
 70
160
  3
MAIN001
100
AcDbAlignedDimension
 13
195.6208312730633
 23
206.8729334100220
 33
0.0000000000000000
 14
192.1208312730633
 24
183.7729334101263
 34
0.0000000000000000
100
AcDbRotatedDimension
1001
ACAD
1000
DSTYLE
1002
{
1070
   173
1070
     1
1070
     6
1000
_OPEN
1070
     7
1000
_OPEN
1070
    41
1040
2.000000
1070
   287
1070
     0
1002
}
  0
DIMENSION
  5
84
100
AcDbEntity
  8
MAIN0
  6
CONTINUOUS
 62
3
100
AcDbDimension
  2
*D5
 10
229.5208312730777
 20
264.0146765633957
 30
0.0000000000000000
 11
234.5208312730801
 21
264.5146765633957
 31
0.0000000000000000
 70
32
  3
MAIN001
100
AcDbAlignedDimension
 13
239.5208312730825
 23
256.8729334100338
 33
0.0000000000000000
 14
229.5208312730816
 24
256.4729334100159
 34
0.0000000000000000
100
AcDbRotatedDimension
1001
ACAD
1000
DSTYLE
1002
{
1070
   173
1070
     1
1070
     6
1000
_OPEN
1070
     7
1000
_OPEN
1070
    41
1040
2.000000
1002
}
  0
DIMENSION
  5
8D
100
AcDbEntity
  8
MAIN0
  6
CONTINUOUS
 62
3
100
AcDbDimension
  2
*D6
 10
282.1208312730633
 20
230.3729334103029
 30
0.0000000000000000
 11
281.6208312730633
 21
212.5603051191609
 31
0.0000000000000000
 70
160
  1
\A1;\U+220527H7\H0.903226x;\S＋0.021^ 　0;
  3
MAIN001
100
AcDbAlignedDimension
 13
237.7887804655050
 23
203.3729334103029
 33
0.0000000000000000
 14
237.7887804655050
 24
230.3729334103029
 34
0.0000000000000000
 50
90.00000000000000
100
AcDbRotatedDimension
1001
ACAD
1000
DSTYLE
1002
{
1070
   173
1070
     1
1070
     6
1000
_OPEN
1070
     7
1000
_OPEN
1070
    41
1040
2.000000
1070
   272
1070
     3
1070
    47
1040
0.021000
1070
    48
1040
0.000000
1070
    71
1070
     1
1070
   340
1005
5F
1002
}
  0
DIMENSION
  5
96
100
AcDbEntity
  8
MAIN0
  6
CONTINUOUS
 62
3
100
AcDbDimension
  2
*D7
 10
289.6208312730633
 20
257.8729334100408
 30
0.0000000000000000
 11
289.1208312730633
 21
216.8729334100293
 31
0.0000000000000000
 70
32
  1
\A1;\U+220582
  3
MAIN001
100
AcDbAlignedDimension
 13
249.3208312730811
 23
175.8729334100177
 33
0.0000000000000000
 14
249.3208312730811
 24
257.8729334100493
 34
0.0000000000000000
 50
90.00000000000000
100
AcDbRotatedDimension
1001
ACAD
1000
DSTYLE
1002
{
1070
   173
1070
     1
1070
     6
1000
_OPEN
1070
     7
1000
_OPEN
1070
    41
1040
2.000000
1002
}
  0
DIMENSION
  5
A0
100
AcDbEntity
  8
MAIN0
  6
CONTINUOUS
 62
3
100
AcDbDimension
  2
*D8
 10
251.5208312730462
 20
169.1722132233628
 30
0.0000000000000000
 11
258.8299889429408
 21
169.6722132233628
 31
0.0000000000000000
 70
160
  3
MAIN001
100
AcDbAlignedDimension
 13
239.5208312730765
 23
195.7755698969575
 33
0.0000000000000000
 14
251.5208312730471
 24
180.0729334100335
 34
0.0000000000000000
100
AcDbRotatedDimension
1001
ACAD
1000
DSTYLE
1002
{
1070
   173
1070
     1
1070
     6
1000
_OPEN
1070
     7
1000
_OPEN
1070
    41
1040
2.000000
1002
}
  0
DIMENSION
  5
A9
100
AcDbEntity
  8
MAIN0
  6
CONTINUOUS
 62
3
100
AcDbDimension
  2
*D9
 10
239.5208312730765
 20
169.1722132233628
 30
0.0000000000000000
 11
215.8208312730699
 21
169.6722132233628
 31
0.0000000000000000
 70
32
  3
MAIN001
100
AcDbAlignedDimension
 13
192.1208312730633
 23
183.7729334101263
 33
0.0000000000000000
 14
239.5208312730765
 24
195.7755698969575
 34
0.0000000000000000
100
AcDbRotatedDimension
1001
ACAD
1000
DSTYLE
1002
{
1070
   173
1070
     1
1070
     6
1000
_OPEN
1070
     7
1000
_OPEN
1070
    41
1040
2.000000
1002
}
  0
MTEXT
  5
AA
100
AcDbEntity
  8
MAIN0
  6
CONTINUOUS
 62
3
100
AcDbMText
 10
255.9761626925214
 20
167.7245319765039
 30
0.0000000000000000
 40
3.099999904632568
 41
0.0000000000000000
 71
     1
 72
     1
  1
{\H0.66x;{MAX 13\PMIN 11.5}}
 11
1.000000000000000
 21
0.0000000000000000
 31
0.0000000000000000
  7
STANDARD
  0
DIMENSION
  5
B4
100
AcDbEntity
  8
MAIN0
  6
CONTINUOUS
 62
3
100
AcDbDimension
  2
*D10
 10
239.5208312730718
 20
240.2099951257746
 30
0.0000000000000000
 11
277.8297114460676
 21
240.7099951257746
 31
0.0000000000000000
 70
160
  1
\A1;MAX 26.6
  3
MAIN001
100
AcDbAlignedDimension
 13
266.1208312729480
 23
224.7729334124423
 33
0.0000000000000000
 14
239.5208312730718
 24
236.0165410371257
 34
0.0000000000000000
100
AcDbRotatedDimension
1001
ACAD
1000
DSTYLE
1002
{
1070
   173
1070
     1
1070
     6
1000
_OPEN
1070
     7
1000
_OPEN
1070
    41
1040
2.000000
1002
}
  0
MTEXT
  5
B5
100
AcDbEntity
  8
MAIN0
  6
CONTINUOUS
 62
3
100
AcDbMText
 10
269.8554758170205
 20
239.6624804216441
 30
0.0000000000000000
 40
3.099999904632568
 41
0.0000000000000000
 71
     1
 72
     1
  1
{\H0.66x;{MIN 11.6}}
 11
1.000000000000000
 21
0.0000000000000000
 31
0.0000000000000000
  7
STANDARD
  0
DIMENSION
  5
BE
100
AcDbEntity
  8
MAIN0
  6
CONTINUOUS
 62
3
100
AcDbDimension
  2
*D11
 10
124.4517382286849
 20
232.7479334100034
 30
0.0000000000000000
 11
141.4491611607586
 21
234.3994795680997
 31
0.0000000000000000
 70
162
  3
MAIN001
100
AcDb2LineAngularDimension
 13
131.6853270127064
 23
224.8909615434754
 33
0.0000000000000000
 14
130.7109569479216
 24
224.6660104891299
 34
0.0000000000000000
 15
123.5857128249005
 25
232.2479334100034
 35
0.0000000000000000
 16
140.9839523767677
 26
234.2162289547372
 36
0.0000000000000000
1001
ACAD
1000
DSTYLE
1002
{
1070
   173
1070
     1
1070
     6
1000
_OPEN
1070
     7
1000
_OPEN
1070
    41
1040
2.000000
1002
}
  0
DIMENSION
  5
C7
100
AcDbEntity
  8
MAIN0
  6
CONTINUOUS
 62
3
100
AcDbDimension
  2
*D12
 10
122.4636315457814
 20
244.2271288081604
 30
0.0000000000000000
 11
134.3807306200206
 21
246.6423603929407
 31
0.0000000000000000
 70
162
  3
MAIN001
100
AcDb2LineAngularDimension
 13
124.4517382286849
 23
232.7479334100034
 33
0.0000000000000000
 14
123.5857128249005
 24
232.2479334100034
 34
0.0000000000000000
 15
121.7816331858717
 25
243.4957751063988
 35
0.0000000000000000
 16
133.9894265416269
 26
246.3311030745809
 36
0.0000000000000000
1001
ACAD
1000
DSTYLE
1002
{
1070
   173
1070
     1
1070
     6
1000
_OPEN
1070
     7
1000
_OPEN
1070
    41
1040
2.000000
1002
}
  0
DIMENSION
  5
D0
100
AcDbEntity
  8
MAIN0
  6
CONTINUOUS
 62
3
100
AcDbDimension
  2
*D13
 10
106.4051876479158
 20
249.8281489910777
 30
0.0000000000000000
 11
120.5037409605126
 21
258.4944292223596
 31
0.0000000000000000
 70
162
  3
MAIN001
100
AcDb2LineAngularDimension
 13
122.4636315457814
 23
244.2271288081604
 33
0.0000000000000000
 14
121.7816331858717
 24
243.4957751063988
 34
0.0000000000000000
 15
106.1295502934823
 25
248.8668872947426
 35
0.0000000000000000
 16
120.2575291808195
 26
258.0592513741867
 36
0.0000000000000000
1001
ACAD
1000
DSTYLE
1002
{
1070
   173
1070
     1
1070
     6
1000
_OPEN
1070
     7
1000
_OPEN
1070
    41
1040
2.000000
1002
}
  0
CIRCLE
  5
D1
100
AcDbEntity
  8
MAIN0
  6
CONTINUOUS
 62
3
100
AcDbCircle
 10
117.1022493022856
 20
238.4777502792610
 30
0.0000000000000000
 40
7.000000000000000
  0
MTEXT
  5
D2
100
AcDbEntity
  8
MAIN0
  6
CONTINUOUS
 62
3
100
AcDbMText
 10
166.0451148784939
 20
264.2121392377629
 30
0.0000000000000000
 40
3.099999904632568
 41
0.0000000000000000
 71
     1
 72
     1
  1
{\H0.92x;{C部詳細}}
 11
1.000000000000000
 21
0.0000000000000000
 31
0.0000000000000000
  7
KNJYOKO
  0
LINE
  5
D3
100
AcDbEntity
  8
MAIN0
  6
CONTINUOUS
 62
3
100
AcDbLine
 10
165.1320345679019
 20
260.3295043981844
 30
0.0000000000000000
 11
180.2972847839317
 21
260.3295043981844
 31
0.0000000000000000
  0
LEADER
  5
D4
100
AcDbEntity
  8
MAIN0
  6
CONTINUOUS
 62
3
100
AcDbLeader
  3
MAIN001
 73
     0
 74
     0
 75
     1
 40
5.000000000000000
 41
3.901000095367436
 76
     3
 10
120.0122958946851
 20
244.8441958205394
 30
0.0000000000000000
 10
139.2865565853881
 20
262.2142079785619
 30
0.0000000000000000
 10
142.3855565973091
 20
262.2142079785619
 30
0.0000000000000000
340
D5
213
-0.001000000000004775
223
-0.5000000000000000
233
0.0000000000000000
1001
ACAD
1000
DSTYLE
1002
{
1070
   147
1040
0.0
1070
    77
1070
     1
1070
   173
1070
     1
1070
     6
1000
_OPEN
1070
     7
1000
_OPEN
1002
}
  0
MTEXT
  5
D5
102
{ACAD_REACTORS
330
D4
102
}
100
AcDbEntity
  8
MAIN0
  6
CONTINUOUS
 62
3
100
AcDbMText
 10
142.3865565973091
 20
267.7142079785619
 30
0.0000000000000000
 40
5.000000000000000
 41
0.0000000000000000
 71
     1
 72
     1
  1
{\H0.82x;{C}}
 11
1.000000000000000
 21
0.0000000000000000
 31
0.0000000000000000
  7
STANDARD
  0
DIMENSION
  5
DF
100
AcDbEntity
  8
MAIN0
  6
CONTINUOUS
 62
3
100
AcDbDimension
  2
*D14
 10
146.3006996300971
 20
279.3079081158859
 30
0.0000000000000000
 11
141.8196658668857
 21
275.2357273124595
 31
0.0000000000000000
 70
160
  3
MAIN001
100
AcDbAlignedDimension
 13
162.3924242710061
 23
275.2407518176252
 33
0.0000000000000000
 14
154.9252147096681
 24
271.2654176935902
 34
0.0000000000000000
 50
47.00000000009370
100
AcDbRotatedDimension
1001
ACAD
1000
DSTYLE
1002
{
1070
   173
1070
     1
1070
     6
1000
_OPEN
1070
     7
1000
_OPEN
1070
    41
1040
2.000000
1002
}
  0
DIMENSION
  5
EA
100
AcDbEntity
  8
MAIN0
  6
CONTINUOUS
 62
3
100
AcDbDimension
  2
*D15
 10
150.8091175101636
 20
275.1037404281254
 30
0.0000000000000000
 11
146.7106813666470
 21
271.4418453405907
 31
0.0000000000000000
 70
161
  3
MAIN001
100
AcDbAlignedDimension
 13
157.3804088058902
 23
273.8982910194206
 33
0.0000000000000000
 14
154.9252147096681
 24
271.2654176935903
 34
0.0000000000000000
 50
47.00000000009354
1001
ACAD
1000
DSTYLE
1002
{
1070
   173
1070
     1
1070
     6
1000
_OPEN
1070
     7
1000
_OPEN
1070
    41
1040
2.000000
1070
   287
1070
     0
1002
}
  0
DIMENSION
  5
F5
100
AcDbEntity
  8
MAIN0
  6
CONTINUOUS
 62
3
100
AcDbDimension
  2
*D16
 10
165.0214134161032
 20
280.4060442130915
 30
0.0000000000000000
 11
171.2775630608969
 21
275.2557540187428
 31
0.0000000000000000
 70
161
  3
MAIN001
100
AcDbAlignedDimension
 13
161.5847949480270
 23
272.0286287055791
 33
0.0000000000000000
 14
159.2444631028476
 24
274.2110234577814
 34
0.0000000000000000
 50
137.0000000000375
1001
ACAD
1000
DSTYLE
1002
{
1070
   173
1070
     1
1070
     6
1000
_OPEN
1070
     7
1000
_OPEN
1070
    41
1040
2.000000
1070
   287
1070
     0
1002
}
  0
DIMENSION
  5
100
100
AcDbEntity
  8
MAIN0
  6
CONTINUOUS
 62
3
100
AcDbDimension
  2
*D17
 10
150.7398574267550
 20
266.7771715027593
 30
0.0000000000000000
 11
158.5799202574045
 21
260.1498583674698
 31
0.0000000000000000
 70
161
  3
MAIN001
100
AcDbAlignedDimension
 13
158.9476600687465
 23
267.5144267130851
 33
0.0000000000000000
 14
154.9252147098438
 24
271.2654176934316
 34
0.0000000000000000
 50
137.0000000000368
1001
ACAD
1000
DSTYLE
1002
{
1070
   173
1070
     1
1070
     6
1000
_OPEN
1070
     7
1000
_OPEN
1070
    41
1040
2.000000
1070
   287
1070
     0
1002
}
  0
LINE
  5
101
100
AcDbEntity
  8
MAIN0
  6
CONTINUOUS
 62
3
100
AcDbLine
 10
66.95543165864859
 20
216.8729334100034
 30
0.0000000000000000
 11
70.95543165864831
 21
216.8729334100034
 31
0.0000000000000000
  0
LINE
  5
102
100
AcDbEntity
  8
MAIN0
  6
CONTINUOUS
 62
3
100
AcDbLine
 10
122.9554316586485
 20
216.8729334100034
 30
0.0000000000000000
 11
126.9554316586482
 21
216.8729334100034
 31
0.0000000000000000
  0
LINE
  5
103
100
AcDbEntity
  8
MAIN0
  6
CONTINUOUS
 62
3
100
AcDbLine
 10
124.9554316585933
 20
214.8729334100050
 30
0.0000000000000000
 11
124.9554316585933
 21
218.8729334100034
 31
0.0000000000000000
  0
SPLINE
  5
104
100
AcDbEntity
  8
MAIN0
  6
CONTINUOUS
 62
3
100
AcDbSpline
210
0.0000000000000000
220
0.0000000000000000
230
1.000000000000000
 70
     8
 71
     3
 72
    16
 73
    12
 74
     0
 42
1.000000000000000e-007
 43
1.000000000000000e-007
 12
-0.9079215898373150
 22
-0.4596464666029760
 32
0.0000000000000000
 13
0.9860785297715324
 23
-0.2042514353719014
 33
0.0000000000000000
 40
0.0000000000000000
 40
0.0000000000000000
 40
0.0000000000000000
 40
0.0000000000000000
 40
4.464925507976556
 40
12.42109714729643
 40
21.15724873465885
 40
30.45203062295256
 40
42.48929348860811
 40
50.86899705344239
 40
62.91673566836850
 40
67.50937955500672
 40
71.70116464403399
 40
71.70116464403399
 40
71.70116464403399
 40
71.70116464403399
 10
251.5208312730467
 20
238.7983358685825
 30
0.0000000000000000
 10
250.1695638511443
 20
238.1142401241201
 30
0.0000000000000000
 10
246.4104364279785
 20
236.2111356524241
 30
0.0000000000000000
 10
239.2334544238786
 20
237.1043779425377
 30
0.0000000000000000
 10
230.5742676508233
 20
230.9724953914189
 30
0.0000000000000000
 10
234.2483164005387
 20
220.1029052015607
 30
0.0000000000000000
 10
233.1420019297588
 20
210.8436107954434
 30
0.0000000000000000
 10
230.4793681701341
 20
198.7554761378510
 30
0.0000000000000000
 10
240.6260970485717
 20
195.0815094707171
 30
0.0000000000000000
 10
247.2556425774094
 20
194.1299827720971
 30
0.0000000000000000
 10
250.1430215138116
 20
193.5319053630296
 30
0.0000000000000000
 10
251.5208312730470
 20
193.2465126559615
 30
0.0000000000000000
  0
SPLINE
  5
105
100
AcDbEntity
  8
MAIN0
  6
CONTINUOUS
 62
3
100
AcDbSpline
210
0.0000000000000000
220
0.0000000000000000
230
1.000000000000000
 70
     8
 71
     3
 72
    12
 73
     8
 74
     0
 42
1.000000000000000e-007
 43
1.000000000000000e-007
 12
1.061200362084122
 22
-0.2705769722820293
 32
0.0000000000000000
 13
-1.175168687368000
 23
-0.1167276201631893
 33
0.0000000000000000
 40
0.0000000000000000
 40
0.0000000000000000
 40
0.0000000000000000
 40
0.0000000000000000
 40
5.520468402794391
 40
14.61280737400754
 40
23.68264793582251
 40
30.66084238475956
 40
36.66752904282647
 40
36.66752904282647
 40
36.66752904282647
 40
36.66752904282647
 10
192.1208312730633
 20
231.2684355072411
 30
0.0000000000000000
 10
194.0736056290364
 20
230.7705316319055
 30
0.0000000000000000
 10
199.2426444544906
 20
229.4525685733056
 30
0.0000000000000000
 10
198.6788300299488
 20
219.5007795244498
 30
0.0000000000000000
 10
197.7498832479753
 20
212.3354763161170
 30
0.0000000000000000
 10
199.5602631935761
 20
203.0541202140717
 30
0.0000000000000000
 10
194.4737879648604
 20
202.5488887908308
 30
0.0000000000000000
 10
192.1208312730633
 20
202.3151733779435
 30
0.0000000000000000
  0
LINE
  5
106
100
AcDbEntity
  8
MAIN0
  6
CENTER
 62
3
100
AcDbLine
 10
346.2006401208282
 20
69.89584263592147
 30
0.0000000000000000
 11
346.2006401208282
 21
157.9587436644641
 31
0.0000000000000000
  0
LINE
  5
107
100
AcDbEntity
  8
MAIN0
  6
CONTINUOUS
 62
3
100
AcDbLine
 10
352.0687368350283
 20
74.26014496994455
 30
0.0000000000000000
 11
352.0687368350283
 21
87.26014496994455
 31
0.0000000000000000
  0
MTEXT
  5
108
100
AcDbEntity
  8
MAIN0
  6
CONTINUOUS
 62
3
100
AcDbMText
 10
356.2491892325398
 20
91.33393012242433
 30
0.0000000000000000
 40
3.099999904632568
 41
0.0000000000000000
 71
     1
 72
     1
  1
{\H0.81x;{A}}
 11
1.000000000000000
 21
0.0000000000000000
 31
0.0000000000000000
  7
STANDARD
  0
MTEXT
  5
109
100
AcDbEntity
  8
MAIN0
  6
CONTINUOUS
 62
3
100
AcDbMText
 10
333.6203331420155
 20
99.54798610250964
 30
0.0000000000000000
 40
3.099999904632568
 41
0.0000000000000000
 71
     1
 72
     1
  1
{\H0.81x;{B}}
 11
1.000000000000000
 21
0.0000000000000000
 31
0.0000000000000000
  7
STANDARD
  0
DIMENSION
  5
114
100
AcDbEntity
  8
MAIN0
  6
CONTINUOUS
 62
3
100
AcDbDimension
  2
*D18
 10
387.0858640435259
 20
74.26014496994455
 30
0.0000000000000000
 11
386.5858640435259
 21
78.51014496994455
 31
0.0000000000000000
 70
32
  3
MAIN001
100
AcDbAlignedDimension
 13
361.4761209259673
 23
82.76014496994455
 33
0.0000000000000000
 14
379.3006401208282
 24
74.26014496994455
 34
0.0000000000000000
 50
90.00000000000000
100
AcDbRotatedDimension
1001
ACAD
1000
DSTYLE
1002
{
1070
   173
1070
     1
1070
     6
1000
_OPEN
1070
     7
1000
_OPEN
1070
    41
1040
2.000000
1070
   287
1070
     0
1002
}
  0
DIMENSION
  5
11D
100
AcDbEntity
  8
MAIN0
  6
CONTINUOUS
 62
3
100
AcDbDimension
  2
*D19
 10
394.8609671538897
 20
74.26014496994455
 30
0.0000000000000000
 11
394.3609671538897
 21
95.21014497001536
 31
0.0000000000000000
 70
32
  3
MAIN001
100
AcDbAlignedDimension
 13
350.9506401210264
 23
116.1601449700862
 33
0.0000000000000000
 14
379.3006401208282
 24
74.26014496994455
 34
0.0000000000000000
 50
90.00000000000000
100
AcDbRotatedDimension
1001
ACAD
1000
DSTYLE
1002
{
1070
   173
1070
     1
1070
     6
1000
_OPEN
1070
     7
1000
_OPEN
1070
    41
1040
2.000000
1002
}
  0
DIMENSION
  5
126
100
AcDbEntity
  8
MAIN0
  6
CONTINUOUS
 62
3
100
AcDbDimension
  2
*D20
 10
305.9503121905837
 20
74.26014496994455
 30
0.0000000000000000
 11
305.4503121905837
 21
89.76014496994455
 31
0.0000000000000000
 70
32
  3
MAIN001
100
AcDbAlignedDimension
 13
331.3907241685650
 23
105.2601449699446
 33
0.0000000000000000
 14
313.1006401208282
 24
74.26014496994455
 34
0.0000000000000000
 50
90.00000000000000
100
AcDbRotatedDimension
1001
ACAD
1000
DSTYLE
1002
{
1070
   173
1070
     1
1070
     6
1000
_OPEN
1070
     7
1000
_OPEN
1070
    41
1040
2.000000
1002
}
  0
DIMENSION
  5
130
100
AcDbEntity
  8
MAIN0
  6
CONTINUOUS
 62
3
100
AcDbDimension
  2
*D21
 10
341.4506401210264
 20
160.3104950329372
 30
0.0000000000000000
 11
332.0390811494826
 21
160.8104950329372
 31
0.0000000000000000
 70
160
  1
\A1;3-\U+22059.5
  3
MAIN001
100
AcDbAlignedDimension
 13
350.9506401210264
 23
121.2601449700862
 33
0.0000000000000000
 14
341.4506401210264
 24
121.2601449700862
 34
0.0000000000000000
100
AcDbRotatedDimension
1001
ACAD
1000
DSTYLE
1002
{
1070
   173
1070
     1
1070
     6
1000
_OPEN
1070
     7
1000
_OPEN
1070
    41
1040
2.000000
1002
}
  0
DIMENSION
  5
13B
100
AcDbEntity
  8
MAIN0
  6
CONTINUOUS
 62
3
100
AcDbDimension
  2
*D22
 10
343.4506401209749
 20
64.30200171179810
 30
0.0000000000000000
 11
334.2123698903778
 21
64.80200171179810
 31
0.0000000000000000
 70
160
  1
\A1;3-\U+22055.5
  3
MAIN001
100
AcDbAlignedDimension
 13
348.9506401209749
 23
74.66014497011733
 33
0.0000000000000000
 14
343.4506401209749
 24
74.66014497011733
 34
0.0000000000000000
100
AcDbRotatedDimension
1001
ACAD
1000
DSTYLE
1002
{
1070
   173
1070
     1
1070
     6
1000
_OPEN
1070
     7
1000
_OPEN
1070
    41
1040
2.000000
1070
   287
1070
     0
1002
}
  0
HATCH
  5
13C
100
AcDbEntity
  8
MAIN0
  6
CONTINUOUS
 62
3
100
AcDbHatch
 10
0.000000
 20
0.000000
 30
0.000000
210
0.000000
220
0.000000
230
1.000000
  2
SOLID
 70
1
 71
0
 91
2
 92
7
 72
1
 73
1
 93
3
 10
68.95543165859340
 20
218.8729334100034
 42
-0.4142135623811480
 10
70.95543165864831
 20
216.8729334100034
 42
0.0000000000000000
 10
68.95543165859340
 20
216.8729334100034
 42
0.0000000000000000
 97
0
 92
7
 72
1
 73
1
 93
3
 10
66.95543165864831
 20
216.8729334100034
 42
0.0000000000000000
 10
68.95543165859340
 20
216.8729334100034
 42
0.0000000000000000
 10
68.95543165859340
 20
214.8729334100034
 42
-0.4142135623650651
 97
0
 75
0
 76
1
 47
0.100000
 98
1
 10
0.000000
 20
0.000000
  0
HATCH
  5
13D
100
AcDbEntity
  8
MAIN0
  6
CONTINUOUS
 62
3
100
AcDbHatch
 10
0.000000
 20
0.000000
 30
0.000000
210
0.000000
220
0.000000
230
1.000000
  2
SOLID
 70
1
 71
0
 91
2
 92
7
 72
1
 73
1
 93
3
 10
124.9554316585933
 20
218.8729334100034
 42
-0.4142135623811480
 10
126.9554316586482
 20
216.8729334100034
 42
0.0000000000000000
 10
124.9554316585933
 20
216.8729334100034
 42
0.0000000000000000
 97
0
 92
7
 72
1
 73
1
 93
3
 10
122.9554316586482
 20
216.8729334100034
 42
0.0000000000000000
 10
124.9554316585933
 20
216.8729334100034
 42
0.0000000000000000
 10
124.9554316585933
 20
214.8729334100034
 42
-0.4142135623650651
 97
0
 75
0
 76
1
 47
0.100000
 98
1
 10
0.000000
 20
0.000000
  0
LINE
  5
13E
100
AcDbEntity
  8
MAIN0
  6
CONTINUOUS
 62
3
100
AcDbLine
 10
239.5208312730744
 20
195.7755698969978
 30
0.0000000000000000
 11
239.5208312730727
 21
206.2281224354012
 31
0.0000000000000000
  0
LINE
  5
13F
100
AcDbEntity
  8
MAIN0
  6
CONTINUOUS
 62
3
100
AcDbLine
 10
239.5208312730718
 20
226.3447932952738
 30
0.0000000000000000
 11
239.5208312730708
 21
236.0165410371489
 31
0.0000000000000000
  0
LINE
  5
140
100
AcDbEntity
  8
MAIN0
  6
CONTINUOUS
 62
3
100
AcDbLine
 10
235.5208312730708
 20
203.3729334103029
 30
0.0000000000000000
 11
237.7887804655050
 21
203.3729334103029
 31
0.0000000000000000
  0
LINE
  5
141
100
AcDbEntity
  8
MAIN0
  6
CONTINUOUS
 62
3
100
AcDbLine
 10
237.7887804655047
 20
203.3729334103025
 30
0.0000000000000000
 11
239.5208312730733
 21
202.3729334103026
 31
0.0000000000000000
  0
LINE
  5
142
100
AcDbEntity
  8
MAIN0
  6
CONTINUOUS
 62
3
100
AcDbLine
 10
235.5208312730708
 20
230.3729334103029
 30
0.0000000000000000
 11
237.7887804655050
 21
230.3729334103029
 31
0.0000000000000000
  0
LINE
  5
143
100
AcDbEntity
  8
MAIN0
  6
CONTINUOUS
 62
3
100
AcDbLine
 10
237.7887804655047
 20
230.3729334103024
 30
0.0000000000000000
 11
239.5208312730735
 21
231.3729334103025
 31
0.0000000000000000
  0
LINE
  5
144
100
AcDbEntity
  8
MAIN0
  6
CONTINUOUS
 62
3
100
AcDbLine
 10
235.5208312730707
 20
230.3729334103029
 30
0.0000000000000000
 11
235.5208312730707
 21
230.5729334103029
 31
0.0000000000000000
  0
LINE
  5
145
100
AcDbEntity
  8
MAIN0
  6
CONTINUOUS
 62
3
100
AcDbLine
 10
232.6880074963398
 20
230.5729334103027
 30
0.0000000000000000
 11
235.5208312730708
 21
230.5729334103027
 31
0.0000000000000000
  0
LINE
  5
146
100
AcDbEntity
  8
MAIN0
  6
CONTINUOUS
 62
3
100
AcDbLine
 10
235.5208312730708
 20
203.3729334103027
 30
0.0000000000000000
 11
235.5208312730708
 21
203.1729334103026
 31
0.0000000000000000
  0
LINE
  5
147
100
AcDbEntity
  8
MAIN0
  6
CONTINUOUS
 62
3
100
AcDbLine
 10
231.9703775316200
 20
203.1729334103029
 30
0.0000000000000000
 11
235.5208312730708
 21
203.1729334103029
 31
0.0000000000000000
  0
LINE
  5
148
100
AcDbEntity
  8
MAIN0
  6
CONTINUOUS
 62
3
100
AcDbLine
 10
232.6705791483125
 20
224.4729334102219
 30
0.0000000000000000
 11
248.0208312729981
 21
224.4729334102219
 31
0.0000000000000000
  0
LINE
  5
149
100
AcDbEntity
  8
MAIN0
  6
CONTINUOUS
 62
3
100
AcDbLine
 10
232.6880075110791
 20
209.2729334102684
 30
0.0000000000000000
 11
248.0208312729916
 21
209.2729334102684
 31
0.0000000000000000
  0
LINE
  5
14A
100
AcDbEntity
  8
MAIN0
  6
CONTINUOUS
 62
3
100
AcDbLine
 10
248.0208312729983
 20
224.4729334102224
 30
0.0000000000000000
 11
248.5208312729945
 21
224.1842582756302
 31
0.0000000000000000
  0
LINE
  5
14B
100
AcDbEntity
  8
MAIN0
  6
CONTINUOUS
 62
3
100
AcDbLine
 10
248.0208312730006
 20
209.2729334102738
 30
0.0000000000000000
 11
248.5208312729967
 21
209.5616085448660
 31
0.0000000000000000
  0
LINE
  5
14C
100
AcDbEntity
  8
MAIN0
  6
CONTINUOUS
 62
3
100
AcDbLine
 10
248.5208312729943
 20
209.5616085448646
 30
0.0000000000000000
 11
248.5208312729943
 21
210.8729334100037
 31
0.0000000000000000
  0
LINE
  5
14D
100
AcDbEntity
  8
MAIN0
  6
CONTINUOUS
 62
3
100
AcDbLine
 10
248.5208312729943
 20
222.8729334100037
 30
0.0000000000000000
 11
248.5208312729943
 21
224.1842582756298
 31
0.0000000000000000
  0
LINE
  5
14E
100
AcDbEntity
  8
MAIN0
  6
CONTINUOUS
 62
3
100
AcDbLine
 10
266.1208312729212
 20
212.6229334098717
 30
0.0000000000000000
 11
270.6208312729212
 21
212.6229334098717
 31
0.0000000000000000
  0
LINE
  5
14F
100
AcDbEntity
  8
MAIN0
  6
CONTINUOUS
 62
3
100
AcDbLine
 10
270.6208312729212
 20
212.6229334098717
 30
0.0000000000000000
 11
271.1208312729212
 21
213.4889588136562
 31
0.0000000000000000
  0
LINE
  5
150
100
AcDbEntity
  8
MAIN0
  6
CONTINUOUS
 62
3
100
AcDbLine
 10
271.1208312729212
 20
213.4889588136562
 30
0.0000000000000000
 11
271.1208312729212
 21
220.2569080060872
 31
0.0000000000000000
  0
LINE
  5
151
100
AcDbEntity
  8
MAIN0
  6
CONTINUOUS
 62
3
100
AcDbLine
 10
271.1208312729212
 20
220.2569080060873
 30
0.0000000000000000
 11
270.6208312729212
 21
221.1229334098718
 31
0.0000000000000000
  0
LINE
  5
152
100
AcDbEntity
  8
MAIN0
  6
CONTINUOUS
 62
3
100
AcDbLine
 10
270.6208312729212
 20
221.1229334098717
 30
0.0000000000000000
 11
266.1208312729212
 21
221.1229334098717
 31
0.0000000000000000
  0
LINE
  5
153
100
AcDbEntity
  8
MAIN0
  6
CONTINUOUS
 62
3
100
AcDbLine
 10
270.6208312729212
 20
212.6229334098717
 30
0.0000000000000000
 11
270.6208312729212
 21
221.1229334098717
 31
0.0000000000000000
  0
LINE
  5
154
100
AcDbEntity
  8
MAIN0
  6
CONTINUOUS
 62
3
100
AcDbLine
 10
266.1208312729212
 20
214.3729334098717
 30
0.0000000000000000
 11
236.1208312729212
 21
214.3729334098717
 31
0.0000000000000000
  0
LINE
  5
155
100
AcDbEntity
  8
MAIN0
  6
CONTINUOUS
 62
3
100
AcDbLine
 10
236.1208312729212
 20
214.3729334098717
 30
0.0000000000000000
 11
236.1208312729212
 21
219.3729334098717
 31
0.0000000000000000
  0
LINE
  5
156
100
AcDbEntity
  8
MAIN0
  6
CONTINUOUS
 62
3
100
AcDbLine
 10
236.1208312729212
 20
219.3729334098717
 30
0.0000000000000000
 11
266.1208312729212
 21
219.3729334098717
 31
0.0000000000000000
  0
LINE
  5
157
100
AcDbEntity
  8
MAIN0
  6
CONTINUOUS
 62
3
100
AcDbLine
 10
258.1208312729212
 20
214.8059462098717
 30
0.0000000000000000
 11
236.1208312729212
 21
214.8059462098717
 31
0.0000000000000000
  0
LINE
  5
158
100
AcDbEntity
  8
MAIN0
  6
CONTINUOUS
 62
3
100
AcDbLine
 10
258.1208312729212
 20
218.9399206098717
 30
0.0000000000000000
 11
236.1208312729212
 21
218.9399206098717
 31
0.0000000000000000
  0
LINE
  5
159
100
AcDbEntity
  8
MAIN0
  6
CONTINUOUS
 62
3
100
AcDbLine
 10
258.1208312729212
 20
214.3729334098717
 30
0.0000000000000000
 11
258.1208312729212
 21
219.3729334098717
 31
0.0000000000000000
  0
ARC
  5
15A
100
AcDbEntity
  8
MAIN0
  6
CENTER
 62
3
100
AcDbCircle
 10
346.2006401207743
 20
216.8729334108005
 30
0.0000000000000000
 40
29.99999999981245
100
AcDbArc
 50
62.01932484271345
 51
116.6775069057932
  0
LINE
  5
15B
100
AcDbEntity
  8
MAIN0
  6
CENTER
 62
3
100
AcDbLine
 10
357.7823367366149
 20
248.6933833417003
 30
0.0000000000000000
 11
355.2388179085959
 21
241.7051227957673
 31
0.0000000000000000
  0
CIRCLE
  5
15C
100
AcDbEntity
  8
MAIN0
  6
HIDDEN
 62
3
100
AcDbCircle
 10
356.4612444205101
 20
245.0637120341905
 30
0.0000000000000000
 40
2.500000000000000
  0
CIRCLE
  5
15D
100
AcDbEntity
  8
MAIN0
  6
HIDDEN
 62
3
100
AcDbCircle
 10
356.4612444205101
 20
245.0637120341905
 30
0.0000000000000000
 40
2.000000000000000
  0
LINE
  5
15E
100
AcDbEntity
  8
MAIN0
  6
CENTER
 62
3
100
AcDbLine
 10
334.6189435046856
 20
248.6933833416792
 30
0.0000000000000000
 11
337.1624623327173
 21
241.7051227957509
 31
0.0000000000000000
  0
CIRCLE
  5
15F
100
AcDbEntity
  8
MAIN0
  6
HIDDEN
 62
3
100
AcDbCircle
 10
335.9400358208193
 20
245.0637120341108
 30
0.0000000000000000
 40
2.100000000000000
  0
ARC
  5
160
100
AcDbEntity
  8
MAIN0
  6
CENTER
 62
3
100
AcDbCircle
 10
346.2006401207742
 20
216.8729334108005
 30
0.0000000000000000
 40
29.99999999981245
100
AcDbArc
 50
182.0193248427134
 51
236.6775069057932
  0
LINE
  5
161
100
AcDbEntity
  8
MAIN0
  6
CENTER
 62
3
100
AcDbLine
 10
312.8524738128434
 20
210.9927519335928
 30
0.0000000000000000
 11
320.1762443878954
 21
212.2841302864908
 31
0.0000000000000000
  0
CIRCLE
  5
162
100
AcDbEntity
  8
MAIN0
  6
HIDDEN
 62
3
100
AcDbCircle
 10
316.6564075305872
 20
211.6634880808566
 30
0.0000000000000000
 40
2.500000000000000
  0
CIRCLE
  5
163
100
AcDbEntity
  8
MAIN0
  6
HIDDEN
 62
3
100
AcDbCircle
 10
316.6564075305872
 20
211.6634880808566
 30
0.0000000000000000
 40
2.000000000000000
  0
LINE
  5
164
100
AcDbEntity
  8
MAIN0
  6
CENTER
 62
3
100
AcDbLine
 10
324.4341704288265
 20
190.9326649569039
 30
0.0000000000000000
 11
329.2144221758491
 21
196.6295471499476
 31
0.0000000000000000
  0
CIRCLE
  5
165
100
AcDbEntity
  8
MAIN0
  6
HIDDEN
 62
3
100
AcDbCircle
 10
326.9170118305016
 20
193.8916001172046
 30
0.0000000000000000
 40
2.100000000000000
  0
ARC
  5
166
100
AcDbEntity
  8
MAIN0
  6
CENTER
 62
3
100
AcDbCircle
 10
346.2006401207743
 20
216.8729334108004
 30
0.0000000000000000
 40
29.99999999981245
100
AcDbArc
 50
302.0193248427134
 51
356.6775069057931
  0
LINE
  5
167
100
AcDbEntity
  8
MAIN0
  6
CENTER
 62
3
100
AcDbLine
 10
367.9671098128634
 20
190.9326649571078
 30
0.0000000000000000
 11
363.1868580658305
 21
196.6295471501427
 31
0.0000000000000000
  0
CIRCLE
  5
168
100
AcDbEntity
  8
MAIN0
  6
HIDDEN
 62
3
100
AcDbCircle
 10
365.4842684112253
 20
193.8916001173543
 30
0.0000000000000000
 40
2.500000000000000
  0
CIRCLE
  5
169
100
AcDbEntity
  8
MAIN0
  6
HIDDEN
 62
3
100
AcDbCircle
 10
365.4842684112253
 20
193.8916001173543
 30
0.0000000000000000
 40
2.000000000000000
  0
LINE
  5
16A
100
AcDbEntity
  8
MAIN0
  6
CENTER
 62
3
100
AcDbLine
 10
379.5488064288102
 20
210.9927519338181
 30
0.0000000000000000
 11
372.2250358537559
 21
212.2841302867028
 31
0.0000000000000000
  0
CIRCLE
  5
16B
100
AcDbEntity
  8
MAIN0
  6
HIDDEN
 62
3
100
AcDbCircle
 10
375.7448727110017
 20
211.6634880810861
 30
0.0000000000000000
 40
2.100000000000000
  0
ARC
  5
16C
100
AcDbEntity
  8
MAIN0
  6
CONTINUOUS
 62
3
100
AcDbCircle
 10
337.9592950656360
 20
196.4748886102150
 30
0.0000000000000000
 40
5.000000000000000
100
AcDbArc
 50
175.7308194573820
 51
248.0000000001416
  0
CIRCLE
  5
16D
100
AcDbEntity
  8
MAIN1
  6
CONTINUOUS
 62
7
100
AcDbCircle
 10
346.2006401207742
 20
216.8729334108005
 30
0.0000000000000000
 40
2.400000000000057
  0
SPLINE
  5
16E
100
AcDbEntity
  8
MAIN1
  6
CONTINUOUS
 62
7
100
AcDbSpline
210
0.0000000000000000
220
0.0000000000000000
230
1.000000000000000
 70
     8
 71
     3
 72
    11
 73
     7
 74
     0
 42
1.000000000000000e-007
 43
1.000000000000000e-007
 12
1.875638821518805
 22
-1.092082136433419
 32
0.0000000000000000
 13
1.884425211856069
 23
-1.097197972071626
 33
0.0000000000000000
 40
0.0000000000000000
 40
0.0000000000000000
 40
0.0000000000000000
 40
0.0000000000000000
 40
0.1285561766307350
 40
0.4801535797842241
 40
0.8150691831753884
 40
1.000000000000000
 40
1.000000000000000
 40
1.000000000000000
 40
1.000000000000000
 10
346.2091008011971
 20
219.1823189892892
 30
0.0000000000000000
 10
346.2894757864086
 20
219.1355210212803
 30
0.0000000000000000
 10
346.5896740179203
 20
218.9607319722049
 30
0.0000000000000000
 10
347.1526129372305
 20
218.6329633577854
 30
0.0000000000000000
 10
347.7621570410207
 20
218.2780590875817
 30
0.0000000000000000
 10
348.0886942745364
 20
218.0879342748987
 30
0.0000000000000000
 10
348.2048570390942
 20
218.0202990358342
 30
0.0000000000000000
  0
SPLINE
  5
16F
100
AcDbEntity
  8
MAIN1
  6
CONTINUOUS
 62
7
100
AcDbSpline
210
0.0000000000000000
220
0.0000000000000000
230
1.000000000000000
 70
     8
 71
     3
 72
    11
 73
     7
 74
     0
 42
1.000000000000000e-007
 43
1.000000000000000e-007
 12
1.902804666206976
 22
1.089309567849796
 32
0.0000000000000000
 13
1.906919736086820
 23
1.091665345649290
 33
0.0000000000000000
 40
0.0000000000000000
 40
0.0000000000000000
 40
0.0000000000000000
 40
0.0000000000000000
 40
0.2164526859271186
 40
0.4403055508634001
 40
0.7518960204221897
 40
1.000000000000000
 40
1.000000000000000
 40
1.000000000000000
 40
1.000000000000000
 10
344.2048838828520
 20
218.0349533642363
 30
0.0000000000000000
 10
344.3421729431170
 20
218.1135480248254
 30
0.0000000000000000
 10
344.6214447620300
 20
218.2734243746026
 30
0.0000000000000000
 10
345.1397016544317
 20
218.5701138885197
 30
0.0000000000000000
 10
345.6956318790322
 20
218.8883704723236
 30
0.0000000000000000
 10
346.0513960094442
 20
219.0920368170816
 30
0.0000000000000000
 10
346.2091008011971
 20
219.1823189892892
 30
0.0000000000000000
  0
SPLINE
  5
170
100
AcDbEntity
  8
MAIN1
  6
CONTINUOUS
 62
7
100
AcDbSpline
210
0.0000000000000000
220
0.0000000000000000
230
1.000000000000000
 70
     8
 71
     3
 72
    11
 73
     7
 74
     0
 42
1.000000000000000e-007
 43
1.000000000000000e-007
 12
0.008032574761273281
 22
2.192531963298279
 32
0.0000000000000000
 13
0.008049946281062148
 23
2.197273607250736
 33
0.0000000000000000
 40
0.0000000000000000
 40
0.0000000000000000
 40
0.0000000000000000
 40
0.0000000000000000
 40
0.2164526859271191
 40
0.4403055508634005
 40
0.7518960204221915
 40
1.000000000000000
 40
1.000000000000000
 40
1.000000000000000
 40
1.000000000000000
 10
344.1964232024042
 20
215.7255677857286
 30
0.0000000000000000
 10
344.1970027598649
 20
215.8837609298743
 30
0.0000000000000000
 10
344.1981816889499
 20
216.2055555945028
 30
0.0000000000000000
 10
344.2003694790619
 20
216.8027239859676
 30
0.0000000000000000
 10
344.2027163048664
 20
217.4433019751051
 30
0.0000000000000000
 10
344.2042181416160
 20
217.8532359221762
 30
0.0000000000000000
 10
344.2048838828520
 20
218.0349533642363
 30
0.0000000000000000
  0
SPLINE
  5
171
100
AcDbEntity
  8
MAIN1
  6
CONTINUOUS
 62
7
100
AcDbSpline
210
0.0000000000000000
220
0.0000000000000000
230
1.000000000000000
 70
     8
 71
     3
 72
    11
 73
     7
 74
     0
 42
1.000000000000000e-007
 43
1.000000000000000e-007
 12
-1.884425211856069
 22
1.097197972071626
 32
0.0000000000000000
 13
-1.875638821518805
 23
1.092082136431600
 33
0.0000000000000000
 40
0.0000000000000000
 40
0.0000000000000000
 40
0.0000000000000000
 40
0.0000000000000000
 40
0.1849308168246119
 40
0.5198464202157763
 40
0.8714438233692651
 40
1.000000000000000
 40
1.000000000000000
 40
1.000000000000000
 40
1.000000000000000
 10
346.1921794403014
 20
214.5635478322737
 30
0.0000000000000000
 10
346.0760166757436
 20
214.6311830713381
 30
0.0000000000000000
 10
345.7494794422278
 20
214.8213078840212
 30
0.0000000000000000
 10
345.1399353384375
 20
215.1762121542248
 30
0.0000000000000000
 10
344.5769964191275
 20
215.5039807686442
 30
0.0000000000000000
 10
344.2767981876157
 20
215.6787698177198
 30
0.0000000000000000
 10
344.1964232024042
 20
215.7255677857286
 30
0.0000000000000000
  0
SPLINE
  5
172
100
AcDbEntity
  8
MAIN1
  6
CONTINUOUS
 62
7
100
AcDbSpline
210
0.0000000000000000
220
0.0000000000000000
230
1.000000000000000
 70
     8
 71
     3
 72
    11
 73
     7
 74
     0
 42
1.000000000000000e-007
 43
1.000000000000000e-007
 12
-0.008032574761273281
 22
-2.192531963298734
 32
0.0000000000000000
 13
-0.008049946279243159
 23
-2.197273607251645
 33
0.0000000000000000
 40
0.0000000000000000
 40
0.0000000000000000
 40
0.0000000000000000
 40
0.0000000000000000
 40
0.2164526859271187
 40
0.4403055508634002
 40
0.7518960204221900
 40
1.000000000000000
 40
1.000000000000000
 40
1.000000000000000
 40
1.000000000000000
 10
348.2048570390942
 20
218.0202990358342
 30
0.0000000000000000
 10
348.2042774816335
 20
217.8621058916885
 30
0.0000000000000000
 10
348.2030985525483
 20
217.5403112270599
 30
0.0000000000000000
 10
348.2009107624362
 20
216.9431428355953
 30
0.0000000000000000
 10
348.1985639366320
 20
216.3025648464577
 30
0.0000000000000000
 10
348.1970620998822
 20
215.8926308993866
 30
0.0000000000000000
 10
348.1963963586464
 20
215.7109134573264
 30
0.0000000000000000
  0
SPLINE
  5
173
100
AcDbEntity
  8
MAIN1
  6
CONTINUOUS
 62
7
100
AcDbSpline
210
0.0000000000000000
220
0.0000000000000000
230
1.000000000000000
 70
     8
 71
     3
 72
    11
 73
     7
 74
     0
 42
1.000000000000000e-007
 43
1.000000000000000e-007
 12
-1.902804666205157
 22
-1.089309567847977
 32
0.0000000000000000
 13
-1.906919736086820
 23
-1.091665345647471
 33
0.0000000000000000
 40
0.0000000000000000
 40
0.0000000000000000
 40
0.0000000000000000
 40
0.0000000000000000
 40
0.2164526859271190
 40
0.4403055508634003
 40
0.7518960204221902
 40
1.000000000000000
 40
1.000000000000000
 40
1.000000000000000
 40
1.000000000000000
 10
348.1963963586464
 20
215.7109134573264
 30
0.0000000000000000
 10
348.0591072983816
 20
215.6323187967375
 30
0.0000000000000000
 10
347.7798354794682
 20
215.4724424469602
 30
0.0000000000000000
 10
347.2615785870666
 20
215.1757529330432
 30
0.0000000000000000
 10
346.7056483624661
 20
214.8574963492391
 30
0.0000000000000000
 10
346.3498842320542
 20
214.6538300044811
 30
0.0000000000000000
 10
346.1921794403014
 20
214.5635478322737
 30
0.0000000000000000
  0
CIRCLE
  5
174
100
AcDbEntity
  8
MAIN1
  6
CONTINUOUS
 62
7
100
AcDbCircle
 10
346.2006401207742
 20
216.8729334108005
 30
0.0000000000000000
 40
4.360000000000085
  0
LINE
  5
175
100
AcDbEntity
  8
MAIN1
  6
CONTINUOUS
 62
7
100
AcDbLine
 10
354.1955046159741
 20
215.5721099398003
 30
0.0000000000000000
 11
354.0981005543741
 21
215.7774341186004
 31
0.0000000000000000
  0
ARC
  5
176
100
AcDbEntity
  8
MAIN1
  6
CONTINUOUS
 62
7
100
AcDbCircle
 10
346.2006401207742
 20
216.8729334108005
 30
0.0000000000000000
 40
8.100000000000016
100
AcDbArc
 50
309.2414622833000
 51
350.7585377167001
  0
LINE
  5
177
100
AcDbEntity
  8
MAIN1
  6
CONTINUOUS
 62
7
100
AcDbLine
 10
338.3031796870741
 20
215.7774341186005
 30
0.0000000000000000
 11
339.7006401208344
 21
216.5842582762325
 31
0.0000000000000000
  0
ARC
  5
178
100
AcDbEntity
  8
MAIN1
  6
CONTINUOUS
 62
7
100
AcDbCircle
 10
346.2006401207742
 20
216.8729334108005
 30
0.0000000000000000
 40
8.100000000000023
100
AcDbArc
 50
69.24146228330000
 51
110.7585377167000
  0
LINE
  5
179
100
AcDbEntity
  8
MAIN1
  6
CONTINUOUS
 62
7
100
AcDbLine
 10
341.3031796870743
 20
210.5812816959005
 30
0.0000000000000000
 11
341.0766617014743
 21
210.5995893936005
 31
0.0000000000000000
  0
LINE
  5
17A
100
AcDbEntity
  8
MAIN1
  6
CONTINUOUS
 62
7
100
AcDbLine
 10
351.0981005543743
 20
210.5812816959005
 30
0.0000000000000000
 11
351.3246185400742
 21
210.5995893936004
 31
0.0000000000000000
  0
LINE
  5
17B
100
AcDbEntity
  8
MAIN1
  6
CONTINUOUS
 62
7
100
AcDbLine
 10
343.3297540447743
 20
224.4471008990003
 30
0.0000000000000000
 11
343.2006401207744
 21
224.2600844178004
 31
0.0000000000000000
  0
LINE
  5
17C
100
AcDbEntity
  8
MAIN1
  6
CONTINUOUS
 62
7
100
AcDbLine
 10
351.0981005543740
 20
210.5812816959004
 30
0.0000000000000000
 11
349.7006401209230
 21
211.3881058533874
 31
0.0000000000000000
  0
LINE
  5
17D
100
AcDbEntity
  8
MAIN1
  6
CONTINUOUS
 62
7
100
AcDbLine
 10
343.2006401207741
 20
222.6464361026888
 30
0.0000000000000000
 11
343.2006401207741
 21
224.2600844178004
 31
0.0000000000000000
  0
ARC
  5
17E
100
AcDbEntity
  8
MAIN1
  6
CONTINUOUS
 62
7
100
AcDbCircle
 10
346.2006401207742
 20
216.8729334108005
 30
0.0000000000000000
 40
8.100000000000074
100
AcDbArc
 50
189.2414622833000
 51
230.7585377167000
  0
LINE
  5
17F
100
AcDbEntity
  8
MAIN1
  6
CONTINUOUS
 62
7
100
AcDbLine
 10
349.2006401207740
 20
224.2600844178005
 30
0.0000000000000000
 11
349.0715261966740
 21
224.4471008990005
 31
0.0000000000000000
  0
LINE
  5
180
100
AcDbEntity
  8
MAIN1
  6
CONTINUOUS
 62
7
100
AcDbLine
 10
342.7006401206929
 20
211.3881058534507
 30
0.0000000000000000
 11
341.3031796870743
 21
210.5812816959006
 31
0.0000000000000000
  0
LINE
  5
181
100
AcDbEntity
  8
MAIN1
  6
CONTINUOUS
 62
7
100
AcDbLine
 10
349.2006401207741
 20
224.2600844178004
 30
0.0000000000000000
 11
349.2006401207741
 21
222.6464361026646
 31
0.0000000000000000
  0
LINE
  5
182
100
AcDbEntity
  8
MAIN1
  6
CONTINUOUS
 62
7
100
AcDbLine
 10
338.2057756254742
 20
215.5721099398004
 30
0.0000000000000000
 11
338.3031796870743
 21
215.7774341186004
 31
0.0000000000000000
  0
LINE
  5
183
100
AcDbEntity
  8
MAIN1
  6
CONTINUOUS
 62
7
100
AcDbLine
 10
352.7006401206043
 20
216.5842582762716
 30
0.0000000000000000
 11
354.0981005543740
 21
215.7774341186005
 31
0.0000000000000000
  0
ARC
  5
184
100
AcDbEntity
  8
MAIN1
  6
CONTINUOUS
 62
7
100
AcDbCircle
 10
346.2006401207742
 20
216.8729334108005
 30
0.0000000000000000
 40
5.750000000000030
100
AcDbArc
 50
241.4489813894000
 51
298.5510186106000
  0
ARC
  5
185
100
AcDbEntity
  8
MAIN1
  6
CONTINUOUS
 62
7
100
AcDbCircle
 10
346.2006401207742
 20
216.8729334108005
 30
0.0000000000000000
 40
5.750000000000012
100
AcDbArc
 50
1.448981389400020
 51
58.55101861060001
  0
ARC
  5
186
100
AcDbEntity
  8
MAIN1
  6
CONTINUOUS
 62
7
100
AcDbCircle
 10
346.2006401207742
 20
216.8729334108005
 30
0.0000000000000000
 40
5.749999999999964
100
AcDbArc
 50
121.4489813893803
 51
177.8885840898000
  0
ARC
  5
187
100
AcDbEntity
  8
MAIN1
  6
CONTINUOUS
 62
7
100
AcDbCircle
 10
346.2006401207742
 20
216.8729334108005
 30
0.0000000000000000
 40
6.000000000000028
100
AcDbArc
 50
0.0000000000000000
 51
30.00000000000001
  0
ARC
  5
188
100
AcDbEntity
  8
MAIN1
  6
CONTINUOUS
 62
7
100
AcDbCircle
 10
346.2006401207742
 20
216.8729334108005
 30
0.0000000000000000
 40
6.000000000000000
100
AcDbArc
 50
240.0000000000000
 51
299.9999999999999
  0
ARC
  5
189
100
AcDbEntity
  8
MAIN1
  6
CONTINUOUS
 62
7
100
AcDbCircle
 10
346.2006401207742
 20
216.8729334108005
 30
0.0000000000000000
 40
6.000000000000000
100
AcDbArc
 50
120.0000000000001
 51
180.0000000000000
  0
ARC
  5
18A
100
AcDbEntity
  8
MAIN1
  6
CONTINUOUS
 62
7
100
AcDbCircle
 10
346.2006401207742
 20
216.8729334108005
 30
0.0000000000000000
 40
6.000000000000028
100
AcDbArc
 50
30.00000000000001
 51
60.46786234920001
  0
ARC
  5
18B
100
AcDbEntity
  8
MAIN1
  6
CONTINUOUS
 62
7
100
AcDbCircle
 10
346.2006401207742
 20
216.8729334108005
 30
0.0000000000000000
 40
7.999999999999980
100
AcDbArc
 50
111.8099535320000
 51
188.1900464680000
  0
ARC
  5
18C
100
AcDbEntity
  8
MAIN1
  6
CONTINUOUS
 62
7
100
AcDbCircle
 10
346.2006401207742
 20
216.8729334108005
 30
0.0000000000000000
 40
8.000000000000020
100
AcDbArc
 50
231.8099535320000
 51
308.1900464680000
  0
ARC
  5
18D
100
AcDbEntity
  8
MAIN1
  6
CONTINUOUS
 62
7
100
AcDbCircle
 10
346.2006401207742
 20
216.8729334108005
 30
0.0000000000000000
 40
8.000000000000053
100
AcDbArc
 50
351.8099535320001
 51
428.1900464680000
  0
LINE
  5
18E
100
AcDbEntity
  8
MAIN1
  6
CONTINUOUS
 62
7
100
AcDbLine
 10
343.2006401207742
 20
211.3729334108004
 30
0.0000000000000000
 11
342.9042036313742
 21
211.4025166645005
 31
0.0000000000000000
  0
LINE
  5
18F
100
AcDbEntity
  8
MAIN1
  6
CONTINUOUS
 62
7
100
AcDbLine
 10
342.9042036313742
 20
211.4025166645004
 30
0.0000000000000000
 11
342.7790756612740
 21
211.4333906339004
 31
0.0000000000000000
  0
LINE
  5
190
100
AcDbEntity
  8
MAIN1
  6
CONTINUOUS
 62
7
100
AcDbLine
 10
349.2006401207741
 20
211.3729334108004
 30
0.0000000000000000
 11
349.4970766100740
 21
211.4025166645004
 31
0.0000000000000000
  0
LINE
  5
191
100
AcDbEntity
  8
MAIN1
  6
CONTINUOUS
 62
7
100
AcDbLine
 10
349.4970766100742
 20
211.4025166645005
 30
0.0000000000000000
 11
349.6222045802741
 21
211.4333906339005
 31
0.0000000000000000
  0
ARC
  5
192
100
AcDbEntity
  8
MAIN1
  6
CONTINUOUS
 62
7
100
AcDbCircle
 10
346.2006401207742
 20
216.8729334108005
 30
0.0000000000000000
 40
7.600000000000091
100
AcDbArc
 50
113.2495625906000
 51
186.7504374094000
  0
ARC
  5
193
100
AcDbEntity
  8
MAIN1
  6
CONTINUOUS
 62
7
100
AcDbCircle
 10
346.2006401207742
 20
216.8729334108005
 30
0.0000000000000000
 40
7.600000000000016
100
AcDbArc
 50
233.2495625906000
 51
306.7504374094000
  0
ARC
  5
194
100
AcDbEntity
  8
MAIN1
  6
CONTINUOUS
 62
7
100
AcDbCircle
 10
346.2006401207742
 20
216.8729334108005
 30
0.0000000000000000
 40
7.600000000000030
100
AcDbArc
 50
353.2495625906000
 51
426.7504374094000
  0
LINE
  5
195
100
AcDbEntity
  8
MAIN1
  6
CONTINUOUS
 62
7
100
AcDbLine
 10
343.2006401207741
 20
211.3729334108004
 30
0.0000000000000000
 11
343.8027243590741
 21
211.3729334108004
 31
0.0000000000000000
  0
LINE
  5
196
100
AcDbEntity
  8
MAIN1
  6
CONTINUOUS
 62
7
100
AcDbLine
 10
348.5985558823742
 20
211.3729334108004
 30
0.0000000000000000
 11
349.2006401207741
 21
211.3729334108004
 31
0.0000000000000000
  0
ARC
  5
197
100
AcDbEntity
  8
MAIN1
  6
CONTINUOUS
 62
7
100
AcDbCircle
 10
336.2006401207741
 20
222.6464361026888
 30
0.0000000000000000
 40
7.000000000000000
100
AcDbArc
 50
300.0000000005704
 51
360.0000000000000
  0
ARC
  5
198
100
AcDbEntity
  8
MAIN1
  6
CONTINUOUS
 62
7
100
AcDbCircle
 10
356.2006401207741
 20
222.6464361026646
 30
0.0000000000000000
 40
7.000000000000000
100
AcDbArc
 50
180.0000000000000
 51
239.9999999983949
  0
ARC
  5
199
100
AcDbEntity
  8
MAIN1
  6
CONTINUOUS
 62
7
100
AcDbCircle
 10
346.2006401207532
 20
205.3259280269945
 30
0.0000000000000000
 40
7.000000000000000
100
AcDbArc
 50
59.99999999839466
 51
120.0000000005705
  0
LINE
  5
19A
100
AcDbEntity
  8
MAIN0
  6
HIDDEN
 62
3
100
AcDbLine
 10
104.5054940017784
 20
192.4745521098932
 30
0.0000000000000000
 11
103.8011882448426
 21
194.4096162734662
 31
0.0000000000000000
  0
LINE
  5
19B
100
AcDbEntity
  8
MAIN0
  6
HIDDEN
 62
3
100
AcDbLine
 10
106.8547255537432
 20
193.3296024682074
 30
0.0000000000000000
 11
106.1504197968074
 21
195.2646666317804
 31
0.0000000000000000
  0
CIRCLE
  5
19C
100
AcDbEntity
  8
MAIN0
  6
CONTINUOUS
 62
3
100
AcDbCircle
 10
96.95543165852905
 20
245.3729334100034
 30
0.0000000000000000
 40
3.500000000000000
  0
LINE
  5
19D
100
AcDbEntity
  8
MAIN0
  6
CONTINUOUS
 62
3
100
AcDbLine
 10
96.95543165852905
 20
247.1049842175722
 30
0.0000000000000000
 11
95.45543165852905
 21
246.2389588137878
 31
0.0000000000000000
  0
LINE
  5
19E
100
AcDbEntity
  8
MAIN0
  6
CONTINUOUS
 62
3
100
AcDbLine
 10
95.45543165852905
 20
246.2389588137878
 30
0.0000000000000000
 11
95.45543165852905
 21
244.5069080062189
 31
0.0000000000000000
  0
LINE
  5
19F
100
AcDbEntity
  8
MAIN0
  6
CONTINUOUS
 62
3
100
AcDbLine
 10
95.45543165852905
 20
244.5069080062189
 30
0.0000000000000000
 11
96.95543165852905
 21
243.6408826024345
 31
0.0000000000000000
  0
LINE
  5
1A0
100
AcDbEntity
  8
MAIN0
  6
CONTINUOUS
 62
3
100
AcDbLine
 10
96.95543165852905
 20
243.6408826024345
 30
0.0000000000000000
 11
98.45543165852905
 21
244.5069080062189
 31
0.0000000000000000
  0
LINE
  5
1A1
100
AcDbEntity
  8
MAIN0
  6
CONTINUOUS
 62
3
100
AcDbLine
 10
98.45543165852905
 20
244.5069080062189
 30
0.0000000000000000
 11
98.45543165852905
 21
246.2389588137878
 31
0.0000000000000000
  0
LINE
  5
1A2
100
AcDbEntity
  8
MAIN0
  6
CONTINUOUS
 62
3
100
AcDbLine
 10
98.45543165852905
 20
246.2389588137878
 30
0.0000000000000000
 11
96.95543165852905
 21
247.1049842175723
 31
0.0000000000000000
  0
CIRCLE
  5
1A3
100
AcDbEntity
  8
MAIN0
  6
CONTINUOUS
 62
3
100
AcDbCircle
 10
121.6371556655251
 20
202.6229334085131
 30
0.0000000000000000
 40
3.500000000000000
  0
LINE
  5
1A4
100
AcDbEntity
  8
MAIN0
  6
CONTINUOUS
 62
3
100
AcDbLine
 10
121.6371556655251
 20
204.3549842160820
 30
0.0000000000000000
 11
120.1371556655251
 21
203.4889588122975
 31
0.0000000000000000
  0
LINE
  5
1A5
100
AcDbEntity
  8
MAIN0
  6
CONTINUOUS
 62
3
100
AcDbLine
 10
120.1371556655251
 20
203.4889588122975
 30
0.0000000000000000
 11
120.1371556655251
 21
201.7569080047286
 31
0.0000000000000000
  0
LINE
  5
1A6
100
AcDbEntity
  8
MAIN0
  6
CONTINUOUS
 62
3
100
AcDbLine
 10
120.1371556655251
 20
201.7569080047286
 30
0.0000000000000000
 11
121.6371556655251
 21
200.8908826009442
 31
0.0000000000000000
  0
LINE
  5
1A7
100
AcDbEntity
  8
MAIN0
  6
CONTINUOUS
 62
3
100
AcDbLine
 10
121.6371556655251
 20
200.8908826009442
 30
0.0000000000000000
 11
123.1371556655251
 21
201.7569080047286
 31
0.0000000000000000
  0
LINE
  5
1A8
100
AcDbEntity
  8
MAIN0
  6
CONTINUOUS
 62
3
100
AcDbLine
 10
123.1371556655251
 20
201.7569080047286
 30
0.0000000000000000
 11
123.1371556655251
 21
203.4889588122975
 31
0.0000000000000000
  0
LINE
  5
1A9
100
AcDbEntity
  8
MAIN0
  6
CONTINUOUS
 62
3
100
AcDbLine
 10
123.1371556655251
 20
203.4889588122975
 30
0.0000000000000000
 11
121.6371556655251
 21
204.3549842160820
 31
0.0000000000000000
  0
CIRCLE
  5
1AA
100
AcDbEntity
  8
MAIN0
  6
CONTINUOUS
 62
3
100
AcDbCircle
 10
72.27370765153300
 20
202.6229334085130
 30
0.0000000000000000
 40
3.500000000000000
  0
LINE
  5
1AB
100
AcDbEntity
  8
MAIN0
  6
CONTINUOUS
 62
3
100
AcDbLine
 10
72.27370765153300
 20
204.3549842160819
 30
0.0000000000000000
 11
70.77370765153297
 21
203.4889588122975
 31
0.0000000000000000
  0
LINE
  5
1AC
100
AcDbEntity
  8
MAIN0
  6
CONTINUOUS
 62
3
100
AcDbLine
 10
70.77370765153300
 20
203.4889588122975
 30
0.0000000000000000
 11
70.77370765153300
 21
201.7569080047286
 31
0.0000000000000000
  0
LINE
  5
1AD
100
AcDbEntity
  8
MAIN0
  6
CONTINUOUS
 62
3
100
AcDbLine
 10
70.77370765153299
 20
201.7569080047286
 30
0.0000000000000000
 11
72.27370765153299
 21
200.8908826009441
 31
0.0000000000000000
  0
LINE
  5
1AE
100
AcDbEntity
  8
MAIN0
  6
CONTINUOUS
 62
3
100
AcDbLine
 10
72.27370765153302
 20
200.8908826009442
 30
0.0000000000000000
 11
73.77370765153299
 21
201.7569080047286
 31
0.0000000000000000
  0
LINE
  5
1AF
100
AcDbEntity
  8
MAIN0
  6
CONTINUOUS
 62
3
100
AcDbLine
 10
73.77370765153300
 20
201.7569080047286
 30
0.0000000000000000
 11
73.77370765153300
 21
203.4889588122975
 31
0.0000000000000000
  0
LINE
  5
1B0
100
AcDbEntity
  8
MAIN0
  6
CONTINUOUS
 62
3
100
AcDbLine
 10
73.77370765153299
 20
203.4889588122975
 30
0.0000000000000000
 11
72.27370765153299
 21
204.3549842160819
 31
0.0000000000000000
  0
ARC
  5
1B1
100
AcDbEntity
  8
MAIN0
  6
CONTINUOUS
 62
3
100
AcDbCircle
 10
96.95543165852905
 20
216.8729334100034
 30
0.0000000000000000
 40
33.50000000000000
100
AcDbArc
 50
18.65343395650462
 51
41.42904109640532
  0
ARC
  5
1B2
100
AcDbEntity
  8
MAIN0
  6
CONTINUOUS
 62
3
100
AcDbCircle
 10
96.95543165852905
 20
216.8729334100034
 30
0.0000000000000000
 40
33.50000000000000
100
AcDbArc
 50
52.73590896171488
 51
68.34656609247948
  0
ARC
  5
1B3
100
AcDbEntity
  8
MAIN0
  6
CONTINUOUS
 62
3
100
AcDbCircle
 10
96.95543165852905
 20
216.8729334100034
 30
0.0000000000000000
 40
33.50000000000000
100
AcDbArc
 50
79.65343395778908
 51
100.3465660422112
  0
ARC
  5
1B4
100
AcDbEntity
  8
MAIN0
  6
CONTINUOUS
 62
3
100
AcDbCircle
 10
96.95543165852905
 20
216.8729334100034
 30
0.0000000000000000
 40
33.50000000000000
100
AcDbArc
 50
111.6534339075204
 51
127.2640910382853
  0
ARC
  5
1B5
100
AcDbEntity
  8
MAIN0
  6
CONTINUOUS
 62
3
100
AcDbCircle
 10
96.95543165852905
 20
216.8729334100034
 30
0.0000000000000000
 40
33.50000000000000
100
AcDbArc
 50
138.5709589035947
 51
161.3465660434956
  0
ARC
  5
1B6
100
AcDbEntity
  8
MAIN0
  6
CONTINUOUS
 62
3
100
AcDbCircle
 10
96.95543165852905
 20
216.8729334100034
 30
0.0000000000000000
 40
33.50000000000000
100
AcDbArc
 50
172.6534339088046
 51
367.3465660911953
  0
CIRCLE
  5
1B7
100
AcDbEntity
  8
MAIN0
  6
CONTINUOUS
 62
3
100
AcDbCircle
 10
96.95543165852905
 20
188.8729334100034
 30
0.0000000000000000
 40
2.750000000000000
  0
CIRCLE
  5
1B8
100
AcDbEntity
  8
MAIN0
  6
CONTINUOUS
 62
3
100
AcDbCircle
 10
121.2041429644933
 20
230.8729334100034
 30
0.0000000000000000
 40
2.750000000000000
  0
CIRCLE
  5
1B9
100
AcDbEntity
  8
MAIN0
  6
CONTINUOUS
 62
3
100
AcDbCircle
 10
72.70672035256473
 20
230.8729334100034
 30
0.0000000000000000
 40
2.750000000000000
  0
CIRCLE
  5
1BA
100
AcDbEntity
  8
MAIN0
  6
CONTINUOUS
 62
3
100
AcDbCircle
 10
96.95543165852905
 20
245.3729334100034
 30
0.0000000000000000
 40
4.000000000000000
  0
CIRCLE
  5
1BB
100
AcDbEntity
  8
MAIN0
  6
CONTINUOUS
 62
3
100
AcDbCircle
 10
72.27370765067258
 20
202.6229334100034
 30
0.0000000000000000
 40
4.000000000000000
  0
CIRCLE
  5
1BC
100
AcDbEntity
  8
MAIN0
  6
CONTINUOUS
 62
3
100
AcDbCircle
 10
121.6371556663855
 20
202.6229334100034
 30
0.0000000000000000
 40
4.000000000000000
  0
LINE
  5
1BD
100
AcDbEntity
  8
MAIN0
  6
CENTER
 62
3
100
AcDbLine
 10
82.95543165850616
 20
237.4999591137705
 30
0.0000000000000000
 11
82.95543165849811
 21
244.7417927298308
 31
0.0000000000000000
  0
CIRCLE
  5
1BE
100
AcDbEntity
  8
MAIN0
  6
CONTINUOUS
 62
3
100
AcDbCircle
 10
68.95543165864831
 20
216.8729334100034
 30
0.0000000000000000
 40
2.000000000000000
  0
LINE
  5
1BF
100
AcDbEntity
  8
MAIN0
  6
CENTER
 62
3
100
AcDbLine
 10
78.95543165855708
 20
191.5865697036896
 30
0.0000000000000000
 11
78.95543165854848
 21
199.3490599431739
 31
0.0000000000000000
  0
LINE
  5
1C0
100
AcDbEntity
  8
MAIN0
  6
CENTER
 62
3
100
AcDbLine
 10
87.38043165853173
 20
188.3271991426636
 30
0.0000000000000000
 11
87.38043165852666
 21
192.9089610798236
 31
0.0000000000000000
  0
LINE
  5
1C1
100
AcDbEntity
  8
MAIN0
  6
CENTER
 62
3
100
AcDbLine
 10
106.5304316585306
 20
188.3271991426636
 30
0.0000000000000000
 11
106.5304316585255
 21
192.9089610798235
 31
0.0000000000000000
  0
LINE
  5
1C2
100
AcDbEntity
  8
MAIN0
  6
CENTER
 62
3
100
AcDbLine
 10
114.9554316585572
 20
191.5865697037295
 30
0.0000000000000000
 11
114.9554316585486
 21
199.3490599432138
 31
0.0000000000000000
  0
CIRCLE
  5
1C3
100
AcDbEntity
  8
MAIN0
  6
CONTINUOUS
 62
3
100
AcDbCircle
 10
124.9554316586482
 20
216.8729334100034
 30
0.0000000000000000
 40
2.000000000000000
  0
LINE
  5
1C4
100
AcDbEntity
  8
MAIN0
  6
CENTER
 62
3
100
AcDbLine
 10
110.9554316585061
 20
237.4999591138013
 30
0.0000000000000000
 11
110.9554316584981
 21
244.7417927298615
 31
0.0000000000000000
  0
LINE
  5
1C5
100
AcDbEntity
  8
MAIN0
  6
CENTER
 62
3
100
AcDbLine
 10
120.9490136246627
 20
222.4122882922021
 30
0.0000000000000000
 11
131.6853270127064
 21
224.8909615434754
 31
0.0000000000000000
  0
LINE
  5
1C6
100
AcDbEntity
  8
MAIN0
  6
CENTER
 62
3
100
AcDbLine
 10
103.9205796878511
 20
197.7363464799875
 30
0.0000000000000000
 11
108.4087079854199
 21
185.4053153267406
 31
0.0000000000000000
  0
LINE
  5
1C7
100
AcDbEntity
  8
MAIN0
  6
CENTER
 62
3
100
AcDbLine
 10
79.07756236212963
 20
241.1229334099639
 30
0.0000000000000000
 11
114.8333009548747
 21
241.1229334100035
 31
0.0000000000000000
  0
LINE
  5
1C8
100
AcDbEntity
  8
MAIN0
  6
CENTER
 62
3
100
AcDbLine
 10
75.03532080235394
 20
195.4229334099548
 30
0.0000000000000000
 11
118.8755425147517
 21
195.4229334100034
 31
0.0000000000000000
  0
LINE
  5
1C9
100
AcDbEntity
  8
MAIN0
  6
CENTER
 62
3
100
AcDbLine
 10
124.4517382286850
 20
232.7479334100035
 30
0.0000000000000000
 11
117.9565477003017
 21
228.9979334100035
 31
0.0000000000000000
  0
LINE
  5
1CA
100
AcDbEntity
  8
MAIN0
  6
CENTER
 62
3
100
AcDbLine
 10
69.45912508837301
 20
232.7479334100034
 30
0.0000000000000000
 11
75.95431561675630
 21
228.9979334100034
 31
0.0000000000000000
  0
LINE
  5
1CB
100
AcDbEntity
  8
MAIN0
  6
CENTER
 62
3
100
AcDbLine
 10
78.31539708286329
 20
206.1111044326728
 30
0.0000000000000000
 11
66.08731210669484
 21
199.0512162706553
 31
0.0000000000000000
  0
LINE
  5
1CC
100
AcDbEntity
  8
MAIN0
  6
CENTER
 62
3
100
AcDbLine
 10
115.5954662341949
 20
206.1111044326727
 30
0.0000000000000000
 11
127.8235512103633
 21
199.0512162706552
 31
0.0000000000000000
  0
LINE
  5
1CD
100
AcDbEntity
  8
MAIN0
  6
CENTER
 62
3
100
AcDbLine
 10
124.9554316586482
 20
219.8729334100034
 30
0.0000000000000000
 11
124.9554316586482
 21
213.8729334100034
 31
0.0000000000000000
  0
LINE
  5
1CE
100
AcDbEntity
  8
MAIN0
  6
CENTER
 62
3
100
AcDbLine
 10
68.95543165864831
 20
219.8729334100034
 30
0.0000000000000000
 11
68.95543165864831
 21
213.8729334100034
 31
0.0000000000000000
  0
LINE
  5
1CF
100
AcDbEntity
  8
MAIN0
  6
CENTER
 62
3
100
AcDbLine
 10
54.91973367226615
 20
216.8729334100034
 30
0.0000000000000000
 11
139.7993376386459
 21
216.8729334100034
 31
0.0000000000000000
  0
LINE
  5
1D0
100
AcDbEntity
  8
MAIN0
  6
CENTER
 62
3
100
AcDbLine
 10
84.72066947744689
 20
190.5729334099975
 30
0.0000000000000000
 11
109.1901938396103
 21
190.5729334100033
 31
0.0000000000000000
  0
LINE
  5
1D1
100
AcDbEntity
  8
MAIN0
  6
CENTER
 62
3
100
AcDbLine
 10
96.95543165852905
 20
185.1229334100034
 30
0.0000000000000000
 11
96.95543165852905
 21
192.6229334100034
 31
0.0000000000000000
  0
ARC
  5
1D2
100
AcDbEntity
  8
MAIN0
  6
CENTER
 62
3
100
AcDbCircle
 10
96.95543165852905
 20
216.8729334100034
 30
0.0000000000000000
 40
28.00000000000000
100
AcDbArc
 50
262.3241939410639
 51
277.6758060589361
  0
LINE
  5
1D3
100
AcDbEntity
  8
MAIN0
  6
CENTER
 62
3
100
AcDbLine
 10
124.4517382286850
 20
232.7479334100035
 30
0.0000000000000000
 11
117.9565477003017
 21
228.9979334100035
 31
0.0000000000000000
  0
ARC
  5
1D4
100
AcDbEntity
  8
MAIN0
  6
CENTER
 62
3
100
AcDbCircle
 10
96.95543165852905
 20
216.8729334100034
 30
0.0000000000000000
 40
27.99999999999998
100
AcDbArc
 50
22.32419394106391
 51
37.67580605893612
  0
LINE
  5
1D5
100
AcDbEntity
  8
MAIN0
  6
CENTER
 62
3
100
AcDbLine
 10
69.45912508837301
 20
232.7479334100034
 30
0.0000000000000000
 11
75.95431561675630
 21
228.9979334100034
 31
0.0000000000000000
  0
ARC
  5
1D6
100
AcDbEntity
  8
MAIN0
  6
CENTER
 62
3
100
AcDbCircle
 10
96.95543165852905
 20
216.8729334100034
 30
0.0000000000000000
 40
28.00000000000003
100
AcDbArc
 50
142.3241939410640
 51
157.6758060589361
  0
ARC
  5
1D7
100
AcDbEntity
  8
MAIN0
  6
CENTER
 62
3
100
AcDbCircle
 10
96.95543165852905
 20
216.8729334100034
 30
0.0000000000000000
 40
28.50000000000000
100
AcDbArc
 50
317.7795692800416
 51
342.3090487319078
  0
ARC
  5
1D8
100
AcDbEntity
  8
MAIN0
  6
CENTER
 62
3
100
AcDbCircle
 10
97.06568660086418
 20
217.2574380883763
 30
0.0000000000000000
 40
28.50000000000000
100
AcDbArc
 50
79.53715523741829
 51
108.7494637146240
  0
ARC
  5
1D9
100
AcDbEntity
  8
MAIN0
  6
CENTER
 62
3
100
AcDbCircle
 10
96.95543165852905
 20
216.8729334100034
 30
0.0000000000000000
 40
28.50000000000000
100
AcDbArc
 50
197.4222256036738
 51
247.8670489301132
  0
CIRCLE
  5
1DA
100
AcDbEntity
  8
MAIN0
  6
CONTINUOUS
 62
3
100
AcDbCircle
 10
96.95543165852905
 20
216.8729334100034
 30
0.0000000000000000
 40
10.00000000000000
  0
LINE
  5
1DB
100
AcDbEntity
  8
MAIN0
  6
CONTINUOUS
 62
3
100
AcDbLine
 10
129.5206560764908
 20
221.5688715830285
 30
0.0000000000000000
 11
130.1804249857271
 21
221.1566022122843
 31
0.0000000000000000
  0
LINE
  5
1DC
100
AcDbEntity
  8
MAIN0
  6
CONTINUOUS
 62
3
100
AcDbLine
 10
128.2834252753364
 20
226.9279069388248
 30
0.0000000000000000
 11
128.6956946457445
 21
227.5876758475234
 31
0.0000000000000000
  0
LINE
  5
1DD
100
AcDbEntity
  8
MAIN0
  6
CONTINUOUS
 62
3
100
AcDbLine
 10
121.3622495257087
 20
239.0137734138985
 30
0.0000000000000000
 11
122.0729202529605
 21
239.0396148645787
 31
0.0000000000000000
  0
LINE
  5
1DE
100
AcDbEntity
  8
MAIN0
  6
CONTINUOUS
 62
3
100
AcDbLine
 10
117.2676082260572
 20
242.7565413464869
 30
0.0000000000000000
 11
117.2393377642300
 21
243.5340127785346
 31
0.0000000000000000
  0
LINE
  5
1DF
100
AcDbEntity
  8
MAIN0
  6
CONTINUOUS
 62
3
100
AcDbLine
 10
108.6362056715124
 20
247.6317564559963
 30
0.0000000000000000
 11
109.3166469021440
 21
248.0089311891178
 31
0.0000000000000000
  0
LINE
  5
1E0
100
AcDbEntity
  8
MAIN0
  6
CONTINUOUS
 62
3
100
AcDbLine
 10
103.3492663431774
 20
249.1477619106385
 30
0.0000000000000000
 11
102.9720916103633
 21
249.8282031407156
 31
0.0000000000000000
  0
LINE
  5
1E1
100
AcDbEntity
  8
MAIN1
  6
CONTINUOUS
 62
7
100
AcDbLine
 10
102.7464650826292
 20
247.0455440342033
 30
0.0000000000000000
 11
103.8519160330292
 21
246.7285610750033
 31
0.0000000000000000
  0
LINE
  5
1E2
100
AcDbEntity
  8
MAIN1
  6
CONTINUOUS
 62
7
100
AcDbLine
 10
103.8519160330291
 20
246.7285610750033
 30
0.0000000000000000
 11
103.4384599992642
 21
245.2866685311761
 31
0.0000000000000000
  0
LINE
  5
1E3
100
AcDbEntity
  8
MAIN1
  6
CONTINUOUS
 62
7
100
AcDbLine
 10
103.4384599992643
 20
245.2866685311762
 30
0.0000000000000000
 11
102.3330090489643
 21
245.6036514902762
 31
0.0000000000000000
  0
LINE
  5
1E4
100
AcDbEntity
  8
MAIN1
  6
CONTINUOUS
 62
7
100
AcDbLine
 10
102.3330090489644
 20
245.6036514902763
 30
0.0000000000000000
 11
101.3407145680292
 21
242.1431093849032
 31
0.0000000000000000
  0
LINE
  5
1E5
100
AcDbEntity
  8
MAIN1
  6
CONTINUOUS
 62
7
100
AcDbLine
 10
101.3407145680289
 20
242.1431093849036
 30
0.0000000000000000
 11
106.6276538956289
 21
240.6271039279036
 31
0.0000000000000000
  0
LINE
  5
1E6
100
AcDbEntity
  8
MAIN1
  6
CONTINUOUS
 62
7
100
AcDbLine
 10
106.6276538956290
 20
240.6271039279035
 30
0.0000000000000000
 11
107.6199483765642
 21
244.0876460333764
 31
0.0000000000000000
  0
LINE
  5
1E7
100
AcDbEntity
  8
MAIN1
  6
CONTINUOUS
 62
7
100
AcDbLine
 10
107.6199483765642
 20
244.0876460333763
 30
0.0000000000000000
 11
106.5144974262642
 21
244.4046289924763
 31
0.0000000000000000
  0
LINE
  5
1E8
100
AcDbEntity
  8
MAIN1
  6
CONTINUOUS
 62
7
100
AcDbLine
 10
106.5144974262641
 20
244.4046289924766
 30
0.0000000000000000
 11
106.9279534600290
 21
245.8465215364036
 31
0.0000000000000000
  0
LINE
  5
1E9
100
AcDbEntity
  8
MAIN1
  6
CONTINUOUS
 62
7
100
AcDbLine
 10
106.9279534600289
 20
245.8465215364033
 30
0.0000000000000000
 11
108.0334044103291
 21
245.5295385772033
 31
0.0000000000000000
  0
LINE
  5
1EA
100
AcDbEntity
  8
MAIN1
  6
CONTINUOUS
 62
7
100
AcDbLine
 10
126.1525402415292
 20
226.4359533511034
 30
0.0000000000000000
 11
126.4112339539292
 21
225.3154277766033
 31
0.0000000000000000
  0
LINE
  5
1EB
100
AcDbEntity
  8
MAIN1
  6
CONTINUOUS
 62
7
100
AcDbLine
 10
126.4112339539289
 20
225.3154277766032
 30
0.0000000000000000
 11
124.9496788568400
 21
224.9780011950544
 31
0.0000000000000000
  0
LINE
  5
1EC
100
AcDbEntity
  8
MAIN1
  6
CONTINUOUS
 62
7
100
AcDbLine
 10
124.9496788568402
 20
224.9780011950547
 30
0.0000000000000000
 11
124.6909851443402
 21
226.0985267695545
 31
0.0000000000000000
  0
LINE
  5
1ED
100
AcDbEntity
  8
MAIN1
  6
CONTINUOUS
 62
7
100
AcDbLine
 10
124.6909851443400
 20
226.0985267695545
 30
0.0000000000000000
 11
121.1832529110291
 21
225.2887029739034
 31
0.0000000000000000
  0
LINE
  5
1EE
100
AcDbEntity
  8
MAIN1
  6
CONTINUOUS
 62
7
100
AcDbLine
 10
121.1832529110291
 20
225.2887029739033
 30
0.0000000000000000
 11
122.4204837099290
 21
219.9296676176033
 31
0.0000000000000000
  0
LINE
  5
1EF
100
AcDbEntity
  8
MAIN1
  6
CONTINUOUS
 62
7
100
AcDbLine
 10
122.4204837099290
 20
219.9296676176033
 30
0.0000000000000000
 11
125.9282159432400
 21
220.7394914132544
 31
0.0000000000000000
  0
LINE
  5
1F0
100
AcDbEntity
  8
MAIN1
  6
CONTINUOUS
 62
7
100
AcDbLine
 10
125.9282159432402
 20
220.7394914132547
 30
0.0000000000000000
 11
125.6695222307402
 21
221.8600169877547
 31
0.0000000000000000
  0
LINE
  5
1F1
100
AcDbEntity
  8
MAIN1
  6
CONTINUOUS
 62
7
100
AcDbLine
 10
125.6695222307400
 20
221.8600169877543
 30
0.0000000000000000
 11
127.1310773279290
 21
222.1974435693032
 31
0.0000000000000000
  0
LINE
  5
1F2
100
AcDbEntity
  8
MAIN1
  6
CONTINUOUS
 62
7
100
AcDbLine
 10
127.1310773279289
 20
222.1974435693033
 30
0.0000000000000000
 11
127.3897710403289
 21
221.0769179948032
 31
0.0000000000000000
  0
LINE
  5
1F3
100
AcDbEntity
  8
MAIN1
  6
CONTINUOUS
 62
7
100
AcDbLine
 10
102.7464650826294
 20
247.0455440342034
 30
0.0000000000000000
 11
103.3492663573980
 21
249.1477619065607
 31
0.0000000000000000
  0
LINE
  5
1F4
100
AcDbEntity
  8
MAIN1
  6
CONTINUOUS
 62
7
100
AcDbLine
 10
108.0334044103287
 20
245.5295385772032
 30
0.0000000000000000
 11
108.6362056857706
 21
247.6317564519077
 31
0.0000000000000000
  0
LINE
  5
1F5
100
AcDbEntity
  8
MAIN1
  6
CONTINUOUS
 62
7
100
AcDbLine
 10
126.1525402415291
 20
226.4359533511031
 30
0.0000000000000000
 11
128.2834252785004
 21
226.9279069251200
 31
0.0000000000000000
  0
LINE
  5
1F6
100
AcDbEntity
  8
MAIN1
  6
CONTINUOUS
 62
7
100
AcDbLine
 10
127.3897710403291
 20
221.0769179948032
 30
0.0000000000000000
 11
129.5206560796633
 21
221.5688715692871
 31
0.0000000000000000
  0
LINE
  5
1F7
100
AcDbEntity
  8
MAIN1
  6
CONTINUOUS
 62
7
100
AcDbLine
 10
119.8358041676045
 20
237.3768611762237
 30
0.0000000000000000
 11
121.3622495257087
 21
239.0137734138985
 31
0.0000000000000000
  0
LINE
  5
1F8
100
AcDbEntity
  8
MAIN1
  6
CONTINUOUS
 62
7
100
AcDbLine
 10
118.9947474112831
 20
238.1611592907528
 30
0.0000000000000000
 11
119.8358041676043
 21
237.3768611762237
 31
0.0000000000000000
  0
LINE
  5
1F9
100
AcDbEntity
  8
MAIN1
  6
CONTINUOUS
 62
7
100
AcDbLine
 10
117.9717498705377
 20
237.0641287389477
 30
0.0000000000000000
 11
118.9947474112829
 21
238.1611592907526
 31
0.0000000000000000
  0
LINE
  5
1FA
100
AcDbEntity
  8
MAIN1
  6
CONTINUOUS
 62
7
100
AcDbLine
 10
118.8128066269587
 20
236.2798306244199
 30
0.0000000000000000
 11
117.9717498705375
 21
237.0641287389473
 31
0.0000000000000000
  0
LINE
  5
1FB
100
AcDbEntity
  8
MAIN1
  6
CONTINUOUS
 62
7
100
AcDbLine
 10
116.3576125291818
 20
233.6469572999930
 30
0.0000000000000000
 11
118.8128066269590
 21
236.2798306244203
 31
0.0000000000000000
  0
LINE
  5
1FC
100
AcDbEntity
  8
MAIN1
  6
CONTINUOUS
 62
7
100
AcDbLine
 10
112.3351671723956
 20
237.3979482826236
 30
0.0000000000000000
 11
116.3576125291817
 21
233.6469572999928
 31
0.0000000000000000
  0
LINE
  5
1FD
100
AcDbEntity
  8
MAIN0
  6
CENTER
 62
3
100
AcDbLine
 10
111.6345310871736
 20
232.6143403319815
 30
0.0000000000000000
 11
122.4636315457814
 21
244.2271288081605
 31
0.0000000000000000
  0
LINE
  5
1FE
100
AcDbEntity
  8
MAIN1
  6
CONTINUOUS
 62
7
100
AcDbLine
 10
114.7903612701730
 20
240.0308216070513
 30
0.0000000000000000
 11
112.3351671723959
 21
237.3979482826240
 31
0.0000000000000000
  0
LINE
  5
1FF
100
AcDbEntity
  8
MAIN1
  6
CONTINUOUS
 62
7
100
AcDbLine
 10
115.6314180265941
 20
239.2465234925238
 30
0.0000000000000000
 11
114.7903612701728
 21
240.0308216070512
 31
0.0000000000000000
  0
LINE
  5
200
100
AcDbEntity
  8
MAIN1
  6
CONTINUOUS
 62
7
100
AcDbLine
 10
116.6544155673392
 20
240.3435540443288
 30
0.0000000000000000
 11
115.6314180265939
 21
239.2465234925238
 31
0.0000000000000000
  0
LINE
  5
201
100
AcDbEntity
  8
MAIN1
  6
CONTINUOUS
 62
7
100
AcDbLine
 10
115.8133588109179
 20
241.1278521588559
 30
0.0000000000000000
 11
116.6544155673391
 21
240.3435540443286
 31
0.0000000000000000
  0
LINE
  5
202
100
AcDbEntity
  8
MAIN1
  6
CONTINUOUS
 62
7
100
AcDbLine
 10
115.8133588109181
 20
241.1278521588559
 30
0.0000000000000000
 11
117.3021227551044
 21
242.7243560274229
 31
0.0000000000000000
  0
LINE
  5
203
100
AcDbEntity
  8
MAIN0
  6
CONTINUOUS
 62
3
100
AcDbLine
 10
64.39020724056718
 20
221.5688715830286
 30
0.0000000000000000
 11
63.73043833133085
 21
221.1566022122844
 31
0.0000000000000000
  0
LINE
  5
204
100
AcDbEntity
  8
MAIN0
  6
CONTINUOUS
 62
3
100
AcDbLine
 10
65.62743804172165
 20
226.9279069388249
 30
0.0000000000000000
 11
65.21516867131348
 21
227.5876758475235
 31
0.0000000000000000
  0
LINE
  5
205
100
AcDbEntity
  8
MAIN0
  6
CONTINUOUS
 62
3
100
AcDbLine
 10
72.54861379134937
 20
239.0137734138985
 30
0.0000000000000000
 11
71.83794306409749
 21
239.0396148645787
 31
0.0000000000000000
  0
LINE
  5
206
100
AcDbEntity
  8
MAIN0
  6
CONTINUOUS
 62
3
100
AcDbLine
 10
76.64325509100090
 20
242.7565413464869
 30
0.0000000000000000
 11
76.67152555282810
 21
243.5340127785346
 31
0.0000000000000000
  0
LINE
  5
207
100
AcDbEntity
  8
MAIN0
  6
CONTINUOUS
 62
3
100
AcDbLine
 10
85.27465764554563
 20
247.6317564559962
 30
0.0000000000000000
 11
84.59421641491403
 21
248.0089311891177
 31
0.0000000000000000
  0
LINE
  5
208
100
AcDbEntity
  8
MAIN0
  6
CONTINUOUS
 62
3
100
AcDbLine
 10
90.56159697388071
 20
249.1477619106386
 30
0.0000000000000000
 11
90.93877170669487
 21
249.8282031407157
 31
0.0000000000000000
  0
LINE
  5
209
100
AcDbEntity
  8
MAIN1
  6
CONTINUOUS
 62
7
100
AcDbLine
 10
91.16439823442879
 20
247.0455440342033
 30
0.0000000000000000
 11
90.05894728402880
 21
246.7285610750034
 31
0.0000000000000000
  0
LINE
  5
20A
100
AcDbEntity
  8
MAIN1
  6
CONTINUOUS
 62
7
100
AcDbLine
 10
90.05894728402893
 20
246.7285610750032
 30
0.0000000000000000
 11
90.47240331779381
 21
245.2866685311761
 31
0.0000000000000000
  0
LINE
  5
20B
100
AcDbEntity
  8
MAIN1
  6
CONTINUOUS
 62
7
100
AcDbLine
 10
90.47240331779379
 20
245.2866685311762
 30
0.0000000000000000
 11
91.57785426809382
 21
245.6036514902762
 31
0.0000000000000000
  0
LINE
  5
20C
100
AcDbEntity
  8
MAIN1
  6
CONTINUOUS
 62
7
100
AcDbLine
 10
91.57785426809365
 20
245.6036514902762
 30
0.0000000000000000
 11
92.57014874902885
 21
242.1431093849031
 31
0.0000000000000000
  0
LINE
  5
20D
100
AcDbEntity
  8
MAIN1
  6
CONTINUOUS
 62
7
100
AcDbLine
 10
92.57014874902907
 20
242.1431093849036
 30
0.0000000000000000
 11
87.28320942142909
 21
240.6271039279036
 31
0.0000000000000000
  0
LINE
  5
20E
100
AcDbEntity
  8
MAIN1
  6
CONTINUOUS
 62
7
100
AcDbLine
 10
87.28320942142905
 20
240.6271039279034
 30
0.0000000000000000
 11
86.29091494049393
 21
244.0876460333764
 31
0.0000000000000000
  0
LINE
  5
20F
100
AcDbEntity
  8
MAIN1
  6
CONTINUOUS
 62
7
100
AcDbLine
 10
86.29091494049391
 20
244.0876460333763
 30
0.0000000000000000
 11
87.39636589079390
 21
244.4046289924762
 31
0.0000000000000000
  0
LINE
  5
210
100
AcDbEntity
  8
MAIN1
  6
CONTINUOUS
 62
7
100
AcDbLine
 10
87.39636589079390
 20
244.4046289924766
 30
0.0000000000000000
 11
86.98290985702901
 21
245.8465215364036
 31
0.0000000000000000
  0
LINE
  5
211
100
AcDbEntity
  8
MAIN1
  6
CONTINUOUS
 62
7
100
AcDbLine
 10
86.98290985702911
 20
245.8465215364033
 30
0.0000000000000000
 11
85.87745890672895
 21
245.5295385772033
 31
0.0000000000000000
  0
LINE
  5
212
100
AcDbEntity
  8
MAIN1
  6
CONTINUOUS
 62
7
100
AcDbLine
 10
67.75832307552875
 20
226.4359533511035
 30
0.0000000000000000
 11
67.49962936312878
 21
225.3154277766034
 31
0.0000000000000000
  0
LINE
  5
213
100
AcDbEntity
  8
MAIN1
  6
CONTINUOUS
 62
7
100
AcDbLine
 10
67.49962936312925
 20
225.3154277766032
 30
0.0000000000000000
 11
68.96118446021815
 21
224.9780011950544
 31
0.0000000000000000
  0
LINE
  5
214
100
AcDbEntity
  8
MAIN1
  6
CONTINUOUS
 62
7
100
AcDbLine
 10
68.96118446021782
 20
224.9780011950547
 30
0.0000000000000000
 11
69.21987817271781
 21
226.0985267695545
 31
0.0000000000000000
  0
LINE
  5
215
100
AcDbEntity
  8
MAIN1
  6
CONTINUOUS
 62
7
100
AcDbLine
 10
69.21987817271814
 20
226.0985267695545
 30
0.0000000000000000
 11
72.72761040602902
 21
225.2887029739034
 31
0.0000000000000000
  0
LINE
  5
216
100
AcDbEntity
  8
MAIN1
  6
CONTINUOUS
 62
7
100
AcDbLine
 10
72.72761040602886
 20
225.2887029739032
 30
0.0000000000000000
 11
71.49037960712889
 21
219.9296676176032
 31
0.0000000000000000
  0
LINE
  5
217
100
AcDbEntity
  8
MAIN1
  6
CONTINUOUS
 62
7
100
AcDbLine
 10
71.49037960712913
 20
219.9296676176033
 30
0.0000000000000000
 11
67.98264737381810
 21
220.7394914132545
 31
0.0000000000000000
  0
LINE
  5
218
100
AcDbEntity
  8
MAIN1
  6
CONTINUOUS
 62
7
100
AcDbLine
 10
67.98264737381788
 20
220.7394914132546
 30
0.0000000000000000
 11
68.24134108631790
 21
221.8600169877546
 31
0.0000000000000000
  0
LINE
  5
219
100
AcDbEntity
  8
MAIN1
  6
CONTINUOUS
 62
7
100
AcDbLine
 10
68.24134108631805
 20
221.8600169877542
 30
0.0000000000000000
 11
66.77978598912904
 21
222.1974435693031
 31
0.0000000000000000
  0
LINE
  5
21A
100
AcDbEntity
  8
MAIN1
  6
CONTINUOUS
 62
7
100
AcDbLine
 10
66.77978598912912
 20
222.1974435693032
 30
0.0000000000000000
 11
66.52109227672909
 21
221.0769179948032
 31
0.0000000000000000
  0
LINE
  5
21B
100
AcDbEntity
  8
MAIN1
  6
CONTINUOUS
 62
7
100
AcDbLine
 10
91.16439823442869
 20
247.0455440342033
 30
0.0000000000000000
 11
90.56159695966004
 21
249.1477619065607
 31
0.0000000000000000
  0
LINE
  5
21C
100
AcDbEntity
  8
MAIN1
  6
CONTINUOUS
 62
7
100
AcDbLine
 10
85.87745890672932
 20
245.5295385772033
 30
0.0000000000000000
 11
85.27465763128740
 21
247.6317564519078
 31
0.0000000000000000
  0
LINE
  5
21D
100
AcDbEntity
  8
MAIN1
  6
CONTINUOUS
 62
7
100
AcDbLine
 10
67.75832307552903
 20
226.4359533511032
 30
0.0000000000000000
 11
65.62743803855761
 21
226.9279069251201
 31
0.0000000000000000
  0
LINE
  5
21E
100
AcDbEntity
  8
MAIN1
  6
CONTINUOUS
 62
7
100
AcDbLine
 10
66.52109227672899
 20
221.0769179948032
 30
0.0000000000000000
 11
64.39020723739478
 21
221.5688715692872
 31
0.0000000000000000
  0
LINE
  5
21F
100
AcDbEntity
  8
MAIN1
  6
CONTINUOUS
 62
7
100
AcDbLine
 10
74.07505914945359
 20
237.3768611762237
 30
0.0000000000000000
 11
72.54861379134934
 21
239.0137734138985
 31
0.0000000000000000
  0
LINE
  5
220
100
AcDbEntity
  8
MAIN1
  6
CONTINUOUS
 62
7
100
AcDbLine
 10
74.91611590577493
 20
238.1611592907528
 30
0.0000000000000000
 11
74.07505914945371
 21
237.3768611762237
 31
0.0000000000000000
  0
LINE
  5
221
100
AcDbEntity
  8
MAIN1
  6
CONTINUOUS
 62
7
100
AcDbLine
 10
75.93911344652047
 20
237.0641287389477
 30
0.0000000000000000
 11
74.91611590577520
 21
238.1611592907526
 31
0.0000000000000000
  0
LINE
  5
222
100
AcDbEntity
  8
MAIN1
  6
CONTINUOUS
 62
7
100
AcDbLine
 10
75.09805669009934
 20
236.2798306244200
 30
0.0000000000000000
 11
75.93911344652061
 21
237.0641287389474
 31
0.0000000000000000
  0
LINE
  5
223
100
AcDbEntity
  8
MAIN1
  6
CONTINUOUS
 62
7
100
AcDbLine
 10
77.55325078787618
 20
233.6469572999929
 30
0.0000000000000000
 11
75.09805669009901
 21
236.2798306244202
 31
0.0000000000000000
  0
LINE
  5
224
100
AcDbEntity
  8
MAIN1
  6
CONTINUOUS
 62
7
100
AcDbLine
 10
81.57569614466246
 20
237.3979482826237
 30
0.0000000000000000
 11
77.55325078787638
 21
233.6469572999928
 31
0.0000000000000000
  0
LINE
  5
225
100
AcDbEntity
  8
MAIN0
  6
CENTER
 62
3
100
AcDbLine
 10
82.27633222988449
 20
232.6143403319815
 30
0.0000000000000000
 11
71.44723177127673
 21
244.2271288081605
 31
0.0000000000000000
  0
LINE
  5
226
100
AcDbEntity
  8
MAIN1
  6
CONTINUOUS
 62
7
100
AcDbLine
 10
79.12050204688502
 20
240.0308216070513
 30
0.0000000000000000
 11
81.57569614466220
 21
237.3979482826239
 31
0.0000000000000000
  0
LINE
  5
227
100
AcDbEntity
  8
MAIN1
  6
CONTINUOUS
 62
7
100
AcDbLine
 10
78.27944529046394
 20
239.2465234925237
 30
0.0000000000000000
 11
79.12050204688521
 21
240.0308216070511
 31
0.0000000000000000
  0
LINE
  5
228
100
AcDbEntity
  8
MAIN1
  6
CONTINUOUS
 62
7
100
AcDbLine
 10
77.25644774971875
 20
240.3435540443287
 30
0.0000000000000000
 11
78.27944529046413
 21
239.2465234925237
 31
0.0000000000000000
  0
LINE
  5
229
100
AcDbEntity
  8
MAIN1
  6
CONTINUOUS
 62
7
100
AcDbLine
 10
78.09750450614021
 20
241.1278521588559
 30
0.0000000000000000
 11
77.25644774971894
 21
240.3435540443286
 31
0.0000000000000000
  0
LINE
  5
22A
100
AcDbEntity
  8
MAIN1
  6
CONTINUOUS
 62
7
100
AcDbLine
 10
78.09750450614001
 20
241.1278521588559
 30
0.0000000000000000
 11
76.60874056195372
 21
242.7243560274229
 31
0.0000000000000000
  0
LINE
  5
22B
100
AcDbEntity
  8
MAIN0
  6
CENTER
 62
3
100
AcDbLine
 10
96.95543165852905
 20
174.0686211337829
 30
0.0000000000000000
 11
96.95543165852904
 21
259.5674525158718
 31
0.0000000000000000
  0
LINE
  5
22C
100
AcDbEntity
  8
MAIN0
  6
HIDDEN
 62
3
100
AcDbLine
 10
341.4506401210264
 20
121.2601449700861
 30
0.0000000000000000
 11
341.0506401210263
 21
121.6601449700861
 31
0.0000000000000000
  0
LINE
  5
22D
100
AcDbEntity
  8
MAIN0
  6
HIDDEN
 62
3
100
AcDbLine
 10
341.4506401210264
 20
116.1601449700862
 30
0.0000000000000000
 11
341.4506401210264
 21
121.2601449700862
 31
0.0000000000000000
  0
LINE
  5
22E
100
AcDbEntity
  8
MAIN0
  6
HIDDEN
 62
3
100
AcDbLine
 10
350.9506401210264
 20
116.1601449700862
 30
0.0000000000000000
 11
341.4506401210264
 21
116.1601449700862
 31
0.0000000000000000
  0
LINE
  5
22F
100
AcDbEntity
  8
MAIN0
  6
HIDDEN
 62
3
100
AcDbLine
 10
350.9506401210264
 20
121.2601449700862
 30
0.0000000000000000
 11
350.9506401210264
 21
116.1601449700862
 31
0.0000000000000000
  0
LINE
  5
230
100
AcDbEntity
  8
MAIN0
  6
HIDDEN
 62
3
100
AcDbLine
 10
351.3506401210263
 20
121.6601449700861
 30
0.0000000000000000
 11
350.9506401210263
 21
121.2601449700861
 31
0.0000000000000000
  0
LINE
  5
231
100
AcDbEntity
  8
MAIN0
  6
HIDDEN
 62
3
100
AcDbLine
 10
348.9506401210264
 20
116.1601449700862
 30
0.0000000000000000
 11
348.9506401210264
 21
113.0601449700862
 31
0.0000000000000000
  0
LINE
  5
232
100
AcDbEntity
  8
MAIN0
  6
HIDDEN
 62
3
100
AcDbLine
 10
343.4506401210264
 20
116.1601449700862
 30
0.0000000000000000
 11
343.4506401210264
 21
113.0601449700862
 31
0.0000000000000000
  0
LINE
  5
233
100
AcDbEntity
  8
MAIN0
  6
HIDDEN
 62
3
100
AcDbLine
 10
343.4506401210263
 20
113.0601449700861
 30
0.0000000000000000
 11
343.0506401210263
 21
112.6601449700861
 31
0.0000000000000000
  0
LINE
  5
234
100
AcDbEntity
  8
MAIN0
  6
HIDDEN
 62
3
100
AcDbLine
 10
348.9506401210263
 20
113.0601449700861
 30
0.0000000000000000
 11
349.3506401210262
 21
112.6601449700861
 31
0.0000000000000000
  0
LINE
  5
235
100
AcDbEntity
  8
MAIN0
  6
CONTINUOUS
 62
3
100
AcDbLine
 10
244.5208312734480
 20
176.0729334100269
 30
0.0000000000000000
 11
244.7208312734501
 21
175.8729334100264
 31
0.0000000000000000
  0
LINE
  5
236
100
AcDbEntity
  8
MAIN0
  6
CONTINUOUS
 62
3
100
AcDbLine
 10
229.5208312730816
 20
177.2729334102313
 30
0.0000000000000000
 11
229.9208312730819
 21
176.8729334102341
 31
0.0000000000000000
  0
LINE
  5
237
100
AcDbEntity
  8
MAIN0
  6
CENTER
 62
3
100
AcDbLine
 10
277.0498556648964
 20
216.8729334098495
 30
0.0000000000000000
 11
188.2604928904422
 21
216.8729334100298
 31
0.0000000000000000
  0
CIRCLE
  5
238
100
AcDbEntity
  8
MAIN0
  6
HIDDEN
 62
3
100
AcDbCircle
 10
346.2006401207742
 20
216.8729334108005
 30
0.0000000000000000
 40
40.00000000000000
  0
DIMENSION
  5
23F
100
AcDbEntity
  8
MAIN0
  6
CONTINUOUS
 62
3
100
AcDbDimension
  2
*D23
 10
367.6664798492587
 20
234.8511904106046
 30
0.0000000000000000
 11
360.5050944337136
 21
229.5055235777784
 31
0.0000000000000000
 70
163
  3
MAIN001
100
AcDbDiametricDimension
 15
324.7348003922895
 25
198.8946764109961
 35
0.0000000000000000
1001
ACAD
1000
DSTYLE
1002
{
1070
   287
1070
     2
1070
   173
1070
     1
1070
     6
1000
_OPEN
1070
     7
1000
_OPEN
1070
    41
1040
2.000000
1002
}
  0
DIMENSION
  5
249
100
AcDbEntity
  8
MAIN0
  6
CONTINUOUS
 62
3
100
AcDbDimension
  2
*D24
 10
342.7006401207117
 20
261.6070981673047
 30
0.0000000000000000
 11
339.2000005010551
 21
262.1070981673047
 31
0.0000000000000000
 70
160
  3
MAIN001
100
AcDbAlignedDimension
 13
349.7006401207117
 23
256.7602747611579
 33
0.0000000000000000
 14
342.7006401207117
 24
256.7602747611595
 34
0.0000000000000000
100
AcDbRotatedDimension
1001
ACAD
1000
DSTYLE
1002
{
1070
   173
1070
     1
1070
     6
1000
_OPEN
1070
     7
1000
_OPEN
1070
    41
1040
2.000000
1002
}
  0
DIMENSION
  5
252
100
AcDbEntity
  8
MAIN0
  6
CONTINUOUS
 62
3
100
AcDbDimension
  2
*D25
 10
384.2748066194970
 20
194.8908031336036
 30
0.0000000000000000
 11
369.6021890964306
 21
176.3402616091996
 31
0.0000000000000000
 70
162
  3
MAIN001
100
AcDb2LineAngularDimension
 13
346.2006401208080
 23
173.8715206228321
 33
0.0000000000000000
 14
346.2006401208072
 24
174.8715206228321
 34
0.0000000000000000
 15
383.4087812157125
 25
195.3908031336034
 35
0.0000000000000000
 16
369.8521890964310
 26
175.9072489073072
 36
0.0000000000000000
1001
ACAD
1000
DSTYLE
1002
{
1070
   173
1070
     1
1070
     6
1000
_OPEN
1070
     7
1000
_OPEN
1070
    41
1040
2.000000
1002
}
  0
DIMENSION
  5
25B
100
AcDbEntity
  8
MAIN0
  6
CONTINUOUS
 62
3
100
AcDbDimension
  2
*D26
 10
389.7811957955481
 20
216.8729334108911
 30
0.0000000000000000
 11
391.4089611822460
 21
204.7594002912176
 31
0.0000000000000000
 70
162
  3
MAIN001
100
AcDb2LineAngularDimension
 13
384.2748066194970
 23
194.8908031336036
 33
0.0000000000000000
 14
383.4087812157125
 24
195.3908031336034
 34
0.0000000000000000
 15
388.7811957955481
 25
216.8729334108890
 35
0.0000000000000000
 16
391.8919240953908
 26
204.6299907686664
 36
0.0000000000000000
1001
ACAD
1000
DSTYLE
1002
{
1070
   173
1070
     1
1070
     6
1000
_OPEN
1070
     7
1000
_OPEN
1070
    41
1040
2.000000
1002
}
  0
DIMENSION
  5
264
100
AcDbEntity
  8
MAIN0
  6
CONTINUOUS
 62
3
100
AcDbDimension
  2
*D27
 10
381.3458121618691
 20
237.1640079494526
 30
0.0000000000000000
 11
391.4089611822440
 21
228.9864665303935
 31
0.0000000000000000
 70
162
  3
MAIN001
100
AcDb2LineAngularDimension
 13
389.7811957955481
 23
216.8729334108911
 33
0.0000000000000000
 14
388.7811957955481
 24
216.8729334108890
 34
0.0000000000000000
 15
380.4797867580847
 25
236.6640079494524
 35
0.0000000000000000
 16
391.8919240953881
 26
229.1158760529447
 36
0.0000000000000000
1001
ACAD
1000
DSTYLE
1002
{
1070
   173
1070
     1
1070
     6
1000
_OPEN
1070
     7
1000
_OPEN
1070
    41
1040
2.000000
1002
}
  0
DIMENSION
  5
26D
100
AcDbEntity
  8
MAIN0
  6
CONTINUOUS
 62
3
100
AcDbDimension
  2
*D28
 10
346.2006401207409
 20
259.4576959730439
 30
0.0000000000000000
 11
370.1021890963893
 21
258.2716306162095
 31
0.0000000000000000
 70
162
  3
MAIN001
100
AcDb2LineAngularDimension
 13
381.3458121618691
 23
237.1640079494526
 33
0.0000000000000000
 14
380.4797867580847
 24
236.6640079494524
 34
0.0000000000000000
 15
346.2006401207417
 25
258.4576959730439
 35
0.0000000000000000
 16
369.8521890963897
 26
257.8386179143175
 36
0.0000000000000000
1001
ACAD
1000
DSTYLE
1002
{
1070
   173
1070
     1
1070
     6
1000
_OPEN
1070
     7
1000
_OPEN
1070
    41
1040
2.000000
1002
}
  0
DIMENSION
  5
278
100
AcDbEntity
  8
MAIN0
  6
CONTINUOUS
 62
3
100
AcDbDimension
  2
*D29
 10
87.38043165853162
 20
146.8729334103671
 30
0.0000000000000000
 11
93.78043157210436
 21
147.3729334103671
 31
0.0000000000000000
 70
32
  3
MAIN001
100
AcDbAlignedDimension
 13
106.5304316585305
 23
188.3271991426635
 33
0.0000000000000000
 14
87.38043165853182
 24
188.3271991426636
 34
0.0000000000000000
100
AcDbRotatedDimension
1001
ACAD
1000
DSTYLE
1002
{
1070
   173
1070
     1
1070
     6
1000
_OPEN
1070
     7
1000
_OPEN
1070
    41
1040
2.000000
1070
   287
1070
     0
1070
   272
1070
     1
1070
    47
1040
0.100000
1070
    48
1040
0.100000
1070
    71
1070
     1
1002
}
  0
DIMENSION
  5
281
100
AcDbEntity
  8
MAIN0
  6
CONTINUOUS
 62
3
100
AcDbDimension
  2
*D30
 10
78.95543165855713
 20
136.8729334103671
 30
0.0000000000000000
 11
93.78043157213040
 21
137.3729334103671
 31
0.0000000000000000
 70
32
  3
MAIN001
100
AcDbAlignedDimension
 13
114.9554316585571
 23
191.5865697037295
 33
0.0000000000000000
 14
78.95543165855708
 24
191.5865697036896
 34
0.0000000000000000
100
AcDbRotatedDimension
1001
ACAD
1000
DSTYLE
1002
{
1070
   173
1070
     1
1070
     6
1000
_OPEN
1070
     7
1000
_OPEN
1070
    41
1040
2.000000
1070
   272
1070
     1
1070
    47
1040
0.200000
1070
    48
1040
0.200000
1070
    71
1070
     1
1002
}
  0
DIMENSION
  5
28A
100
AcDbEntity
  8
MAIN0
  6
CONTINUOUS
 62
3
100
AcDbDimension
  2
*D31
 10
68.95543165864820
 20
126.8729334103671
 30
0.0000000000000000
 11
92.88043154763449
 21
127.3729334103671
 31
0.0000000000000000
 70
32
  3
MAIN001
100
AcDbAlignedDimension
 13
124.9554316586481
 23
213.8729334100034
 33
0.0000000000000000
 14
68.95543165864820
 24
213.8729334100034
 34
0.0000000000000000
100
AcDbRotatedDimension
1001
ACAD
1000
DSTYLE
1002
{
1070
   173
1070
     1
1070
     6
1000
_OPEN
1070
     7
1000
_OPEN
1070
    41
1040
2.000000
1070
   272
1070
     2
1070
    47
1040
0.020000
1070
    48
1040
0.020000
1070
    71
1070
     1
1002
}
  0
DIMENSION
  5
293
100
AcDbEntity
  8
MAIN0
  6
CONTINUOUS
 62
3
100
AcDbDimension
  2
*D32
 10
41.11033423040908
 20
241.1229334099638
 30
0.0000000000000000
 11
40.61033423040908
 21
225.8229333235569
 31
0.0000000000000000
 70
32
  3
MAIN001
100
AcDbAlignedDimension
 13
54.91973367226603
 23
216.8729334100034
 33
0.0000000000000000
 14
79.07756236212944
 24
241.1229334099638
 34
0.0000000000000000
 50
90.00000000000000
100
AcDbRotatedDimension
1001
ACAD
1000
DSTYLE
1002
{
1070
   173
1070
     1
1070
     6
1000
_OPEN
1070
     7
1000
_OPEN
1070
    41
1040
2.000000
1070
   272
1070
     1
1070
    47
1040
0.100000
1070
    48
1040
0.100000
1070
    71
1070
     1
1002
}
  0
DIMENSION
  5
29C
100
AcDbEntity
  8
MAIN0
  6
CONTINUOUS
 62
3
100
AcDbDimension
  2
*D33
 10
41.11033423040908
 20
216.8729334100034
 30
0.0000000000000000
 11
40.61033423040908
 21
202.9729333235524
 31
0.0000000000000000
 70
32
  3
MAIN001
100
AcDbAlignedDimension
 13
75.03532080235391
 23
195.4229334099548
 33
0.0000000000000000
 14
54.91973367226603
 24
216.8729334100034
 34
0.0000000000000000
 50
90.00000000000000
100
AcDbRotatedDimension
1001
ACAD
1000
DSTYLE
1002
{
1070
   173
1070
     1
1070
     6
1000
_OPEN
1070
     7
1000
_OPEN
1070
    41
1040
2.000000
1070
   272
1070
     1
1070
    47
1040
0.100000
1070
    48
1040
0.100000
1070
    71
1070
     1
1002
}
  0
DIMENSION
  5
2A5
100
AcDbEntity
  8
MAIN0
  6
CONTINUOUS
 62
3
100
AcDbDimension
  2
*D34
 10
29.36067020289647
 20
216.8729334100034
 30
0.0000000000000000
 11
28.86067020289647
 21
200.5479333235737
 31
0.0000000000000000
 70
32
  3
MAIN001
100
AcDbAlignedDimension
 13
84.72066947744685
 23
190.5729334099976
 33
0.0000000000000000
 14
54.91973367226603
 24
216.8729334100034
 34
0.0000000000000000
 50
90.00000000000000
100
AcDbRotatedDimension
1001
ACAD
1000
DSTYLE
1002
{
1070
   173
1070
     1
1070
     6
1000
_OPEN
1070
     7
1000
_OPEN
1070
    41
1040
2.000000
1070
   272
1070
     1
1070
    47
1040
0.100000
1070
    48
1040
0.100000
1070
    71
1070
     1
1002
}
  0
DIMENSION
  5
2AE
100
AcDbEntity
  8
MAIN0
  6
CONTINUOUS
 62
3
100
AcDbDimension
  2
*D35
 10
82.95543165849813
 20
281.8729334103672
 30
0.0000000000000000
 11
93.78043157207139
 21
282.3729334103672
 31
0.0000000000000000
 70
32
  3
MAIN001
100
AcDbAlignedDimension
 13
110.9554316584980
 23
244.7417927298616
 33
0.0000000000000000
 14
82.95543165849804
 24
244.7417927298308
 34
0.0000000000000000
100
AcDbRotatedDimension
1001
ACAD
1000
DSTYLE
1002
{
1070
   173
1070
     1
1070
     6
1000
_OPEN
1070
     7
1000
_OPEN
1070
    41
1040
2.000000
1070
   272
1070
     1
1070
    47
1040
0.200000
1070
    48
1040
0.200000
1070
    71
1070
     1
1002
}
  0
DIMENSION
  5
2B7
100
AcDbEntity
  8
MAIN0
  6
CONTINUOUS
 62
3
100
AcDbDimension
  2
*D36
 10
127.8235512103633
 20
199.0512162706555
 30
0.0000000000000000
 11
135.3295816770075
 21
175.0401419837160
 31
0.0000000000000000
 70
162
  3
MAIN001
100
AcDb2LineAngularDimension
 13
96.95543165852905
 23
173.1490230792188
 33
0.0000000000000000
 14
96.95543165852905
 24
174.1490230792188
 34
0.0000000000000000
 15
126.9575258068657
 25
199.5512162711523
 35
0.0000000000000000
 16
125.5892202813461
 26
167.2777566861359
 36
0.0000000000000000
1001
ACAD
1000
DSTYLE
1002
{
1070
   173
1070
     1
1070
     6
1000
_OPEN
1070
     7
1000
_OPEN
1070
    41
1040
2.000000
1002
}
  0
DIMENSION
  5
2C0
100
AcDbEntity
  8
MAIN0
  6
CONTINUOUS
 62
3
100
AcDbDimension
  2
*D37
 10
139.7993376386457
 20
216.8729334100034
 30
0.0000000000000000
 11
151.7887006392138
 21
202.1804032683048
 31
0.0000000000000000
 70
162
  3
MAIN001
100
AcDb2LineAngularDimension
 13
127.8235512103633
 23
199.0512162706555
 33
0.0000000000000000
 14
126.9575258068657
 24
199.5512162711523
 34
0.0000000000000000
 15
138.7993376386457
 25
216.8729334103977
 35
0.0000000000000000
 16
152.2716635523212
 26
202.0509937456150
 36
0.0000000000000000
1001
ACAD
1000
DSTYLE
1002
{
1070
   173
1070
     1
1070
     6
1000
_OPEN
1070
     7
1000
_OPEN
1070
    41
1040
2.000000
1002
}
  0
DIMENSION
  5
2C9
100
AcDbEntity
  8
MAIN0
  6
CONTINUOUS
 62
3
100
AcDbDimension
  2
*D38
 10
124.4517382286849
 20
232.7479334100033
 30
0.0000000000000000
 11
152.7546264742268
 21
231.8242825980296
 31
0.0000000000000000
 70
162
  3
MAIN001
100
AcDb2LineAngularDimension
 13
139.7993376386457
 23
216.8729334100034
 33
0.0000000000000000
 14
138.7993376386457
 24
216.8729334103977
 34
0.0000000000000000
 15
123.5857128246701
 25
232.2479334104023
 35
0.0000000000000000
 16
152.2716635610432
 26
231.6948730756240
 36
0.0000000000000000
1001
ACAD
1000
DSTYLE
1002
{
1070
   173
1070
     1
1070
     6
1000
_OPEN
1070
     7
1000
_OPEN
1070
    41
1040
2.000000
1002
}
  0
DIMENSION
  5
2D2
100
AcDbEntity
  8
MAIN0
  6
CONTINUOUS
 62
3
100
AcDbDimension
  2
*D39
 10
96.95543165852905
 20
259.5674525158718
 30
0.0000000000000000
 11
125.8392203106610
 21
266.9011228526213
 31
0.0000000000000000
 70
162
  3
MAIN001
100
AcDb2LineAngularDimension
 13
124.4517382286849
 23
232.7479334100033
 33
0.0000000000000000
 14
123.5857128246701
 24
232.2479334104023
 34
0.0000000000000000
 15
96.95543165852905
 25
258.5674525158718
 35
0.0000000000000000
 16
125.5892203105304
 26
266.4681101508044
 36
0.0000000000000000
1001
ACAD
1000
DSTYLE
1002
{
1070
   173
1070
     1
1070
     6
1000
_OPEN
1070
     7
1000
_OPEN
1070
    41
1040
2.000000
1002
}
  0
DIMENSION
  5
2DB
100
AcDbEntity
  8
MAIN0
  6
CONTINUOUS
 62
3
100
AcDbDimension
  2
*D40
 10
108.4087079854213
 20
185.4053153267365
 30
0.0000000000000000
 11
102.4952981483228
 21
170.4341154260394
 31
0.0000000000000000
 70
162
  3
MAIN001
100
AcDb2LineAngularDimension
 13
96.95543165852905
 23
173.1490230792188
 33
0.0000000000000000
 14
96.95543165852905
 24
174.1490230792188
 34
0.0000000000000000
 15
108.0666878420971
 25
186.3450079475230
 35
0.0000000000000000
 16
105.1634487817768
 26
170.3229551274005
 36
0.0000000000000000
1001
ACAD
1000
DSTYLE
1002
{
1070
   173
1070
     1
1070
     6
1000
_OPEN
1070
     7
1000
_OPEN
1070
    41
1040
2.000000
1002
}
  0
CIRCLE
  5
2DC
100
AcDbEntity
  8
MAIN0
  6
CONTINUOUS
 62
3
100
AcDbCircle
 10
82.95543165850211
 20
241.1229334099724
 30
0.0000000000000000
 40
2.100000000000000
  0
CIRCLE
  5
2DD
100
AcDbEntity
  8
MAIN0
  6
CONTINUOUS
 62
3
100
AcDbCircle
 10
82.95543165850211
 20
241.1229334099724
 30
0.0000000000000000
 40
2.500000000000000
  0
CIRCLE
  5
2DE
100
AcDbEntity
  8
MAIN0
  6
CONTINUOUS
 62
3
100
AcDbCircle
 10
78.95543165855281
 20
195.4229334099634
 30
0.0000000000000000
 40
2.100000000000000
  0
CIRCLE
  5
2DF
100
AcDbEntity
  8
MAIN0
  6
CONTINUOUS
 62
3
100
AcDbCircle
 10
78.95543165855281
 20
195.4229334099634
 30
0.0000000000000000
 40
2.500000000000000
  0
CIRCLE
  5
2E0
100
AcDbEntity
  8
MAIN0
  6
CONTINUOUS
 62
3
100
AcDbCircle
 10
87.38043165852912
 20
190.5729334100034
 30
0.0000000000000000
 40
1.250000000000000
  0
CIRCLE
  5
2E1
100
AcDbEntity
  8
MAIN0
  6
CONTINUOUS
 62
3
100
AcDbCircle
 10
87.38043165852912
 20
190.5729334100034
 30
0.0000000000000000
 40
1.500000000000000
  0
CIRCLE
  5
2E2
100
AcDbEntity
  8
MAIN0
  6
CONTINUOUS
 62
3
100
AcDbCircle
 10
106.5304316585281
 20
190.5729334100033
 30
0.0000000000000000
 40
1.250000000000000
  0
CIRCLE
  5
2E3
100
AcDbEntity
  8
MAIN0
  6
CONTINUOUS
 62
3
100
AcDbCircle
 10
106.5304316585281
 20
190.5729334100033
 30
0.0000000000000000
 40
1.500000000000000
  0
CIRCLE
  5
2E4
100
AcDbEntity
  8
MAIN0
  6
CONTINUOUS
 62
3
100
AcDbCircle
 10
114.9554316585528
 20
195.4229334100033
 30
0.0000000000000000
 40
2.500000000000000
  0
CIRCLE
  5
2E5
100
AcDbEntity
  8
MAIN0
  6
CONTINUOUS
 62
3
100
AcDbCircle
 10
114.9554316585528
 20
195.4229334100033
 30
0.0000000000000000
 40
2.100000000000000
  0
CIRCLE
  5
2E6
100
AcDbEntity
  8
MAIN0
  6
CONTINUOUS
 62
3
100
AcDbCircle
 10
110.9554316585022
 20
241.1229334100034
 30
0.0000000000000000
 40
2.500000000000000
  0
CIRCLE
  5
2E7
100
AcDbEntity
  8
MAIN0
  6
CONTINUOUS
 62
3
100
AcDbCircle
 10
110.9554316585022
 20
241.1229334100034
 30
0.0000000000000000
 40
2.100000000000000
  0
LINE
  5
2E8
100
AcDbEntity
  8
MAIN0
  6
CENTER
 62
3
100
AcDbLine
 10
102.8402822720624
 20
237.3958464924264
 30
0.0000000000000000
 11
106.4051876479158
 21
249.8281489910776
 31
0.0000000000000000
  0
LINE
  5
2E9
100
AcDbEntity
  8
MAIN0
  6
CENTER
 62
3
100
AcDbLine
 10
91.07058104499573
 20
237.3958464924263
 30
0.0000000000000000
 11
87.50567566914225
 21
249.8281489910777
 31
0.0000000000000000
  0
LEADER
  5
2EA
100
AcDbEntity
  8
MAIN0
  6
CONTINUOUS
 62
3
100
AcDbLeader
  3
MAIN001
 73
     0
 75
     1
 40
3.099999904632568
 41
26.79900072717666
 76
     3
 10
81.81887550265009
 20
243.3496440118682
 30
0.0000000000000000
 10
68.45531166503133
 20
269.5311829733861
 30
0.0000000000000000
 10
66.52831172082128
 20
269.5311829733861
 30
0.0000000000000000
340
2EB
213
0.0000000000000000
223
-0.5000000000000000
233
0.0000000000000000
1001
ACAD
1000
DSTYLE
1002
{
1070
   147
1040
0.0
1070
    77
1070
     1
1070
   173
1070
     1
1070
     6
1000
_OPEN
1070
     7
1000
_OPEN
1002
}
  0
MTEXT
  5
2EB
102
{ACAD_REACTORS
330
2EA
102
}
100
AcDbEntity
  8
MAIN0
  6
CONTINUOUS
 62
3
100
AcDbMText
 10
39.72931099364462
 20
273.1311828780187
 30
0.0000000000000000
 40
3.099999904632568
 41
0.0000000000000000
 71
     1
 72
     1
  1
{\H0.93x;{4-M5 ねじ深9\PDepth 9}}
 11
1.000000000000000
 21
0.0000000000000000
 31
0.0000000000000000
  7
KNJYOKO
  0
LEADER
  5
2EC
100
AcDbEntity
  8
MAIN0
  6
CONTINUOUS
 62
3
100
AcDbLeader
  3
MAIN001
 73
     0
 74
     0
 75
     1
 40
3.099999904632568
 41
38.68100113964081
 76
     3
 10
234.6049040126895
 20
268.4526695526207
 30
0.0000000000000000
 10
237.1457074219155
 20
272.8857221237850
 30
0.0000000000000000
 10
239.0707073661256
 20
272.8857221237850
 30
0.0000000000000000
340
2ED
213
-0.001000000000004775
223
-0.5000000000000000
233
0.0000000000000000
1001
ACAD
1000
DSTYLE
1002
{
1070
   147
1040
0.0
1070
    77
1070
     1
1070
   173
1070
     1
1070
     6
1000
_OPEN
1070
     7
1000
_OPEN
1002
}
  0
MTEXT
  5
2ED
102
{ACAD_REACTORS
330
2EC
102
}
100
AcDbEntity
  8
MAIN0
  6
CONTINUOUS
 62
3
100
AcDbMText
 10
239.0717073661256
 20
276.4857220284176
 30
0.0000000000000000
 40
3.099999904632568
 41
0.0000000000000000
 71
     1
 72
     1
  1
{\H0.93x;{7mm幅長さ\P7 Width Length}}
 11
1.000000000000000
 21
0.0000000000000000
 31
0.0000000000000000
  7
KNJYOKO
  0
LEADER
  5
2EE
100
AcDbEntity
  8
MAIN0
  6
CONTINUOUS
 62
3
100
AcDbLeader
  3
MAIN001
 73
     0
 74
     0
 75
     1
 40
3.099999904632568
 41
56.80100162124634
 76
     3
 10
107.3198862455190
 20
189.2974878192075
 30
0.0000000000000000
 10
133.1152850138052
 20
162.2516671028003
 30
0.0000000000000000
 10
135.0402849580152
 20
162.2516671028003
 30
0.0000000000000000
340
2EF
213
-0.001000000000004775
223
-0.5000000000000000
233
0.0000000000000000
1001
ACAD
1000
DSTYLE
1002
{
1070
   147
1040
0.0
1070
    77
1070
     1
1070
   173
1070
     1
1070
     6
1000
_OPEN
1070
     7
1000
_OPEN
1002
}
  0
MTEXT
  5
2EF
102
{ACAD_REACTORS
330
2EE
102
}
100
AcDbEntity
  8
MAIN0
  6
CONTINUOUS
 62
3
100
AcDbMText
 10
135.0412849580152
 20
165.8516670074329
 30
0.0000000000000000
 40
3.099999904632568
 41
0.0000000000000000
 71
     1
 72
     1
  1
{\H0.94x;{引ポート M3（ベース配管用）\PPull Port\P（for direct connect）}}
 11
1.000000000000000
 21
0.0000000000000000
 31
0.0000000000000000
  7
KNJYOKO
  0
LEADER
  5
2F0
100
AcDbEntity
  8
MAIN0
  6
CONTINUOUS
 62
3
100
AcDbLeader
  3
MAIN001
 73
     0
 75
     1
 40
3.099999904632568
 41
33.78900097513198
 76
     3
 10
86.40952953698472
 20
189.4295397462146
 30
0.0000000000000000
 10
61.51813934309047
 20
160.1159177044917
 30
0.0000000000000000
 10
59.59113939888042
 20
160.1159177044917
 30
0.0000000000000000
340
2F1
213
0.0000000000000000
223
-0.5000000000000000
233
0.0000000000000000
1001
ACAD
1000
DSTYLE
1002
{
1070
   147
1040
0.0
1070
    77
1070
     1
1070
   173
1070
     1
1070
     6
1000
_OPEN
1070
     7
1000
_OPEN
1002
}
  0
MTEXT
  5
2F1
102
{ACAD_REACTORS
330
2F0
102
}
100
AcDbEntity
  8
MAIN0
  6
CONTINUOUS
 62
3
100
AcDbMText
 10
25.80213842374843
 20
163.7159176091243
 30
0.0000000000000000
 40
3.099999904632568
 41
0.0000000000000000
 71
     1
 72
     1
  1
{\H0.93x;{押ポート M3\P（ベース配管用）\PPush Port\P（for direct \P　　connect）\P}
 11
1.000000000000000
 21
0.0000000000000000
 31
0.0000000000000000
  7
KNJYOKO
  0
LINE
  5
2F2
100
AcDbEntity
  8
MAIN1
  6
CONTINUOUS
 62
7
100
AcDbLine
 10
341.8406401208282
 20
152.7601449699446
 30
0.0000000000000000
 11
341.8406401208282
 21
148.2601449699446
 31
0.0000000000000000
  0
LINE
  5
2F3
100
AcDbEntity
  8
MAIN1
  6
CONTINUOUS
 62
7
100
AcDbLine
 10
350.5606401208282
 20
148.2601449699446
 30
0.0000000000000000
 11
350.5606401208282
 21
152.7601449699446
 31
0.0000000000000000
  0
LINE
  5
2F4
100
AcDbEntity
  8
MAIN1
  6
CONTINUOUS
 62
7
100
AcDbLine
 10
350.5606401208282
 20
152.7601449699445
 30
0.0000000000000000
 11
350.0606401208282
 21
153.2601449699445
 31
0.0000000000000000
  0
LINE
  5
2F5
100
AcDbEntity
  8
MAIN1
  6
CONTINUOUS
 62
7
100
AcDbLine
 10
342.3406401208282
 20
153.2601449699445
 30
0.0000000000000000
 11
341.8406401208282
 21
152.7601449699445
 31
0.0000000000000000
  0
LINE
  5
2F6
100
AcDbEntity
  8
MAIN1
  6
CONTINUOUS
 62
7
100
AcDbLine
 10
305.2006401208282
 20
131.2601449699446
 30
0.0000000000000000
 11
305.2006401208282
 21
127.0601449699446
 31
0.0000000000000000
  0
LINE
  5
2F7
100
AcDbEntity
  8
MAIN1
  6
CONTINUOUS
 62
7
100
AcDbLine
 10
387.2006401208282
 20
127.0601449699446
 30
0.0000000000000000
 11
387.2006401208282
 21
131.2601449699446
 31
0.0000000000000000
  0
LINE
  5
2F8
100
AcDbEntity
  8
MAIN1
  6
CONTINUOUS
 62
7
100
AcDbLine
 10
305.2006401208282
 20
127.0601449699446
 30
0.0000000000000000
 11
305.6006401208281
 21
126.6601449699445
 31
0.0000000000000000
  0
LINE
  5
2F9
100
AcDbEntity
  8
MAIN1
  6
CONTINUOUS
 62
7
100
AcDbLine
 10
386.8006401208281
 20
126.6601449699445
 30
0.0000000000000000
 11
387.2006401208281
 21
127.0601449699446
 31
0.0000000000000000
  0
LINE
  5
2FA
100
AcDbEntity
  8
MAIN1
  6
CONTINUOUS
 62
7
100
AcDbLine
 10
387.2006401208282
 20
131.2601449699445
 30
0.0000000000000000
 11
386.8006401208281
 21
131.6601449699445
 31
0.0000000000000000
  0
LINE
  5
2FB
100
AcDbEntity
  8
MAIN1
  6
CONTINUOUS
 62
7
100
AcDbLine
 10
305.6006401208281
 20
131.6601449699445
 30
0.0000000000000000
 11
305.2006401208281
 21
131.2601449699445
 31
0.0000000000000000
  0
LINE
  5
2FC
100
AcDbEntity
  8
MAIN1
  6
CONTINUOUS
 62
7
100
AcDbLine
 10
306.2006401208282
 20
126.6601449699445
 30
0.0000000000000000
 11
306.2006401208282
 21
111.6601449699445
 31
0.0000000000000000
  0
LINE
  5
2FD
100
AcDbEntity
  8
MAIN1
  6
CONTINUOUS
 62
7
100
AcDbLine
 10
386.2006401208282
 20
111.6601449699445
 30
0.0000000000000000
 11
386.2006401208282
 21
126.6601449699445
 31
0.0000000000000000
  0
LINE
  5
2FE
100
AcDbEntity
  8
MAIN1
  6
CONTINUOUS
 62
7
100
AcDbLine
 10
383.2006401208281
 20
133.2601449699445
 30
0.0000000000000000
 11
382.8006401208281
 21
133.6601449699444
 31
0.0000000000000000
  0
LINE
  5
2FF
100
AcDbEntity
  8
MAIN1
  6
CONTINUOUS
 62
7
100
AcDbLine
 10
309.6006401208281
 20
133.6601449699444
 30
0.0000000000000000
 11
309.2006401208282
 21
133.2601449699445
 31
0.0000000000000000
  0
LINE
  5
300
100
AcDbEntity
  8
MAIN1
  6
CONTINUOUS
 62
7
100
AcDbLine
 10
309.2006401208282
 20
133.2601449699446
 30
0.0000000000000000
 11
309.2006401208282
 21
131.6601449699445
 31
0.0000000000000000
  0
LINE
  5
301
100
AcDbEntity
  8
MAIN1
  6
CONTINUOUS
 62
7
100
AcDbLine
 10
383.2006401208282
 20
131.6601449699445
 30
0.0000000000000000
 11
383.2006401208282
 21
133.2601449699446
 31
0.0000000000000000
  0
LINE
  5
302
100
AcDbEntity
  8
MAIN1
  6
CONTINUOUS
 62
7
100
AcDbLine
 10
312.7006401208282
 20
74.66014496994448
 30
0.0000000000000000
 11
313.1006401208282
 21
74.26014496994455
 31
0.0000000000000000
  0
LINE
  5
303
100
AcDbEntity
  8
MAIN1
  6
CONTINUOUS
 62
7
100
AcDbLine
 10
312.7006401208282
 20
111.6601449699445
 30
0.0000000000000000
 11
312.7006401208282
 21
74.66014496994453
 31
0.0000000000000000
  0
LINE
  5
304
100
AcDbEntity
  8
MAIN1
  6
CONTINUOUS
 62
7
100
AcDbLine
 10
379.7006401208282
 20
74.66014496994453
 30
0.0000000000000000
 11
379.7006401208282
 21
111.6601449699445
 31
0.0000000000000000
  0
LINE
  5
305
100
AcDbEntity
  8
MAIN1
  6
CONTINUOUS
 62
7
100
AcDbLine
 10
379.3006401208282
 20
74.26014496994458
 30
0.0000000000000000
 11
379.7006401208281
 21
74.66014496994450
 31
0.0000000000000000
  0
LINE
  5
306
100
AcDbEntity
  8
MAIN1
  6
CONTINUOUS
 62
7
100
AcDbLine
 10
342.2556611000282
 20
152.7601449699446
 30
0.0000000000000000
 11
350.5606401208282
 21
152.7601449699446
 31
0.0000000000000000
  0
LINE
  5
307
100
AcDbEntity
  8
MAIN1
  6
CONTINUOUS
 62
7
100
AcDbLine
 10
341.8406401208282
 20
152.7601449699446
 30
0.0000000000000000
 11
342.2556611000282
 21
152.7601449699446
 31
0.0000000000000000
  0
LINE
  5
308
100
AcDbEntity
  8
MAIN1
  6
CONTINUOUS
 62
7
100
AcDbLine
 10
342.7080669510282
 20
153.2601449699446
 30
0.0000000000000000
 11
350.0606401208282
 21
153.2601449699446
 31
0.0000000000000000
  0
LINE
  5
309
100
AcDbEntity
  8
MAIN1
  6
CONTINUOUS
 62
7
100
AcDbLine
 10
342.3406401208282
 20
153.2601449699446
 30
0.0000000000000000
 11
342.7080669510282
 21
153.2601449699446
 31
0.0000000000000000
  0
LINE
  5
30A
100
AcDbEntity
  8
MAIN1
  6
CONTINUOUS
 62
7
100
AcDbLine
 10
305.6006401208282
 20
126.6601449699445
 30
0.0000000000000000
 11
386.8006401208282
 21
126.6601449699445
 31
0.0000000000000000
  0
LINE
  5
30B
100
AcDbEntity
  8
MAIN1
  6
CONTINUOUS
 62
7
100
AcDbLine
 10
305.6006401208282
 20
131.6601449699445
 30
0.0000000000000000
 11
386.8006401208282
 21
131.6601449699445
 31
0.0000000000000000
  0
LINE
  5
30C
100
AcDbEntity
  8
MAIN1
  6
CONTINUOUS
 62
7
100
AcDbLine
 10
349.7006401208282
 20
112.0601449699446
 30
0.0000000000000000
 11
349.7006401208282
 21
121.6601449699445
 31
0.0000000000000000
  0
SPLINE
  5
30D
100
AcDbEntity
  8
MAIN1
  6
CONTINUOUS
 62
7
100
AcDbSpline
210
0.0000000000000000
220
0.0000000000000000
230
1.000000000000000
 70
     8
 71
     3
 72
    17
 73
    13
 74
     0
 42
1.000000000000000e-007
 43
1.000000000000000e-007
 12
1.079807238384092
 22
11.00421795685406
 32
0.0000000000000000
 13
0.7265237131850881
 23
-10.97007519668387
 33
0.0000000000000000
 40
0.0000000000000000
 40
0.0000000000000000
 40
0.0000000000000000
 40
0.0000000000000000
 40
0.1070668370556388
 40
0.2141237279030689
 40
0.3214385741107049
 40
0.4289228262338441
 40
0.4999999997229180
 40
0.6070677212908857
 40
0.7141255986379712
 40
0.8214393128783690
 40
0.9289239776224645
 40
1.000000000000000
 40
1.000000000000000
 40
1.000000000000000
 40
1.000000000000000
 10
342.7006401208134
 20
121.6601449699033
 30
0.0000000000000000
 10
342.7391773026947
 20
122.0528739068737
 30
0.0000000000000000
 10
342.8162480864613
 20
122.8382952974003
 30
0.0000000000000000
 10
343.4171220596294
 20
123.8841713308142
 30
0.0000000000000000
 10
344.3025459889010
 20
124.6813301991388
 30
0.0000000000000000
 10
345.2882227765609
 20
125.0872930291821
 30
0.0000000000000000
 10
346.3315517197624
 20
125.2040907577262
 30
0.0000000000000000
 10
347.3788797698860
 20
125.0267616712659
 30
0.0000000000000000
 10
348.4256192584043
 20
124.4484475260136
 30
0.0000000000000000
 10
349.2179888087316
 20
123.5568557911750
 30
0.0000000000000000
 10
349.6401844577696
 20
122.5729894615895
 30
0.0000000000000000
 10
349.6834273155814
 20
121.9200480732908
 30
0.0000000000000000
 10
349.7006401208134
 20
121.6601449699033
 30
0.0000000000000000
  0
LINE
  5
30E
100
AcDbEntity
  8
MAIN1
  6
CONTINUOUS
 62
7
100
AcDbLine
 10
342.7006401208282
 20
112.0601449699446
 30
0.0000000000000000
 11
342.7006401208282
 21
121.6601449699445
 31
0.0000000000000000
  0
LINE
  5
30F
100
AcDbEntity
  8
MAIN1
  6
CONTINUOUS
 62
7
100
AcDbLine
 10
349.7006401208282
 20
111.6601449699445
 30
0.0000000000000000
 11
386.2006401208282
 21
111.6601449699445
 31
0.0000000000000000
  0
LINE
  5
310
100
AcDbEntity
  8
MAIN1
  6
CONTINUOUS
 62
7
100
AcDbLine
 10
349.7006401208282
 20
111.6601449699445
 30
0.0000000000000000
 11
349.7006401208282
 21
112.0601449699446
 31
0.0000000000000000
  0
LINE
  5
311
100
AcDbEntity
  8
MAIN1
  6
CONTINUOUS
 62
7
100
AcDbLine
 10
342.7006401208282
 20
111.6601449699445
 30
0.0000000000000000
 11
342.7006401208282
 21
112.0601449699446
 31
0.0000000000000000
  0
LINE
  5
312
100
AcDbEntity
  8
MAIN1
  6
CONTINUOUS
 62
7
100
AcDbLine
 10
342.7006401208282
 20
111.6601449699445
 30
0.0000000000000000
 11
306.2006401208282
 21
111.6601449699445
 31
0.0000000000000000
  0
LINE
  5
313
100
AcDbEntity
  8
MAIN1
  6
CONTINUOUS
 62
7
100
AcDbLine
 10
342.7006401208282
 20
111.6601449699445
 30
0.0000000000000000
 11
349.7006401208282
 21
111.6601449699445
 31
0.0000000000000000
  0
LINE
  5
314
100
AcDbEntity
  8
MAIN1
  6
CONTINUOUS
 62
7
100
AcDbLine
 10
309.6006401208282
 20
133.6601449699445
 30
0.0000000000000000
 11
382.8006401208282
 21
133.6601449699445
 31
0.0000000000000000
  0
LINE
  5
315
100
AcDbEntity
  8
MAIN1
  6
CONTINUOUS
 62
7
100
AcDbLine
 10
343.2457790737282
 20
140.6601449699445
 30
0.0000000000000000
 11
343.2457790737282
 21
141.9601449699445
 31
0.0000000000000000
  0
LINE
  5
316
100
AcDbEntity
  8
MAIN1
  6
CONTINUOUS
 62
7
100
AcDbLine
 10
343.2457790737282
 20
140.6601449699445
 30
0.0000000000000000
 11
349.1555011679283
 21
140.6601449699445
 31
0.0000000000000000
  0
LINE
  5
317
100
AcDbEntity
  8
MAIN1
  6
CONTINUOUS
 62
7
100
AcDbLine
 10
349.1555011679283
 20
141.9601449699445
 30
0.0000000000000000
 11
349.1555011679283
 21
140.6601449699445
 31
0.0000000000000000
  0
LINE
  5
318
100
AcDbEntity
  8
MAIN1
  6
CONTINUOUS
 62
7
100
AcDbLine
 10
348.7006401208282
 20
140.6601449699445
 30
0.0000000000000000
 11
348.7006401208282
 21
148.2601449699446
 31
0.0000000000000000
  0
LINE
  5
319
100
AcDbEntity
  8
MAIN1
  6
CONTINUOUS
 62
7
100
AcDbLine
 10
351.2165821095282
 20
142.1601449699445
 30
0.0000000000000000
 11
351.2165821095282
 21
148.2601449699446
 31
0.0000000000000000
  0
LINE
  5
31A
100
AcDbEntity
  8
MAIN1
  6
CONTINUOUS
 62
7
100
AcDbLine
 10
343.7006401208282
 20
140.6601449699445
 30
0.0000000000000000
 11
343.7006401208282
 21
148.2601449699446
 31
0.0000000000000000
  0
LINE
  5
31B
100
AcDbEntity
  8
MAIN1
  6
CONTINUOUS
 62
7
100
AcDbLine
 10
338.1846981321283
 20
148.0601449699446
 30
0.0000000000000000
 11
338.3715406588283
 21
148.2601449699446
 31
0.0000000000000000
  0
LINE
  5
31C
100
AcDbEntity
  8
MAIN1
  6
CONTINUOUS
 62
7
100
AcDbLine
 10
341.1846981321282
 20
142.1601449699445
 30
0.0000000000000000
 11
341.1846981321282
 21
148.2601449699446
 31
0.0000000000000000
  0
ELLIPSE
  5
31D
100
AcDbEntity
  8
MAIN1
  6
CONTINUOUS
 62
7
100
AcDbEllipse
 10
346.2006401208282
 20
139.5601449699446
 30
0.0000000000000000
 11
7.014805770653993
 21
-7.014805770653996
 31
0.0000000000000000
210
0.0000000000000000
220
0.0000000000000000
230
1.000000000000000
 40
0.5773502692000000
 41
3.809382489658682
 42
3.835827894477144
  0
LINE
  5
31E
100
AcDbEntity
  8
MAIN1
  6
CONTINUOUS
 62
7
100
AcDbLine
 10
338.1846981321282
 20
142.5601449699446
 30
0.0000000000000000
 11
338.1846981321282
 21
148.0601449699446
 31
0.0000000000000000
  0
LINE
  5
31F
100
AcDbEntity
  8
MAIN1
  6
CONTINUOUS
 62
7
100
AcDbLine
 10
338.2182773231283
 20
142.3601449699446
 30
0.0000000000000000
 11
338.4401834806282
 21
142.1601449699446
 31
0.0000000000000000
  0
LINE
  5
320
100
AcDbEntity
  8
MAIN1
  6
CONTINUOUS
 62
7
100
AcDbLine
 10
354.2165821095282
 20
148.0601449699446
 30
0.0000000000000000
 11
354.0297395828282
 21
148.2601449699446
 31
0.0000000000000000
  0
LINE
  5
321
100
AcDbEntity
  8
MAIN1
  6
CONTINUOUS
 62
7
100
AcDbLine
 10
354.2165821095282
 20
142.5601449699446
 30
0.0000000000000000
 11
354.2165821095282
 21
148.0601449699446
 31
0.0000000000000000
  0
ELLIPSE
  5
322
100
AcDbEntity
  8
MAIN1
  6
CONTINUOUS
 62
7
100
AcDbEllipse
 10
346.2006401208282
 20
139.5601449699446
 30
0.0000000000000000
 11
7.014805770653878
 21
7.014805770653935
 31
0.0000000000000000
210
0.0000000000000000
220
0.0000000000000000
230
1.000000000000000
 40
0.5773502692000001
 41
5.588950066292286
 42
5.615395471110721
  0
LINE
  5
323
100
AcDbEntity
  8
MAIN1
  6
CONTINUOUS
 62
7
100
AcDbLine
 10
353.9610967610282
 20
142.1601449699445
 30
0.0000000000000000
 11
354.1830029184281
 21
142.3601449699445
 31
0.0000000000000000
  0
SPLINE
  5
324
100
AcDbEntity
  8
MAIN1
  6
CONTINUOUS
 62
7
100
AcDbSpline
210
0.0000000000000000
220
0.0000000000000000
230
1.000000000000000
 70
     8
 71
     3
 72
    13
 73
     9
 74
     0
 42
1.000000000000000e-007
 43
1.000000000000000e-007
 12
-0.02963193104733364
 22
0.4638036696178460
 32
0.0000000000000000
 13
-0.4640693555902544
 23
0.02807970641538304
 33
0.0000000000000000
 40
0.0000000000000000
 40
0.0000000000000000
 40
0.0000000000000000
 40
0.0000000000000000
 40
0.04533396846818380
 40
0.09252607233281700
 40
0.1932902925876025
 40
0.4335871710226830
 40
0.7114534313886350
 40
1.000000000000000
 40
1.000000000000000
 40
1.000000000000000
 40
1.000000000000000
 10
343.2457790737025
 20
141.9601449699032
 30
0.0000000000000000
 10
343.2453312960265
 20
141.9671536568812
 30
0.0000000000000000
 10
343.2444173872945
 20
141.9814583008423
 30
0.0000000000000000
 10
343.2346806992390
 20
142.0099804762980
 30
0.0000000000000000
 10
343.2000944495595
 20
142.0601349072738
 30
0.0000000000000000
 10
343.1171519024946
 20
142.1126153804280
 30
0.0000000000000000
 10
342.9980392397359
 20
142.1521426336095
 30
0.0000000000000000
 10
342.9104209608885
 20
142.1574442022586
 30
0.0000000000000000
 10
342.8657857541707
 20
142.1601449699033
 30
0.0000000000000000
  0
SPLINE
  5
325
100
AcDbEntity
  8
MAIN1
  6
CONTINUOUS
 62
7
100
AcDbSpline
210
0.0000000000000000
220
0.0000000000000000
230
1.000000000000000
 70
     8
 71
     3
 72
    13
 73
     9
 74
     0
 42
1.000000000000000e-007
 43
1.000000000000000e-007
 12
0.2327985951724259
 22
-0.02807958984249126
 32
0.0000000000000000
 13
0.01396742822544184
 23
-0.4638109477054968
 33
0.0000000000000000
 40
0.0000000000000000
 40
0.0000000000000000
 40
0.0000000000000000
 40
0.0000000000000000
 40
0.2885464047666463
 40
0.5664125073525810
 40
0.8067092493405912
 40
0.9074734123786847
 40
0.9546487202872016
 40
1.000000000000000
 40
1.000000000000000
 40
1.000000000000000
 40
1.000000000000000
 10
340.2657857541695
 20
142.1601449699033
 30
0.0000000000000000
 10
340.2881768200601
 20
142.1574442150045
 30
0.0000000000000000
 10
340.3321301653931
 20
142.1521426713751
 30
0.0000000000000000
 10
340.3900612945739
 20
142.1126152439805
 30
0.0000000000000000
 10
340.4297326994348
 20
142.0601352376283
 30
0.0000000000000000
 10
340.4461301464434
 20
142.0099822668250
 30
0.0000000000000000
 10
340.4507446172662
 20
141.9814613913418
 30
0.0000000000000000
 10
340.4511754034232
 20
141.9671564432443
 30
0.0000000000000000
 10
340.4513865503380
 20
141.9601449699032
 30
0.0000000000000000
  0
SPLINE
  5
326
100
AcDbEntity
  8
MAIN1
  6
CONTINUOUS
 62
7
100
AcDbSpline
210
0.0000000000000000
220
0.0000000000000000
230
1.000000000000000
 70
     8
 71
     3
 72
    13
 73
     9
 74
     0
 42
1.000000000000000e-007
 43
1.000000000000000e-007
 12
-0.4640700383424701
 22
-0.02807958984271863
 32
0.0000000000000000
 13
-0.02959985897177830
 23
-0.4638109477091348
 33
0.0000000000000000
 40
0.0000000000000000
 40
0.0000000000000000
 40
0.0000000000000000
 40
0.0000000000000000
 40
0.2885464047665708
 40
0.5664125073524251
 40
0.8067092493403721
 40
0.9074734123784352
 40
0.9546487202787649
 40
1.000000000000000
 40
1.000000000000000
 40
1.000000000000000
 40
1.000000000000000
 10
349.5354944874581
 20
142.1601449699033
 30
0.0000000000000000
 10
349.4908592404169
 20
142.1574442150045
 30
0.0000000000000000
 10
349.4032408824156
 20
142.1521426713751
 30
0.0000000000000000
 10
349.2841287708095
 20
142.1126152439805
 30
0.0000000000000000
 10
349.2011847469361
 20
142.0601352376283
 30
0.0000000000000000
 10
349.1666022248359
 20
142.0099822668259
 30
0.0000000000000000
 10
349.1568615564014
 20
141.9814613913433
 30
0.0000000000000000
 10
349.1559486317532
 20
141.9671564432456
 30
0.0000000000000000
 10
349.1555011679252
 20
141.9601449699032
 30
0.0000000000000000
  0
SPLINE
  5
327
100
AcDbEntity
  8
MAIN1
  6
CONTINUOUS
 62
7
100
AcDbSpline
210
0.0000000000000000
220
0.0000000000000000
230
1.000000000000000
 70
     8
 71
     3
 72
    13
 73
     9
 74
     0
 42
1.000000000000000e-007
 43
1.000000000000000e-007
 12
0.01396090861089760
 22
0.4638036696287600
 32
0.0000000000000000
 13
0.2327984827247747
 23
0.02807970641447355
 33
0.0000000000000000
 40
0.0000000000000000
 40
0.0000000000000000
 40
0.0000000000000000
 40
0.0000000000000000
 40
0.04533396847589590
 40
0.09252607233304080
 40
0.1932902925877849
 40
0.4335871710228740
 40
0.7114534313887929
 40
1.000000000000000
 40
1.000000000000000
 40
1.000000000000000
 40
1.000000000000000
 10
351.9498936912896
 20
141.9601449699032
 30
0.0000000000000000
 10
351.9501046590866
 20
141.9671536568825
 30
0.0000000000000000
 10
351.9505352417667
 20
141.9814583008439
 30
0.0000000000000000
 10
351.9551494429085
 20
142.0099804762989
 30
0.0000000000000000
 10
351.9715474929730
 20
142.0601349072742
 30
0.0000000000000000
 10
352.0112189673832
 20
142.1126153804283
 30
0.0000000000000000
 10
352.0691500706079
 20
142.1521426336097
 30
0.0000000000000000
 10
352.1131034196685
 20
142.1574442022587
 30
0.0000000000000000
 10
352.1354944874579
 20
142.1601449699033
 30
0.0000000000000000
  0
LINE
  5
328
100
AcDbEntity
  8
MAIN1
  6
CONTINUOUS
 62
7
100
AcDbLine
 10
362.9058368350283
 20
74.26014496994455
 30
0.0000000000000000
 11
362.9058368350283
 21
87.26014496994455
 31
0.0000000000000000
  0
LINE
  5
329
100
AcDbEntity
  8
MAIN1
  6
CONTINUOUS
 62
7
100
AcDbLine
 10
362.9058368350283
 20
87.26014496994455
 30
0.0000000000000000
 11
352.0687728661281
 21
87.26014496994455
 31
0.0000000000000000
  0
LINE
  5
32A
100
AcDbEntity
  8
MAIN1
  6
CONTINUOUS
 62
7
100
AcDbLine
 10
352.0687728661281
 20
74.26014496994455
 30
0.0000000000000000
 11
352.0687728661281
 21
87.26014496994455
 31
0.0000000000000000
  0
LINE
  5
32B
100
AcDbEntity
  8
MAIN1
  6
CONTINUOUS
 62
7
100
AcDbLine
 10
340.3325073755283
 20
100.2601449699446
 30
0.0000000000000000
 11
340.3325073755283
 21
110.2601449699446
 31
0.0000000000000000
  0
LINE
  5
32C
100
AcDbEntity
  8
MAIN1
  6
CONTINUOUS
 62
7
100
AcDbLine
 10
329.4954434066282
 20
110.2601449699446
 30
0.0000000000000000
 11
340.3325073755283
 21
110.2601449699446
 31
0.0000000000000000
  0
LINE
  5
32D
100
AcDbEntity
  8
MAIN1
  6
CONTINUOUS
 62
7
100
AcDbLine
 10
329.4954434066282
 20
100.2601449699446
 30
0.0000000000000000
 11
329.4954434066282
 21
110.2601449699446
 31
0.0000000000000000
  0
LINE
  5
32E
100
AcDbEntity
  8
MAIN1
  6
CONTINUOUS
 62
7
100
AcDbLine
 10
329.4954434066282
 20
100.2601449699446
 30
0.0000000000000000
 11
340.3325073755283
 21
100.2601449699446
 31
0.0000000000000000
  0
LINE
  5
32F
100
AcDbEntity
  8
MAIN1
  6
CONTINUOUS
 62
7
100
AcDbLine
 10
313.1006401208282
 20
74.26014496994455
 30
0.0000000000000000
 11
379.3006401208282
 21
74.26014496994455
 31
0.0000000000000000
  0
LINE
  5
330
100
AcDbEntity
  8
MAIN1
  6
CONTINUOUS
 62
7
100
AcDbLine
 10
349.5354944874282
 20
142.1601449699445
 30
0.0000000000000000
 11
353.9610967610282
 21
142.1601449699445
 31
0.0000000000000000
  0
LINE
  5
331
100
AcDbEntity
  8
MAIN1
  6
CONTINUOUS
 62
7
100
AcDbLine
 10
338.3715406588282
 20
148.2601449699446
 30
0.0000000000000000
 11
354.0297395828283
 21
148.2601449699446
 31
0.0000000000000000
  0
LINE
  5
332
100
AcDbEntity
  8
MAIN1
  6
CONTINUOUS
 62
7
100
AcDbLine
 10
338.4401834806282
 20
142.1601449699445
 30
0.0000000000000000
 11
342.8657857541283
 21
142.1601449699445
 31
0.0000000000000000
  0
LINE
  5
333
100
AcDbEntity
  8
MAIN1
  6
CONTINUOUS
 62
7
100
AcDbLine
 10
340.4506401208283
 20
133.6601449699446
 30
0.0000000000000000
 11
340.4513865503283
 21
141.9601449699446
 31
0.0000000000000000
  0
LINE
  5
334
100
AcDbEntity
  8
MAIN1
  6
CONTINUOUS
 62
7
100
AcDbLine
 10
351.9506401208282
 20
133.6601449699446
 30
0.0000000000000000
 11
351.9498936913282
 21
141.9601449699445
 31
0.0000000000000000
  0
LEADER
  5
335
100
AcDbEntity
  8
MAIN0
  6
CONTINUOUS
 62
3
100
AcDbLeader
  3
MAIN001
 73
     0
 74
     0
 75
     1
 40
3.099999904632568
 41
24.73100073432920
 76
     3
 10
358.8215397716039
 20
80.70249237483469
 30
0.0000000000000000
 10
370.0228241722168
 20
61.92331537112042
 30
0.0000000000000000
 10
371.9478241164269
 20
61.92331537112042
 30
0.0000000000000000
340
336
213
0.0000000000000000
223
-0.5000000000000000
233
0.0000000000000000
1001
ACAD
1000
DSTYLE
1002
{
1070
   147
1040
0.0
1070
    77
1070
     1
1070
   173
1070
     1
1070
     6
1000
_OPEN
1070
     7
1000
_OPEN
1002
}
  0
MTEXT
  5
336
102
{ACAD_REACTORS
330
335
102
}
100
AcDbEntity
  8
MAIN0
  6
CONTINUOUS
 62
3
100
AcDbMText
 10
371.9488241164269
 20
65.52331527575299
 30
0.0000000000000000
 40
3.099999904632568
 41
0.0000000000000000
 71
     1
 72
     1
  1
{\H0.93x;{押ポート M5\PPush Port}}
 11
1.000000000000000
 21
0.0000000000000000
 31
0.0000000000000000
  7
KNJYOKO
  0
LINE
  5
337
100
AcDbEntity
  8
MAIN0
  6
CENTER
 62
3
100
AcDbLine
 10
334.9139573755282
 20
101.3695469283245
 30
0.0000000000000000
 11
334.9139573755282
 21
109.1000211511522
 31
0.0000000000000000
  0
MTEXT
  5
338
100
AcDbEntity
  8
MAIN0
  6
CONTINUOUS
 62
3
100
AcDbMText
 10
288.6154521489467
 20
74.83024053003609
 30
0.0000000000000000
 40
3.099999904632568
 41
0.0000000000000000
 71
     1
 72
     1
  1
{\H0.84x;{★}}
 11
1.000000000000000
 21
0.0000000000000000
 31
0.0000000000000000
  7
KNJYOKO
  0
LEADER
  5
339
100
AcDbEntity
  8
MAIN0
  6
CONTINUOUS
 62
3
100
AcDbLeader
  3
MAIN001
 73
     0
 75
     1
 40
3.099999904632568
 41
24.72900073432925
 76
     3
 10
333.6373034996346
 20
103.1615163134588
 30
0.0000000000000000
 10
315.1294354055367
 20
66.94902767588174
 30
0.0000000000000000
 10
313.2024354613267
 20
66.94902767588174
 30
0.0000000000000000
340
33A
213
0.0000000000000000
223
-0.5000000000000000
233
0.0000000000000000
1001
ACAD
1000
DSTYLE
1002
{
1070
   147
1040
0.0
1070
    77
1070
     1
1070
   173
1070
     1
1070
     6
1000
_OPEN
1070
     7
1000
_OPEN
1002
}
  0
MTEXT
  5
33A
102
{ACAD_REACTORS
330
339
102
}
100
AcDbEntity
  8
MAIN0
  6
CONTINUOUS
 62
3
100
AcDbMText
 10
288.4734347269974
 20
70.54902758051431
 30
0.0000000000000000
 40
3.099999904632568
 41
0.0000000000000000
 71
     1
 72
     1
  1
{\H0.93x;{引ポート M5\PPull Port}}
 11
1.000000000000000
 21
0.0000000000000000
 31
0.0000000000000000
  7
KNJYOKO
  0
LINE
  5
33B
100
AcDbEntity
  8
MAIN0
  6
CONTINUOUS
 62
3
100
AcDbLine
 10
192.1208312730633
 20
183.7729334101263
 30
0.0000000000000000
 11
192.1208312730633
 21
250.1729334101264
 31
0.0000000000000000
  0
LINE
  5
33C
100
AcDbEntity
  8
MAIN0
  6
CONTINUOUS
 62
3
100
AcDbLine
 10
192.3208312730632
 20
250.3729334101263
 30
0.0000000000000000
 11
229.5208312730816
 21
250.3729334101263
 31
0.0000000000000000
  0
LINE
  5
33D
100
AcDbEntity
  8
MAIN0
  6
CONTINUOUS
 62
3
100
AcDbLine
 10
192.1208312730628
 20
250.1729334101261
 30
0.0000000000000000
 11
192.3208312730630
 21
250.3729334101263
 31
0.0000000000000000
  0
LINE
  5
33E
100
AcDbEntity
  8
MAIN0
  6
CONTINUOUS
 62
3
100
AcDbLine
 10
192.5208312730633
 20
183.3729334101262
 30
0.0000000000000000
 11
229.5208312730815
 21
183.3729334101262
 31
0.0000000000000000
  0
LINE
  5
33F
100
AcDbEntity
  8
MAIN0
  6
CONTINUOUS
 62
3
100
AcDbLine
 10
192.5208312730632
 20
183.3729334101261
 30
0.0000000000000000
 11
192.1208312730632
 21
183.7729334101261
 31
0.0000000000000000
  0
LINE
  5
340
100
AcDbEntity
  8
MAIN0
  6
CONTINUOUS
 62
3
100
AcDbLine
 10
245.5208312729252
 20
211.2729334100100
 30
0.0000000000000000
 11
245.5208312729309
 21
222.4729334100098
 31
0.0000000000000000
  0
LINE
  5
341
100
AcDbEntity
  8
MAIN0
  6
CONTINUOUS
 62
3
100
AcDbLine
 10
258.5208312729069
 20
211.1229334102222
 30
0.0000000000000000
 11
250.7208312729251
 21
211.1229334102308
 31
0.0000000000000000
  0
LINE
  5
342
100
AcDbEntity
  8
MAIN0
  6
CONTINUOUS
 62
3
100
AcDbLine
 10
258.5208312729118
 20
212.3259280269536
 30
0.0000000000000000
 11
258.5208312729069
 21
211.1229334083507
 31
0.0000000000000000
  0
LINE
  5
343
100
AcDbEntity
  8
MAIN0
  6
CONTINUOUS
 62
3
100
AcDbLine
 10
266.1208312729207
 20
212.3259280269578
 30
0.0000000000000000
 11
266.1208312729479
 21
224.7729334114015
 31
0.0000000000000000
  0
LINE
  5
344
100
AcDbEntity
  8
MAIN0
  6
CONTINUOUS
 62
3
100
AcDbLine
 10
250.5208312729492
 20
222.8729334099995
 30
0.0000000000000000
 11
245.9208312729309
 21
222.8729334100094
 31
0.0000000000000000
  0
LINE
  5
345
100
AcDbEntity
  8
MAIN0
  6
CONTINUOUS
 62
3
100
AcDbLine
 10
250.5208312729249
 20
210.8729334099995
 30
0.0000000000000000
 11
245.9208312729247
 21
210.8729334100094
 31
0.0000000000000000
  0
LINE
  5
346
100
AcDbEntity
  8
MAIN0
  6
CONTINUOUS
 62
3
100
AcDbLine
 10
245.5208312729305
 20
222.4729334100100
 30
0.0000000000000000
 11
245.9208312729306
 21
222.8729334100091
 31
0.0000000000000000
  0
LINE
  5
347
100
AcDbEntity
  8
MAIN0
  6
CONTINUOUS
 62
3
100
AcDbLine
 10
245.5208312729253
 20
211.2729334100103
 30
0.0000000000000000
 11
245.9208312729251
 21
210.8729334100094
 31
0.0000000000000000
  0
LINE
  5
348
100
AcDbEntity
  8
MAIN0
  6
CONTINUOUS
 62
3
100
AcDbLine
 10
245.5208312729291
 20
219.4729334100832
 30
0.0000000000000000
 11
266.1208312729363
 21
219.4729334100832
 31
0.0000000000000000
  0
LINE
  5
349
100
AcDbEntity
  8
MAIN0
  6
CONTINUOUS
 62
3
100
AcDbLine
 10
245.5208312729270
 20
214.2729334100832
 30
0.0000000000000000
 11
266.1208312729249
 21
214.2729334100832
 31
0.0000000000000000
  0
LINE
  5
34A
100
AcDbEntity
  8
MAIN0
  6
CONTINUOUS
 62
3
100
AcDbLine
 10
192.5208312730634
 20
226.8729334100220
 30
0.0000000000000000
 11
195.6208312730633
 21
226.8729334100220
 31
0.0000000000000000
  0
LINE
  5
34B
100
AcDbEntity
  8
MAIN0
  6
CONTINUOUS
 62
3
100
AcDbLine
 10
192.5208312730637
 20
226.8729334100221
 30
0.0000000000000000
 11
192.1208312730638
 21
227.2729334100221
 31
0.0000000000000000
  0
LINE
  5
34C
100
AcDbEntity
  8
MAIN0
  6
CONTINUOUS
 62
3
100
AcDbLine
 10
195.6208312730633
 20
206.8729334100220
 30
0.0000000000000000
 11
195.6208312730633
 21
226.8729334100220
 31
0.0000000000000000
  0
LINE
  5
34D
100
AcDbEntity
  8
MAIN0
  6
CONTINUOUS
 62
3
100
AcDbLine
 10
192.5208312730634
 20
206.8729334100220
 30
0.0000000000000000
 11
195.6208312730633
 21
206.8729334100220
 31
0.0000000000000000
  0
LINE
  5
34E
100
AcDbEntity
  8
MAIN0
  6
CONTINUOUS
 62
3
100
AcDbLine
 10
192.5208312730637
 20
206.8729334100219
 30
0.0000000000000000
 11
192.1208312730637
 21
206.4729334100220
 31
0.0000000000000000
  0
ARC
  5
34F
100
AcDbEntity
  8
MAIN0
  6
CONTINUOUS
 62
3
100
AcDbCircle
 10
259.6208312729434
 20
223.0229334114202
 30
0.0000000000000000
 40
0.4000000000000000
100
AcDbArc
 50
269.9999999998307
 51
359.9999999998307
  0
LINE
  5
350
100
AcDbEntity
  8
MAIN0
  6
CONTINUOUS
 62
3
100
AcDbLine
 10
260.0208312729436
 20
223.0229334114191
 30
0.0000000000000000
 11
260.0208312729469
 21
224.7729334114194
 31
0.0000000000000000
  0
LINE
  5
351
100
AcDbEntity
  8
MAIN0
  6
CONTINUOUS
 62
3
100
AcDbLine
 10
260.0208312729467
 20
224.7729334114191
 30
0.0000000000000000
 11
260.2208312729471
 21
224.9729334114186
 31
0.0000000000000000
  0
LINE
  5
352
100
AcDbEntity
  8
MAIN0
  6
CONTINUOUS
 62
3
100
AcDbLine
 10
265.9208312729471
 20
224.9729334114019
 30
0.0000000000000000
 11
260.2208312729470
 21
224.9729334114187
 31
0.0000000000000000
  0
LINE
  5
353
100
AcDbEntity
  8
MAIN0
  6
CONTINUOUS
 62
3
100
AcDbLine
 10
265.9208312729475
 20
224.9729334114018
 30
0.0000000000000000
 11
266.1208312729468
 21
224.7729334114015
 31
0.0000000000000000
  0
LINE
  5
354
100
AcDbEntity
  8
MAIN0
  6
CONTINUOUS
 62
3
100
AcDbLine
 10
259.6208312729419
 20
222.6229334114204
 30
0.0000000000000000
 11
250.7208312729485
 21
222.6229334114466
 31
0.0000000000000000
  0
LINE
  5
355
100
AcDbEntity
  8
MAIN0
  6
HIDDEN
 62
3
100
AcDbLine
 10
113.6606283707104
 20
187.8352612786602
 30
0.0000000000000000
 11
102.8235644060557
 21
183.8908925687000
 31
0.0000000000000000
  0
LINE
  5
356
100
AcDbEntity
  8
MAIN0
  6
CONTINUOUS
 62
3
100
AcDbLine
 10
91.08729891099699
 20
183.8908925687017
 30
0.0000000000000000
 11
80.25023494635379
 21
187.8352612786577
 31
0.0000000000000000
  0
ARC
  5
357
100
AcDbEntity
  8
MAIN0
  6
CONTINUOUS
 62
3
100
AcDbCircle
 10
139.5454792196510
 20
250.7404028033691
 30
0.0000000000000000
 40
33.50000000000000
100
AcDbArc
 50
36.24085486166167
 51
42.29131661126493
  0
ARC
  5
358
100
AcDbEntity
  8
MAIN0
  6
CONTINUOUS
 62
3
100
AcDbCircle
 10
139.5454792196510
 20
250.7404028033691
 30
0.0000000000000000
 40
33.50000000000000
100
AcDbArc
 50
51.70868343969809
 51
57.46034699878514
  0
MTEXT
  5
359
100
AcDbEntity
  8
MAIN0
  6
CONTINUOUS
 62
3
100
AcDbMText
 10
372.0693086985781
 20
69.61437035048544
 30
0.0000000000000000
 40
3.099999904632568
 41
0.0000000000000000
 71
     1
 72
     1
  1
{\H0.84x;{★}}
 11
1.000000000000000
 21
0.0000000000000000
 31
0.0000000000000000
  7
KNJYOKO
  0
LINE
  5
35A
100
AcDbEntity
  8
MAIN0
  6
HIDDEN
 62
3
100
AcDbLine
 10
341.0506401210264
 20
121.6601449701292
 30
0.0000000000000000
 11
338.8162610871935
 21
121.6601449701288
 31
0.0000000000000000
  0
LINE
  5
35B
100
AcDbEntity
  8
MAIN0
  6
HIDDEN
 62
3
100
AcDbLine
 10
354.4634659839400
 20
121.6601449701313
 30
0.0000000000000000
 11
351.3506401210265
 21
121.6601449701308
 31
0.0000000000000000
  0
LINE
  5
35C
100
AcDbEntity
  8
MAIN0
  6
HIDDEN
 62
3
100
AcDbLine
 10
309.2006401208159
 20
125.1601449699419
 30
0.0000000000000000
 11
306.2006401208153
 21
125.1601449699438
 31
0.0000000000000000
  0
LINE
  5
35D
100
AcDbEntity
  8
MAIN0
  6
HIDDEN
 62
3
100
AcDbLine
 10
309.2006401208168
 20
125.1601449699419
 30
0.0000000000000000
 11
309.2006401208373
 21
111.6601449699423
 31
0.0000000000000000
  0
LINE
  5
35E
100
AcDbEntity
  8
MAIN0
  6
HIDDEN
 62
3
100
AcDbLine
 10
383.2006401208398
 20
125.1601449699418
 30
0.0000000000000000
 11
383.2006401208192
 21
111.6601449699423
 31
0.0000000000000000
  0
LINE
  5
35F
100
AcDbEntity
  8
MAIN0
  6
HIDDEN
 62
3
100
AcDbLine
 10
383.2006401208406
 20
125.1601449699419
 30
0.0000000000000000
 11
386.2006401208239
 21
125.1601449699438
 31
0.0000000000000000
  0
LINE
  5
360
100
AcDbEntity
  8
MAIN0
  6
CONTINUOUS
 62
3
100
AcDbLine
 10
249.5208312730780
 20
253.8729334100330
 30
0.0000000000000000
 11
251.3208312730467
 21
253.8729334100330
 31
0.0000000000000000
  0
LINE
  5
361
100
AcDbEntity
  8
MAIN0
  6
HIDDEN
 62
3
100
AcDbLine
 10
243.0208312730486
 20
253.8729334100367
 30
0.0000000000000000
 11
229.5208312730805
 21
253.8729334100162
 31
0.0000000000000000
  0
LINE
  5
362
100
AcDbEntity
  8
MAIN0
  6
CONTINUOUS
 62
3
100
AcDbLine
 10
249.5208312730781
 20
179.8729334100344
 30
0.0000000000000000
 11
251.3208312730469
 21
179.8729334100337
 31
0.0000000000000000
  0
LINE
  5
363
100
AcDbEntity
  8
MAIN0
  6
CONTINUOUS
 62
3
100
AcDbLine
 10
249.3208312730811
 20
175.8729334100177
 30
0.0000000000000000
 11
244.7208312734497
 21
175.8729334100263
 31
0.0000000000000000
  0
LINE
  5
364
100
AcDbEntity
  8
MAIN0
  6
CONTINUOUS
 62
3
100
AcDbLine
 10
229.9208312730819
 20
256.8729334100166
 30
0.0000000000000000
 11
244.5208312730825
 21
256.8729334100405
 31
0.0000000000000000
  0
LINE
  5
365
100
AcDbEntity
  8
MAIN0
  6
CONTINUOUS
 62
3
100
AcDbLine
 10
244.7208312730825
 20
257.8729334100407
 30
0.0000000000000000
 11
249.3208312730811
 21
257.8729334100493
 31
0.0000000000000000
  0
LINE
  5
366
100
AcDbEntity
  8
MAIN0
  6
HIDDEN
 62
3
100
AcDbLine
 10
243.0208312730485
 20
253.8729334100368
 30
0.0000000000000000
 11
243.0208312730437
 21
256.8729334100382
 31
0.0000000000000000
  0
LINE
  5
367
100
AcDbEntity
  8
MAIN0
  6
CONTINUOUS
 62
3
100
AcDbLine
 10
229.5208312730818
 20
256.4729334100161
 30
0.0000000000000000
 11
229.9208312730822
 21
256.8729334100169
 31
0.0000000000000000
  0
LINE
  5
368
100
AcDbEntity
  8
MAIN0
  6
CONTINUOUS
 62
3
100
AcDbLine
 10
244.5208312730827
 20
257.6729334100403
 30
0.0000000000000000
 11
244.7208312730826
 21
257.8729334100406
 31
0.0000000000000000
  0
LINE
  5
369
100
AcDbEntity
  8
MAIN0
  6
CONTINUOUS
 62
3
100
AcDbLine
 10
249.3208312730806
 20
257.8729334100495
 30
0.0000000000000000
 11
249.5208312730804
 21
257.6729334100499
 31
0.0000000000000000
  0
LINE
  5
36A
100
AcDbEntity
  8
MAIN0
  6
CONTINUOUS
 62
3
100
AcDbLine
 10
251.3208312730467
 20
253.8729334100331
 30
0.0000000000000000
 11
251.5208312730467
 21
253.6729334100332
 31
0.0000000000000000
  0
LINE
  5
36B
100
AcDbEntity
  8
MAIN0
  6
CONTINUOUS
 62
3
100
AcDbLine
 10
249.3208312730813
 20
175.8729334100181
 30
0.0000000000000000
 11
249.5208312730810
 21
176.0729334100176
 31
0.0000000000000000
  0
LINE
  5
36C
100
AcDbEntity
  8
MAIN0
  6
CONTINUOUS
 62
3
100
AcDbLine
 10
251.3208312730468
 20
179.8729334100338
 30
0.0000000000000000
 11
251.5208312730468
 21
180.0729334100337
 31
0.0000000000000000
  0
LINE
  5
36D
100
AcDbEntity
  8
MAIN0
  6
CONTINUOUS
 62
3
100
AcDbLine
 10
229.5208312730815
 20
177.2729334102312
 30
0.0000000000000000
 11
229.5208312730816
 21
256.4729334100160
 31
0.0000000000000000
  0
LINE
  5
36E
100
AcDbEntity
  8
MAIN0
  6
CONTINUOUS
 62
3
100
AcDbLine
 10
244.5208312734476
 20
176.0729334100268
 30
0.0000000000000000
 11
244.5208312733649
 21
194.5506072711984
 31
0.0000000000000000
  0
LINE
  5
36F
100
AcDbEntity
  8
MAIN0
  6
CONTINUOUS
 62
3
100
AcDbLine
 10
244.5208312731765
 20
236.6296706834522
 30
0.0000000000000000
 11
244.5208312730823
 21
257.6729334100404
 31
0.0000000000000000
  0
LINE
  5
370
100
AcDbEntity
  8
MAIN0
  6
CONTINUOUS
 62
3
100
AcDbLine
 10
249.5208312730809
 20
176.0729334100178
 30
0.0000000000000000
 11
249.5208312730809
 21
193.6561782335712
 31
0.0000000000000000
  0
LINE
  5
371
100
AcDbEntity
  8
MAIN0
  6
CONTINUOUS
 62
3
100
AcDbLine
 10
249.5208312730810
 20
237.8266186061940
 30
0.0000000000000000
 11
249.5208312730810
 21
257.6729334100499
 31
0.0000000000000000
  0
LINE
  5
372
100
AcDbEntity
  8
MAIN0
  6
CONTINUOUS
 62
3
100
AcDbLine
 10
251.5208312730470
 20
180.0729334100335
 30
0.0000000000000000
 11
251.5208312730468
 21
211.1229334102299
 31
0.0000000000000000
  0
LINE
  5
373
100
AcDbEntity
  8
MAIN0
  6
CONTINUOUS
 62
3
100
AcDbLine
 10
251.5208312730468
 20
222.6229334114443
 30
0.0000000000000000
 11
251.5208312730466
 21
253.6729334100331
 31
0.0000000000000000
  0
LINE
  5
374
100
AcDbEntity
  8
MAIN0
  6
HIDDEN
 62
3
100
AcDbLine
 10
113.6606283707103
 20
187.8352612786602
 30
0.0000000000000000
 11
102.8235644060555
 21
183.8908925686999
 31
0.0000000000000000
  0
LINE
  5
375
100
AcDbEntity
  8
MAIN0
  6
CONTINUOUS
 62
3
100
AcDbLine
 10
91.08729891099699
 20
183.8908925687015
 30
0.0000000000000000
 11
80.25023494635376
 21
187.8352612786576
 31
0.0000000000000000
  0
MTEXT
  5
376
100
AcDbEntity
  8
MAIN0
  6
CONTINUOUS
 62
3
100
AcDbMText
 10
47.69391422593458
 20
258.3419833324193
 30
0.0000000000000000
 40
2.799999952316284
 41
0.0000000000000000
 71
     1
 72
     1
  1
{\H0.63x;{0}}
 11
1.000000000000000
 21
0.0000000000000000
 31
0.0000000000000000
  7
STANDARD
  0
MTEXT
  5
377
100
AcDbEntity
  8
MAIN0
  6
CONTINUOUS
 62
3
100
AcDbMText
 10
46.18289487125469
 20
261.0503909649873
 30
0.0000000000000000
 40
2.799999952316284
 41
0.0000000000000000
 71
     1
 72
     1
  1
{\H0.61x;{+0.025}}
 11
1.000000000000000
 21
0.0000000000000000
 31
0.0000000000000000
  7
STANDARD
  0
LEADER
  5
378
100
AcDbEntity
  8
MAIN0
  6
CONTINUOUS
 62
3
100
AcDbLeader
  3
MAIN001
 73
     0
 75
     1
 40
3.099999904632568
 41
28.17900072240830
 76
     3
 10
68.73194920101020
 20
218.8604080868554
 30
0.0000000000000000
 10
64.63696747919505
 20
255.2779084235558
 30
0.0000000000000000
 10
62.70996753498500
 20
255.2779084235558
 30
0.0000000000000000
340
379
213
0.0000000000000000
223
-0.5000000000000000
233
0.0000000000000000
1001
ACAD
1000
DSTYLE
1002
{
1070
   147
1040
0.0
1070
    77
1070
     1
1070
   173
1070
     1
1070
     6
1000
_OPEN
1070
     7
1000
_OPEN
1002
}
  0
MTEXT
  5
379
102
{ACAD_REACTORS
330
378
102
}
100
AcDbEntity
  8
MAIN0
  6
CONTINUOUS
 62
3
100
AcDbMText
 10
34.53096681257670
 20
258.8779083281884
 30
0.0000000000000000
 40
3.099999904632568
 41
0.0000000000000000
 71
     1
 72
     1
  1
{\H0.93x;{2-\U+22054　　　深6\PDepth 6}}
 11
1.000000000000000
 21
0.0000000000000000
 31
0.0000000000000000
  7
KNJYOKO
  0
LINE
  5
37A
100
AcDbEntity
  8
MAIN0
  6
CENTER
 62
3
100
AcDbLine
 10
108.6469707072061
 20
184.7506938787428
 30
0.0000000000000000
 11
105.1294294903768
 21
194.4150589439822
 31
0.0000000000000000
  0
LINE
  5
37B
100
AcDbEntity
  8
MAIN0
  6
HIDDEN
 62
3
100
AcDbLine
 10
105.5169877893078
 20
184.8712185084738
 30
0.0000000000000000
 11
105.9951257712760
 21
185.8965887197631
 31
0.0000000000000000
  0
LINE
  5
37C
100
AcDbEntity
  8
MAIN0
  6
HIDDEN
 62
3
100
AcDbLine
 10
105.9951257712760
 20
185.8965887197632
 30
0.0000000000000000
 11
109.9418347785769
 21
187.3330733217310
 31
0.0000000000000000
  0
LINE
  5
37D
100
AcDbEntity
  8
MAIN0
  6
HIDDEN
 62
3
100
AcDbLine
 10
109.9418347785767
 20
187.3330733217309
 30
0.0000000000000000
 11
110.9672049898659
 21
186.8549353397627
 31
0.0000000000000000
  0
LINE
  5
37E
100
AcDbEntity
  8
MAIN0
  6
HIDDEN
 62
3
100
AcDbLine
 10
105.7560567802919
 20
185.3839036141185
 30
0.0000000000000000
 11
104.1827641209939
 21
189.7064896697337
 31
0.0000000000000000
  0
LINE
  5
37F
100
AcDbEntity
  8
MAIN0
  6
HIDDEN
 62
3
100
AcDbLine
 10
104.1827641209939
 20
189.7064896697337
 30
0.0000000000000000
 11
108.8812272249234
 21
191.4165903863620
 31
0.0000000000000000
  0
LINE
  5
380
100
AcDbEntity
  8
MAIN0
  6
HIDDEN
 62
3
100
AcDbLine
 10
108.8812272249234
 20
191.4165903863620
 30
0.0000000000000000
 11
110.4545198842215
 21
187.0940043307469
 31
0.0000000000000000
  0
LINE
  5
381
100
AcDbEntity
  8
MAIN0
  6
HIDDEN
 62
3
100
AcDbLine
 10
103.8746008826569
 20
191.7226829686358
 30
0.0000000000000000
 11
107.8213098899577
 21
193.1591675706036
 31
0.0000000000000000
  0
LINE
  5
382
100
AcDbEntity
  8
MAIN0
  6
HIDDEN
 62
3
100
AcDbLine
 10
103.8746008826567
 20
191.7226829686358
 30
0.0000000000000000
 11
104.5054940017799
 21
192.4745521098939
 31
0.0000000000000000
  0
LINE
  5
383
100
AcDbEntity
  8
MAIN0
  6
HIDDEN
 62
3
100
AcDbLine
 10
106.8547255537451
 20
193.3296024682079
 30
0.0000000000000000
 11
107.8213098899575
 21
193.1591675706035
 31
0.0000000000000000
  0
LINE
  5
384
100
AcDbEntity
  8
MAIN0
  6
HIDDEN
 62
3
100
AcDbLine
 10
105.9951257712760
 20
185.8965887197632
 30
0.0000000000000000
 11
104.5586411693082
 21
189.8432977270640
 31
0.0000000000000000
  0
LINE
  5
385
100
AcDbEntity
  8
MAIN0
  6
HIDDEN
 62
3
100
AcDbLine
 10
104.5586411693082
 20
189.8432977270640
 30
0.0000000000000000
 11
103.8746008826568
 21
191.7226829686358
 31
0.0000000000000000
  0
LINE
  5
386
100
AcDbEntity
  8
MAIN0
  6
HIDDEN
 62
3
100
AcDbLine
 10
109.9418347785769
 20
187.3330733217310
 30
0.0000000000000000
 11
107.8213098899578
 21
193.1591675706036
 31
0.0000000000000000
  0
LINE
  5
387
100
AcDbEntity
  8
MAIN0
  6
CENTER
 62
3
100
AcDbLine
 10
84.73493903099291
 20
183.2974058648874
 30
0.0000000000000000
 11
89.57586846629073
 21
196.5977501775414
 31
0.0000000000000000
  0
LINE
  5
388
100
AcDbEntity
  8
MAIN0
  6
HIDDEN
 62
3
100
AcDbLine
 10
88.39387552775027
 20
184.8712185084736
 30
0.0000000000000000
 11
87.91573754578205
 21
185.8965887197629
 31
0.0000000000000000
  0
LINE
  5
389
100
AcDbEntity
  8
MAIN0
  6
HIDDEN
 62
3
100
AcDbLine
 10
87.91573754578214
 20
185.8965887197630
 30
0.0000000000000000
 11
83.96902853848127
 21
187.3330733217308
 31
0.0000000000000000
  0
LINE
  5
38A
100
AcDbEntity
  8
MAIN0
  6
HIDDEN
 62
3
100
AcDbLine
 10
83.96902853848120
 20
187.3330733217306
 30
0.0000000000000000
 11
82.94365832719201
 21
186.8549353397625
 31
0.0000000000000000
  0
LINE
  5
38B
100
AcDbEntity
  8
MAIN0
  6
HIDDEN
 62
3
100
AcDbLine
 10
88.15480653676617
 20
185.3839036141183
 30
0.0000000000000000
 11
89.72809919606426
 21
189.7064896697335
 31
0.0000000000000000
  0
LINE
  5
38C
100
AcDbEntity
  8
MAIN0
  6
HIDDEN
 62
3
100
AcDbLine
 10
89.72809919606426
 20
189.7064896697335
 30
0.0000000000000000
 11
85.02963609213472
 21
191.4165903863619
 31
0.0000000000000000
  0
LINE
  5
38D
100
AcDbEntity
  8
MAIN0
  6
HIDDEN
 62
3
100
AcDbLine
 10
85.02963609213472
 20
191.4165903863619
 30
0.0000000000000000
 11
83.45634343283663
 21
187.0940043307467
 31
0.0000000000000000
  0
LINE
  5
38E
100
AcDbEntity
  8
MAIN0
  6
HIDDEN
 62
3
100
AcDbLine
 10
90.03626243440127
 20
191.7226829686356
 30
0.0000000000000000
 11
86.08955342710040
 21
193.1591675706034
 31
0.0000000000000000
  0
LINE
  5
38F
100
AcDbEntity
  8
MAIN0
  6
HIDDEN
 62
3
100
AcDbLine
 10
90.03626243440121
 20
191.7226829686356
 30
0.0000000000000000
 11
89.40536931527802
 21
192.4745521098937
 31
0.0000000000000000
  0
LINE
  5
390
100
AcDbEntity
  8
MAIN0
  6
HIDDEN
 62
3
100
AcDbLine
 10
87.05613776331329
 20
193.3296024682079
 30
0.0000000000000000
 11
86.08955342710051
 21
193.1591675706034
 31
0.0000000000000000
  0
LINE
  5
391
100
AcDbEntity
  8
MAIN0
  6
HIDDEN
 62
3
100
AcDbLine
 10
87.91573754578214
 20
185.8965887197630
 30
0.0000000000000000
 11
89.35222214774993
 21
189.8432977270638
 31
0.0000000000000000
  0
LINE
  5
392
100
AcDbEntity
  8
MAIN0
  6
HIDDEN
 62
3
100
AcDbLine
 10
89.35222214774981
 20
189.8432977270638
 30
0.0000000000000000
 11
90.03626243440118
 21
191.7226829686356
 31
0.0000000000000000
  0
LINE
  5
393
100
AcDbEntity
  8
MAIN0
  6
HIDDEN
 62
3
100
AcDbLine
 10
83.96902853848127
 20
187.3330733217308
 30
0.0000000000000000
 11
86.08955342710036
 21
193.1591675706033
 31
0.0000000000000000
  0
LINE
  5
394
100
AcDbEntity
  8
MAIN0
  6
HIDDEN
 62
3
100
AcDbLine
 10
89.40536931527807
 20
192.4745521098937
 30
0.0000000000000000
 11
90.10395246970080
 21
194.3938935522815
 31
0.0000000000000000
  0
LINE
  5
395
100
AcDbEntity
  8
MAIN0
  6
HIDDEN
 62
3
100
AcDbLine
 10
90.10395246970060
 20
194.3938935522814
 30
0.0000000000000000
 11
90.26358413671051
 21
194.8324779528211
 31
0.0000000000000000
  0
LINE
  5
396
100
AcDbEntity
  8
MAIN0
  6
HIDDEN
 62
3
100
AcDbLine
 10
87.05613776331322
 20
193.3296024682080
 30
0.0000000000000000
 11
87.75472091778144
 21
195.2489439107208
 31
0.0000000000000000
  0
LINE
  5
397
100
AcDbEntity
  8
MAIN0
  6
HIDDEN
 62
3
100
AcDbLine
 10
87.75472091778131
 20
195.2489439107207
 30
0.0000000000000000
 11
87.91435258474485
 21
195.6875283111328
 31
0.0000000000000000
  0
LINE
  5
398
100
AcDbEntity
  8
MAIN0
  6
HIDDEN
 62
3
100
AcDbLine
 10
106.8547255537451
 20
193.3296024682079
 30
0.0000000000000000
 11
106.1561423992769
 21
195.2489439107207
 31
0.0000000000000000
  0
LINE
  5
399
100
AcDbEntity
  8
MAIN0
  6
HIDDEN
 62
3
100
AcDbLine
 10
104.5054940017802
 20
192.4745521098936
 30
0.0000000000000000
 11
103.8069108473574
 21
194.3938935522814
 31
0.0000000000000000
  0
LINE
  5
39A
100
AcDbEntity
  8
MAIN0
  6
HIDDEN
 62
3
100
AcDbLine
 10
90.26358413671062
 20
194.8324779528209
 30
0.0000000000000000
 11
87.91435258474493
 21
195.6875283111326
 31
0.0000000000000000
  0
LINE
  5
39B
100
AcDbEntity
  8
MAIN0
  6
HIDDEN
 62
3
100
AcDbLine
 10
90.26358413667603
 20
194.8324779527258
 30
0.0000000000000000
 11
89.33580013796532
 21
195.9381678663411
 31
0.0000000000000000
  0
LINE
  5
39C
100
AcDbEntity
  8
MAIN0
  6
HIDDEN
 62
3
100
AcDbLine
 10
87.91435258471093
 20
195.6875283110400
 30
0.0000000000000000
 11
89.33580013796535
 21
195.9381678663411
 31
0.0000000000000000
  0
LINE
  5
39D
100
AcDbEntity
  8
MAIN0
  6
CENTER
 62
3
100
AcDbLine
 10
156.0767167371116
 20
268.4679846765871
 30
0.0000000000000000
 11
163.2814117283732
 21
276.1940741505128
 31
0.0000000000000000
  0
LINE
  5
39E
100
AcDbEntity
  8
MAIN0
  6
CENTER
 62
3
100
AcDbLine
 10
68.95543165864831
 20
219.8729334100034
 30
0.0000000000000000
 11
68.95543165864831
 21
213.8729334100034
 31
0.0000000000000000
  0
LINE
  5
39F
100
AcDbEntity
  8
MAIN0
  6
CENTER
 62
3
100
AcDbLine
 10
354.1137609913836
 20
82.76014496994455
 30
0.0000000000000000
 11
361.4761209259673
 21
82.76014496994455
 31
0.0000000000000000
  0
LINE
  5
3A0
100
AcDbEntity
  8
MAIN0
  6
CENTER
 62
3
100
AcDbLine
 10
357.4872868350282
 20
78.44277237643988
 30
0.0000000000000000
 11
357.4872868350282
 21
86.45956257849107
 31
0.0000000000000000
  0
ELLIPSE
  5
3A1
100
AcDbEntity
  8
MAIN0
  6
CONTINUOUS
 62
3
100
AcDbEllipse
 10
357.4872868350282
 20
82.76014496994449
 30
0.0000000000000000
 11
0.0000000000000000
 21
2.900000000000000
 31
0.0000000000000000
210
0.0000000000000000
220
0.0000000000000000
230
1.000000000000000
 40
0.9396926207931033
 41
0.0000000000000000
 42
6.283185307179586
  0
ELLIPSE
  5
3A2
100
AcDbEntity
  8
MAIN0
  6
CONTINUOUS
 62
3
100
AcDbEllipse
 10
357.3504787776980
 20
82.76014496994449
 30
0.0000000000000000
 11
0.0000000000000000
 21
-2.500000000000000
 31
0.0000000000000000
210
0.0000000000000000
220
0.0000000000000000
230
1.000000000000000
 40
0.9396926207800000
 41
0.0000000000000000
 42
6.283185307179586
  0
ELLIPSE
  5
3A3
100
AcDbEntity
  8
MAIN0
  6
CONTINUOUS
 62
3
100
AcDbEllipse
 10
357.2136707203678
 20
82.76014496994449
 30
0.0000000000000000
 11
0.0000000000000000
 21
2.100000000000000
 31
0.0000000000000000
210
0.0000000000000000
220
0.0000000000000000
230
1.000000000000000
 40
0.9396926207857141
 41
0.0000000000000000
 42
6.283185307179586
  0
LINE
  5
3A4
100
AcDbEntity
  8
MAIN0
  6
CENTER
 62
3
100
AcDbLine
 10
331.3907241685650
 20
105.2601449699446
 30
0.0000000000000000
 11
338.3849645343086
 21
105.2601449699446
 31
0.0000000000000000
  0
ELLIPSE
  5
3A5
100
AcDbEntity
  8
MAIN0
  6
CONTINUOUS
 62
3
100
AcDbEllipse
 10
335.1875734901888
 20
105.2601449699446
 30
0.0000000000000000
 11
0.0000000000000000
 21
2.100000000000000
 31
0.0000000000000000
210
0.0000000000000000
220
0.0000000000000000
230
1.000000000000000
 40
0.9396926207857141
 41
0.0000000000000000
 42
6.283185307179586
  0
ELLIPSE
  5
3A6
100
AcDbEntity
  8
MAIN0
  6
CONTINUOUS
 62
3
100
AcDbEllipse
 10
334.9139573755282
 20
105.2601449699446
 30
0.0000000000000000
 11
0.0000000000000000
 21
2.900000000000000
 31
0.0000000000000000
210
0.0000000000000000
220
0.0000000000000000
230
1.000000000000000
 40
0.9396926207931033
 41
0.0000000000000000
 42
6.283185307179586
  0
ELLIPSE
  5
3A7
100
AcDbEntity
  8
MAIN0
  6
CONTINUOUS
 62
3
100
AcDbEllipse
 10
335.0507654328584
 20
105.2601449699446
 30
0.0000000000000000
 11
0.0000000000000000
 21
2.500000000000000
 31
0.0000000000000000
210
0.0000000000000000
220
0.0000000000000000
230
1.000000000000000
 40
0.9396926207800000
 41
0.0000000000000000
 42
6.283185307179586
  0
LINE
  5
3A8
100
AcDbEntity
  8
MAIN0
  6
CENTER
 62
3
100
AcDbLine
 10
302.8040215567558
 20
216.8729334107103
 30
0.0000000000000000
 11
389.7811957955482
 21
216.8729334108910
 31
0.0000000000000000
  0
LINE
  5
3A9
100
AcDbEntity
  8
MAIN0
  6
CENTER
 62
3
100
AcDbLine
 10
346.2006401208079
 20
173.8715206228321
 30
0.0000000000000000
 11
346.2006401207408
 21
259.3820934648911
 31
0.0000000000000000
  0
CIRCLE
  5
3AA
100
AcDbEntity
  8
MAIN0
  6
CONTINUOUS
 62
3
100
AcDbCircle
 10
346.2006401207742
 20
216.8729334108004
 30
0.0000000000000000
 40
28.89999999981225
  0
CIRCLE
  5
3AB
100
AcDbEntity
  8
MAIN0
  6
HIDDEN
 62
3
100
AcDbCircle
 10
346.2006401207742
 20
216.8729334108004
 30
0.0000000000000000
 40
32.99999999981219
  0
ARC
  5
3AC
100
AcDbEntity
  8
MAIN0
  6
CONTINUOUS
 62
3
100
AcDbCircle
 10
346.2006401207742
 20
216.8729334108004
 30
0.0000000000000000
 40
27.00000000018298
100
AcDbArc
 50
8.000000000141839
 51
52.00000000174374
  0
ARC
  5
3AD
100
AcDbEntity
  8
MAIN0
  6
CONTINUOUS
 62
3
100
AcDbCircle
 10
346.2006401207742
 20
216.8729334108004
 30
0.0000000000000000
 40
27.00000000018298
100
AcDbArc
 50
128.0000000001418
 51
172.0000000017437
  0
ARC
  5
3AE
100
AcDbEntity
  8
MAIN0
  6
CONTINUOUS
 62
3
100
AcDbCircle
 10
346.2006401207742
 20
216.8729334108004
 30
0.0000000000000000
 40
27.00000000018298
100
AcDbArc
 50
248.0000000001418
 51
292.0000000017436
  0
ARC
  5
3AF
100
AcDbEntity
  8
MAIN0
  6
CONTINUOUS
 62
3
100
AcDbCircle
 10
346.2006401207742
 20
216.8729334108004
 30
0.0000000000000000
 40
23.99999999981276
100
AcDbArc
 50
63.44557639678589
 51
116.5544236058173
  0
ARC
  5
3B0
100
AcDbEntity
  8
MAIN0
  6
CONTINUOUS
 62
3
100
AcDbCircle
 10
346.2006401207742
 20
216.8729334108004
 30
0.0000000000000000
 40
23.99999999981276
100
AcDbArc
 50
183.4455763967859
 51
236.5544236058173
  0
ARC
  5
3B1
100
AcDbEntity
  8
MAIN0
  6
CONTINUOUS
 62
3
100
AcDbCircle
 10
346.2006401207742
 20
216.8729334108004
 30
0.0000000000000000
 40
23.99999999981276
100
AcDbArc
 50
303.4455763967858
 51
356.5544236058173
  0
ARC
  5
3B2
100
AcDbEntity
  8
MAIN0
  6
HIDDEN
 62
3
100
AcDbCircle
 10
346.2006401207742
 20
216.8729334108004
 30
0.0000000000000000
 40
26.99999999981279
100
AcDbArc
 50
52.00000000174374
 51
128.0000000001418
  0
ARC
  5
3B3
100
AcDbEntity
  8
MAIN0
  6
HIDDEN
 62
3
100
AcDbCircle
 10
346.2006401207742
 20
216.8729334108004
 30
0.0000000000000000
 40
26.99999999981279
100
AcDbArc
 50
172.0000000017437
 51
248.0000000001418
  0
ARC
  5
3B4
100
AcDbEntity
  8
MAIN0
  6
HIDDEN
 62
3
100
AcDbCircle
 10
346.2006401207742
 20
216.8729334108004
 30
0.0000000000000000
 40
26.99999999981279
100
AcDbArc
 50
292.0000000017437
 51
368.0000000001418
  0
ARC
  5
3B5
100
AcDbEntity
  8
MAIN0
  6
CONTINUOUS
 62
3
100
AcDbCircle
 10
359.7451925780052
 20
234.2091699913209
 30
0.0000000000000000
 40
5.000000000000000
100
AcDbArc
 50
52.00000000174370
 51
124.2691805555891
  0
ARC
  5
3B6
100
AcDbEntity
  8
MAIN0
  6
CONTINUOUS
 62
3
100
AcDbCircle
 10
367.9865376331834
 20
219.9347416319901
 30
0.0000000000000000
 40
5.000000000000000
100
AcDbArc
 50
295.7308194573820
 51
368.0000000001417
  0
ARC
  5
3B7
100
AcDbEntity
  8
MAIN0
  6
CONTINUOUS
 62
3
100
AcDbCircle
 10
324.4147426074108
 20
219.9347416313931
 30
0.0000000000000000
 40
5.000000000000000
100
AcDbArc
 50
172.0000000017437
 51
244.2691805555891
  0
ARC
  5
3B8
100
AcDbEntity
  8
MAIN0
  6
CONTINUOUS
 62
3
100
AcDbCircle
 10
332.6560876635033
 20
234.2091699901961
 30
0.0000000000000000
 40
5.000000000000000
100
AcDbArc
 50
55.73081945738203
 51
128.0000000001417
  0
ARC
  5
3B9
100
AcDbEntity
  8
MAIN0
  6
CONTINUOUS
 62
3
100
AcDbCircle
 10
354.4419851769065
 20
196.4748886096870
 30
0.0000000000000000
 40
5.000000000000000
100
AcDbArc
 50
292.0000000017437
 51
364.2691805555891
  0
CIRCLE
  5
3BA
100
AcDbEntity
  8
MAIN0
  6
CENTER
 62
3
100
AcDbCircle
 10
346.2006401207742
 20
216.8729334108005
 30
0.0000000000000000
 40
28.00000000000000
  0
CIRCLE
  5
3BB
100
AcDbEntity
  8
MAIN0
  6
CONTINUOUS
 62
3
100
AcDbCircle
 10
346.2006401207742
 20
216.8729334108005
 30
0.0000000000000000
 40
13.50000000026722
  0
CIRCLE
  5
3BC
100
AcDbEntity
  8
MAIN0
  6
CONTINUOUS
 62
3
100
AcDbCircle
 10
346.2006401207742
 20
216.8729334108005
 30
0.0000000000000000
 40
14.50000000036300
  0
CIRCLE
  5
3BD
100
AcDbEntity
  8
MAIN0
  6
CONTINUOUS
 62
3
100
AcDbCircle
 10
346.2006401207743
 20
216.8729334108005
 30
0.0000000000000000
 40
41.00000000031508
  0
CIRCLE
  5
3BE
100
AcDbEntity
  8
MAIN0
  6
CONTINUOUS
 62
3
100
AcDbCircle
 10
346.2006401207743
 20
216.8729334108005
 30
0.0000000000000000
 40
29.50000000017525
  0
CIRCLE
  5
3BF
100
AcDbEntity
  8
MAIN0
  6
CONTINUOUS
 62
3
100
AcDbCircle
 10
346.2006401207743
 20
216.8729334108005
 30
0.0000000000000000
 40
37.00000000017542
  0
LINE
  5
3C0
100
AcDbEntity
  8
MAIN0
  6
HIDDEN
 62
3
100
AcDbLine
 10
342.7006401207162
 20
253.8729334111358
 30
0.0000000000000000
 11
349.7006401207162
 21
253.8729334111503
 31
0.0000000000000000
  0
LINE
  5
3C1
100
AcDbEntity
  8
MAIN0
  6
HIDDEN
 62
3
100
AcDbLine
 10
342.7006401207117
 20
256.7602747611540
 30
0.0000000000000000
 11
342.7006401207162
 21
253.8729334111356
 31
0.0000000000000000
  0
LINE
  5
3C2
100
AcDbEntity
  8
MAIN0
  6
HIDDEN
 62
3
100
AcDbLine
 10
349.7006401207117
 20
256.7602747611634
 30
0.0000000000000000
 11
349.7006401207162
 21
253.8729334111501
 31
0.0000000000000000
  0
LINE
  5
3C3
100
AcDbEntity
  8
MAIN0
  6
HIDDEN
 62
3
100
AcDbLine
 10
105.5169877893076
 20
184.8712185084740
 30
0.0000000000000000
 11
105.9951257712758
 21
185.8965887197633
 31
0.0000000000000000
  0
LINE
  5
3C4
100
AcDbEntity
  8
MAIN0
  6
HIDDEN
 62
3
100
AcDbLine
 10
105.9951257712759
 20
185.8965887197631
 30
0.0000000000000000
 11
109.9418347785768
 21
187.3330733217309
 31
0.0000000000000000
  0
LINE
  5
3C5
100
AcDbEntity
  8
MAIN0
  6
HIDDEN
 62
3
100
AcDbLine
 10
109.9418347785767
 20
187.3330733217310
 30
0.0000000000000000
 11
110.9672049898659
 21
186.8549353397628
 31
0.0000000000000000
  0
LINE
  5
3C6
100
AcDbEntity
  8
MAIN0
  6
HIDDEN
 62
3
100
AcDbLine
 10
105.7560567802919
 20
185.3839036141185
 30
0.0000000000000000
 11
104.1827641209939
 21
189.7064896697337
 31
0.0000000000000000
  0
LINE
  5
3C7
100
AcDbEntity
  8
MAIN0
  6
HIDDEN
 62
3
100
AcDbLine
 10
104.1827641209939
 20
189.7064896697337
 30
0.0000000000000000
 11
108.8812272249233
 21
191.4165903863620
 31
0.0000000000000000
  0
LINE
  5
3C8
100
AcDbEntity
  8
MAIN0
  6
HIDDEN
 62
3
100
AcDbLine
 10
108.8812272249233
 20
191.4165903863620
 30
0.0000000000000000
 11
110.4545198842214
 21
187.0940043307468
 31
0.0000000000000000
  0
LINE
  5
3C9
100
AcDbEntity
  8
MAIN0
  6
HIDDEN
 62
3
100
AcDbLine
 10
103.8746008826568
 20
191.7226829686357
 30
0.0000000000000000
 11
107.8213098899576
 21
193.1591675706035
 31
0.0000000000000000
  0
LINE
  5
3CA
100
AcDbEntity
  8
MAIN0
  6
HIDDEN
 62
3
100
AcDbLine
 10
103.8746008826567
 20
191.7226829686359
 30
0.0000000000000000
 11
104.5054940017789
 21
192.4745521098928
 31
0.0000000000000000
  0
LINE
  5
3CB
100
AcDbEntity
  8
MAIN0
  6
HIDDEN
 62
3
100
AcDbLine
 10
106.8547255537434
 20
193.3296024682085
 30
0.0000000000000000
 11
107.8213098899576
 21
193.1591675706037
 31
0.0000000000000000
  0
LINE
  5
3CC
100
AcDbEntity
  8
MAIN0
  6
HIDDEN
 62
3
100
AcDbLine
 10
105.9951257712759
 20
185.8965887197631
 30
0.0000000000000000
 11
104.5586411693081
 21
189.8432977270639
 31
0.0000000000000000
  0
LINE
  5
3CD
100
AcDbEntity
  8
MAIN0
  6
HIDDEN
 62
3
100
AcDbLine
 10
104.5586411693080
 20
189.8432977270639
 30
0.0000000000000000
 11
103.8746008826566
 21
191.7226829686357
 31
0.0000000000000000
  0
LINE
  5
3CE
100
AcDbEntity
  8
MAIN0
  6
HIDDEN
 62
3
100
AcDbLine
 10
109.9418347785768
 20
187.3330733217309
 30
0.0000000000000000
 11
107.8213098899576
 21
193.1591675706035
 31
0.0000000000000000
  0
LINE
  5
3CF
100
AcDbEntity
  8
MAIN0
  6
CENTER
 62
3
100
AcDbLine
 10
84.73493903099279
 20
183.2974058648874
 30
0.0000000000000000
 11
89.57586846629059
 21
196.5977501775413
 31
0.0000000000000000
  0
LINE
  5
3D0
100
AcDbEntity
  8
MAIN0
  6
HIDDEN
 62
3
100
AcDbLine
 10
88.39387552775023
 20
184.8712185084738
 30
0.0000000000000000
 11
87.91573754578201
 21
185.8965887197631
 31
0.0000000000000000
  0
LINE
  5
3D1
100
AcDbEntity
  8
MAIN0
  6
HIDDEN
 62
3
100
AcDbLine
 10
87.91573754578194
 20
185.8965887197630
 30
0.0000000000000000
 11
83.96902853848108
 21
187.3330733217308
 31
0.0000000000000000
  0
LINE
  5
3D2
100
AcDbEntity
  8
MAIN0
  6
HIDDEN
 62
3
100
AcDbLine
 10
83.96902853848117
 20
187.3330733217307
 30
0.0000000000000000
 11
82.94365832719207
 21
186.8549353397626
 31
0.0000000000000000
  0
LINE
  5
3D3
100
AcDbEntity
  8
MAIN0
  6
HIDDEN
 62
3
100
AcDbLine
 10
88.15480653676602
 20
185.3839036141183
 30
0.0000000000000000
 11
89.72809919606405
 21
189.7064896697334
 31
0.0000000000000000
  0
LINE
  5
3D4
100
AcDbEntity
  8
MAIN0
  6
HIDDEN
 62
3
100
AcDbLine
 10
89.72809919606405
 20
189.7064896697334
 30
0.0000000000000000
 11
85.02963609213451
 21
191.4165903863618
 31
0.0000000000000000
  0
LINE
  5
3D5
100
AcDbEntity
  8
MAIN0
  6
HIDDEN
 62
3
100
AcDbLine
 10
85.02963609213451
 20
191.4165903863618
 30
0.0000000000000000
 11
83.45634343283648
 21
187.0940043307467
 31
0.0000000000000000
  0
LINE
  5
3D6
100
AcDbEntity
  8
MAIN0
  6
HIDDEN
 62
3
100
AcDbLine
 10
90.03626243440105
 20
191.7226829686355
 30
0.0000000000000000
 11
86.08955342710020
 21
193.1591675706033
 31
0.0000000000000000
  0
LINE
  5
3D7
100
AcDbEntity
  8
MAIN0
  6
HIDDEN
 62
3
100
AcDbLine
 10
90.03626243440115
 20
191.7226829686356
 30
0.0000000000000000
 11
89.40536931527797
 21
192.4745521098936
 31
0.0000000000000000
  0
LINE
  5
3D8
100
AcDbEntity
  8
MAIN0
  6
HIDDEN
 62
3
100
AcDbLine
 10
87.05613776331337
 20
193.3296024682079
 30
0.0000000000000000
 11
86.08955342710048
 21
193.1591675706034
 31
0.0000000000000000
  0
LINE
  5
3D9
100
AcDbEntity
  8
MAIN0
  6
HIDDEN
 62
3
100
AcDbLine
 10
87.91573754578194
 20
185.8965887197630
 30
0.0000000000000000
 11
89.35222214774971
 21
189.8432977270637
 31
0.0000000000000000
  0
LINE
  5
3DA
100
AcDbEntity
  8
MAIN0
  6
HIDDEN
 62
3
100
AcDbLine
 10
89.35222214774980
 20
189.8432977270637
 30
0.0000000000000000
 11
90.03626243440120
 21
191.7226829686356
 31
0.0000000000000000
  0
LINE
  5
3DB
100
AcDbEntity
  8
MAIN0
  6
HIDDEN
 62
3
100
AcDbLine
 10
83.96902853848108
 20
187.3330733217308
 30
0.0000000000000000
 11
86.08955342710020
 21
193.1591675706033
 31
0.0000000000000000
  0
LINE
  5
3DC
100
AcDbEntity
  8
MAIN0
  6
HIDDEN
 62
3
100
AcDbLine
 10
89.40536931527799
 20
192.4745521098938
 30
0.0000000000000000
 11
90.10395246970064
 21
194.3938935522814
 31
0.0000000000000000
  0
LINE
  5
3DD
100
AcDbEntity
  8
MAIN0
  6
HIDDEN
 62
3
100
AcDbLine
 10
90.10395246970056
 20
194.3938935522814
 30
0.0000000000000000
 11
90.26358413671048
 21
194.8324779528211
 31
0.0000000000000000
  0
LINE
  5
3DE
100
AcDbEntity
  8
MAIN0
  6
HIDDEN
 62
3
100
AcDbLine
 10
87.05613776331312
 20
193.3296024682080
 30
0.0000000000000000
 11
87.75472091778134
 21
195.2489439107208
 31
0.0000000000000000
  0
LINE
  5
3DF
100
AcDbEntity
  8
MAIN0
  6
HIDDEN
 62
3
100
AcDbLine
 10
87.75472091778126
 20
195.2489439107206
 30
0.0000000000000000
 11
87.91435258474475
 21
195.6875283111327
 31
0.0000000000000000
  0
CIRCLE
  5
3E0
100
AcDbEntity
  8
MAIN0
  6
CONTINUOUS
 62
3
100
AcDbCircle
 10
96.95543165852894
 20
216.8729334100033
 30
0.0000000000000000
 40
41.00000000031508
  0
LINE
  5
3E1
100
AcDbEntity
  8
MAIN0
  6
CONTINUOUS
 62
3
100
AcDbLine
 10
100.4554316585869
 20
253.8729334103385
 30
0.0000000000000000
 11
93.45543165858690
 21
253.8729334103531
 31
0.0000000000000000
  0
LINE
  5
3E2
100
AcDbEntity
  8
MAIN0
  6
CONTINUOUS
 62
3
100
AcDbLine
 10
100.4554316585915
 20
256.7195141917915
 30
0.0000000000000000
 11
100.4554316585870
 21
253.8729334103385
 31
0.0000000000000000
  0
LINE
  5
3E3
100
AcDbEntity
  8
MAIN0
  6
CONTINUOUS
 62
3
100
AcDbLine
 10
93.45543165859147
 20
256.7195141918024
 30
0.0000000000000000
 11
93.45543165858697
 21
253.8729334103530
 31
0.0000000000000000
  0
CIRCLE
  5
3E4
100
AcDbEntity
  8
MAIN0
  6
CONTINUOUS
 62
3
100
AcDbCircle
 10
96.95543165852894
 20
216.8729334100033
 30
0.0000000000000000
 40
33.91700000013606
  0
CIRCLE
  5
3E5
100
AcDbEntity
  8
MAIN0
  6
CONTINUOUS
 62
3
100
AcDbCircle
 10
96.95543165852894
 20
216.8729334100034
 30
0.0000000000000000
 40
35.00000000017172
  0
CIRCLE
  5
3E6
100
AcDbEntity
  8
MAIN0
  6
CONTINUOUS
 62
3
100
AcDbCircle
 10
106.5304316585281
 20
190.5658371223978
 30
0.0000000000000000
 40
1.500000000000000
  0
CIRCLE
  5
3E7
100
AcDbEntity
  8
MAIN0
  6
CONTINUOUS
 62
3
100
AcDbCircle
 10
106.5304316585281
 20
190.5658371223978
 30
0.0000000000000000
 40
1.229367000000000
  0
LINE
  5
3E8
100
AcDbEntity
  8
MAIN0
  6
CONTINUOUS
 62
3
100
AcDbLine
 10
106.5304316585280
 20
191.4318625261821
 30
0.0000000000000000
 11
105.7804316585281
 21
190.9988498242900
 31
0.0000000000000000
  0
LINE
  5
3E9
100
AcDbEntity
  8
MAIN0
  6
CONTINUOUS
 62
3
100
AcDbLine
 10
105.7804316585281
 20
190.9988498242900
 30
0.0000000000000000
 11
105.7804316585281
 21
190.1328244205055
 31
0.0000000000000000
  0
LINE
  5
3EA
100
AcDbEntity
  8
MAIN0
  6
CONTINUOUS
 62
3
100
AcDbLine
 10
105.7804316585282
 20
190.1328244205055
 30
0.0000000000000000
 11
106.5304316585281
 21
189.6998117186134
 31
0.0000000000000000
  0
LINE
  5
3EB
100
AcDbEntity
  8
MAIN0
  6
CONTINUOUS
 62
3
100
AcDbLine
 10
106.5304316585281
 20
189.6998117186133
 30
0.0000000000000000
 11
107.2804316585280
 21
190.1328244205054
 31
0.0000000000000000
  0
LINE
  5
3EC
100
AcDbEntity
  8
MAIN0
  6
CONTINUOUS
 62
3
100
AcDbLine
 10
107.2804316585281
 20
190.1328244205055
 30
0.0000000000000000
 11
107.2804316585281
 21
190.9988498242900
 31
0.0000000000000000
  0
LINE
  5
3ED
100
AcDbEntity
  8
MAIN0
  6
CONTINUOUS
 62
3
100
AcDbLine
 10
107.2804316585281
 20
190.9988498242900
 30
0.0000000000000000
 11
106.5304316585282
 21
191.4318625261822
 31
0.0000000000000000
  0
CIRCLE
  5
3EE
100
AcDbEntity
  8
MAIN0
  6
CONTINUOUS
 62
3
100
AcDbCircle
 10
87.38043165852923
 20
190.5658371223958
 30
0.0000000000000000
 40
1.500000000000000
  0
CIRCLE
  5
3EF
100
AcDbEntity
  8
MAIN0
  6
CONTINUOUS
 62
3
100
AcDbCircle
 10
87.38043165852923
 20
190.5658371223958
 30
0.0000000000000000
 40
1.229367000000000
  0
LINE
  5
3F0
100
AcDbEntity
  8
MAIN0
  6
CONTINUOUS
 62
3
100
AcDbLine
 10
87.38043165852915
 20
191.4318625261801
 30
0.0000000000000000
 11
86.63043165852923
 21
190.9988498242879
 31
0.0000000000000000
  0
LINE
  5
3F1
100
AcDbEntity
  8
MAIN0
  6
CONTINUOUS
 62
3
100
AcDbLine
 10
86.63043165852923
 20
190.9988498242880
 30
0.0000000000000000
 11
86.63043165852923
 21
190.1328244205035
 31
0.0000000000000000
  0
LINE
  5
3F2
100
AcDbEntity
  8
MAIN0
  6
CONTINUOUS
 62
3
100
AcDbLine
 10
86.63043165852928
 20
190.1328244205033
 30
0.0000000000000000
 11
87.38043165852916
 21
189.6998117186112
 31
0.0000000000000000
  0
LINE
  5
3F3
100
AcDbEntity
  8
MAIN0
  6
CONTINUOUS
 62
3
100
AcDbLine
 10
87.38043165852920
 20
189.6998117186113
 30
0.0000000000000000
 11
88.13043165852912
 21
190.1328244205034
 31
0.0000000000000000
  0
LINE
  5
3F4
100
AcDbEntity
  8
MAIN0
  6
CONTINUOUS
 62
3
100
AcDbLine
 10
88.13043165852923
 20
190.1328244205035
 30
0.0000000000000000
 11
88.13043165852923
 21
190.9988498242880
 31
0.0000000000000000
  0
LINE
  5
3F5
100
AcDbEntity
  8
MAIN0
  6
CONTINUOUS
 62
3
100
AcDbLine
 10
88.13043165852915
 20
190.9988498242878
 30
0.0000000000000000
 11
87.38043165852926
 21
191.4318625261800
 31
0.0000000000000000
  0
LINE
  5
3F6
100
AcDbEntity
  8
MAIN0
  6
CONTINUOUS
 62
3
100
AcDbLine
 10
59.95543165819384
 20
220.3729334100613
 30
0.0000000000000000
 11
59.95543165817932
 21
213.3729334100613
 31
0.0000000000000000
  0
LINE
  5
3F7
100
AcDbEntity
  8
MAIN0
  6
CONTINUOUS
 62
3
100
AcDbLine
 10
57.10885087674100
 20
220.3729334100659
 30
0.0000000000000000
 11
59.95543165819399
 21
220.3729334100614
 31
0.0000000000000000
  0
LINE
  5
3F8
100
AcDbEntity
  8
MAIN0
  6
CONTINUOUS
 62
3
100
AcDbLine
 10
57.10885087672996
 20
213.3729334100659
 30
0.0000000000000000
 11
59.95543165817942
 21
213.3729334100614
 31
0.0000000000000000
  0
LINE
  5
3F9
100
AcDbEntity
  8
MAIN0
  6
CONTINUOUS
 62
3
100
AcDbLine
 10
93.45543165847113
 20
179.8729334096683
 30
0.0000000000000000
 11
100.4554316584711
 21
179.8729334096538
 31
0.0000000000000000
  0
LINE
  5
3FA
100
AcDbEntity
  8
MAIN0
  6
CONTINUOUS
 62
3
100
AcDbLine
 10
93.45543165846654
 20
177.0263526282153
 30
0.0000000000000000
 11
93.45543165847103
 21
179.8729334096683
 31
0.0000000000000000
  0
LINE
  5
3FB
100
AcDbEntity
  8
MAIN0
  6
CONTINUOUS
 62
3
100
AcDbLine
 10
100.4554316584665
 20
177.0263526282043
 30
0.0000000000000000
 11
100.4554316584710
 21
179.8729334096538
 31
0.0000000000000000
  0
LINE
  5
3FC
100
AcDbEntity
  8
MAIN0
  6
CONTINUOUS
 62
3
100
AcDbLine
 10
133.9554316588641
 20
213.3729334099455
 30
0.0000000000000000
 11
133.9554316588786
 21
220.3729334099455
 31
0.0000000000000000
  0
LINE
  5
3FD
100
AcDbEntity
  8
MAIN0
  6
CONTINUOUS
 62
3
100
AcDbLine
 10
136.8020124403170
 20
213.3729334099409
 30
0.0000000000000000
 11
133.9554316588641
 21
213.3729334099454
 31
0.0000000000000000
  0
LINE
  5
3FE
100
AcDbEntity
  8
MAIN0
  6
CONTINUOUS
 62
3
100
AcDbLine
 10
136.8020124403280
 20
220.3729334099409
 30
0.0000000000000000
 11
133.9554316588785
 21
220.3729334099454
 31
0.0000000000000000
  0
LINE
  5
3FF
100
AcDbEntity
  8
MAIN0
  6
CENTER
 62
3
100
AcDbLine
 10
72.96184969239536
 20
222.4122882922021
 30
0.0000000000000000
 11
62.22553630435162
 21
224.8909615434754
 31
0.0000000000000000
  0
LINE
  5
400
100
AcDbEntity
  8
MAIN0
  6
CONTINUOUS
 62
3
100
AcDbLine
 10
162.4258517048881
 20
271.2443305915064
 30
0.0000000000000000
 11
164.3265375348768
 21
273.2825666031773
 31
0.0000000000000000
  0
LINE
  5
401
100
AcDbEntity
  8
MAIN0
  6
CONTINUOUS
 62
3
100
AcDbLine
 10
162.4258517050681
 20
271.2443305913385
 30
0.0000000000000000
 11
161.5847949482069
 21
272.0286287054113
 31
0.0000000000000000
  0
LINE
  5
402
100
AcDbEntity
  8
MAIN0
  6
CONTINUOUS
 62
3
100
AcDbLine
 10
158.4034063459862
 20
274.9953215718538
 30
0.0000000000000000
 11
160.3040921743033
 21
277.0335575817319
 31
0.0000000000000000
  0
LINE
  5
403
100
AcDbEntity
  8
MAIN0
  6
CONTINUOUS
 62
3
100
AcDbLine
 10
158.4034063461658
 20
274.9953215716863
 30
0.0000000000000000
 11
159.2444631030272
 21
274.2110234576139
 31
0.0000000000000000
  0
LINE
  5
404
100
AcDbEntity
  8
MAIN0
  6
CONTINUOUS
 62
3
100
AcDbLine
 10
158.2214655627530
 20
273.1139929053497
 30
0.0000000000000000
 11
159.2444631028477
 21
274.2110234577815
 31
0.0000000000000000
  0
LINE
  5
405
100
AcDbEntity
  8
MAIN0
  6
CONTINUOUS
 62
3
100
AcDbLine
 10
157.3804088058900
 20
273.8982910194205
 30
0.0000000000000000
 11
158.2214655627530
 21
273.1139929053495
 31
0.0000000000000000
  0
LINE
  5
406
100
AcDbEntity
  8
MAIN0
  6
CONTINUOUS
 62
3
100
AcDbLine
 10
154.9252147098437
 20
271.2654176934315
 30
0.0000000000000000
 11
157.3804088060710
 21
273.8982910192582
 31
0.0000000000000000
  0
LINE
  5
407
100
AcDbEntity
  8
MAIN0
  6
CONTINUOUS
 62
3
100
AcDbLine
 10
158.9476600685759
 20
267.5144267132492
 30
0.0000000000000000
 11
154.9252147096682
 21
271.2654176935903
 31
0.0000000000000000
  0
LINE
  5
408
100
AcDbEntity
  8
MAIN0
  6
CONTINUOUS
 62
3
100
AcDbLine
 10
158.9476600687465
 20
267.5144267130851
 30
0.0000000000000000
 11
161.4028541649731
 21
270.1473000389110
 31
0.0000000000000000
  0
LINE
  5
409
100
AcDbEntity
  8
MAIN0
  6
CONTINUOUS
 62
3
100
AcDbLine
 10
161.4028541647990
 20
270.1473000390805
 30
0.0000000000000000
 11
160.5617974079364
 21
270.9315981531518
 31
0.0000000000000000
  0
LINE
  5
40A
100
AcDbEntity
  8
MAIN0
  6
CONTINUOUS
 62
3
100
AcDbLine
 10
160.5617974079364
 20
270.9315981531518
 30
0.0000000000000000
 11
161.5847949480271
 21
272.0286287055792
 31
0.0000000000000000
  0
LINE
  5
40B
100
AcDbEntity
  8
MAIN0
  6
CONTINUOUS
 62
3
100
AcDbLine
 10
247.8987683350080
 20
140.2554836110619
 30
0.0000000000000000
 11
248.3987683350080
 21
139.7554836110619
 31
0.0000000000000000
  0
LINE
  5
40C
100
AcDbEntity
  8
MAIN0
  6
CONTINUOUS
 62
3
100
AcDbLine
 10
248.3987683350080
 20
139.7554836110618
 30
0.0000000000000000
 11
248.3987683350080
 21
137.2554836110618
 31
0.0000000000000000
  0
LINE
  5
40D
100
AcDbEntity
  8
MAIN0
  6
CONTINUOUS
 62
3
100
AcDbLine
 10
248.3987683350080
 20
137.2554836110618
 30
0.0000000000000000
 11
247.8987683350080
 21
136.7554836110618
 31
0.0000000000000000
  0
LINE
  5
40E
100
AcDbEntity
  8
MAIN0
  6
CONTINUOUS
 62
3
100
AcDbLine
 10
248.1487683350080
 20
140.0054836110618
 30
0.0000000000000000
 11
251.8987683350080
 21
140.0054836110618
 31
0.0000000000000000
  0
LINE
  5
40F
100
AcDbEntity
  8
MAIN0
  6
CONTINUOUS
 62
3
100
AcDbLine
 10
251.8987683350080
 20
140.0054836110618
 30
0.0000000000000000
 11
251.8987683350080
 21
137.0054836110618
 31
0.0000000000000000
  0
LINE
  5
410
100
AcDbEntity
  8
MAIN0
  6
CONTINUOUS
 62
3
100
AcDbLine
 10
251.8987683350080
 20
137.0054836110618
 30
0.0000000000000000
 11
248.1487683350080
 21
137.0054836110618
 31
0.0000000000000000
  0
LINE
  5
411
100
AcDbEntity
  8
MAIN0
  6
CONTINUOUS
 62
3
100
AcDbLine
 10
248.3987683350080
 20
139.7554836110618
 30
0.0000000000000000
 11
257.8987683350080
 21
139.7554836110618
 31
0.0000000000000000
  0
LINE
  5
412
100
AcDbEntity
  8
MAIN0
  6
CONTINUOUS
 62
3
100
AcDbLine
 10
257.8987683350080
 20
137.2554836110618
 30
0.0000000000000000
 11
248.3987683350080
 21
137.2554836110618
 31
0.0000000000000000
  0
LINE
  5
413
100
AcDbEntity
  8
MAIN0
  6
CONTINUOUS
 62
3
100
AcDbLine
 10
192.1208312730633
 20
249.7245189283229
 30
0.0000000000000000
 11
229.5208312730816
 21
249.7245189283287
 31
0.0000000000000000
  0
LINE
  5
414
100
AcDbEntity
  8
MAIN0
  6
CONTINUOUS
 62
3
100
AcDbLine
 10
192.1208312730633
 20
248.2085134735716
 30
0.0000000000000000
 11
229.5208312730816
 21
248.2085134735716
 31
0.0000000000000000
  0
LINE
  5
415
100
AcDbEntity
  8
MAIN0
  6
CONTINUOUS
 62
3
100
AcDbLine
 10
192.1208312730635
 20
243.1660881883117
 30
0.0000000000000000
 11
229.5208312730816
 21
243.1660881883059
 31
0.0000000000000000
  0
LINE
  5
416
100
AcDbEntity
  8
MAIN0
  6
CONTINUOUS
 62
3
100
AcDbLine
 10
192.1208312730633
 20
241.1278521783569
 30
0.0000000000000000
 11
229.5208312730816
 21
241.1278521783569
 31
0.0000000000000000
  0
LINE
  5
417
100
AcDbEntity
  8
MAIN0
  6
CONTINUOUS
 62
3
100
AcDbLine
 10
192.1208312730634
 20
240.3435540641776
 30
0.0000000000000000
 11
229.5208312730816
 21
240.3435540641718
 31
0.0000000000000000
  0
LINE
  5
418
100
AcDbEntity
  8
MAIN0
  6
CONTINUOUS
 62
3
100
AcDbLine
 10
192.1208312730633
 20
239.4150972098031
 30
0.0000000000000000
 11
229.5208312730816
 21
239.4150972098031
 31
0.0000000000000000
  0
LINE
  5
419
100
AcDbEntity
  8
MAIN0
  6
CONTINUOUS
 62
3
100
AcDbLine
 10
198.3466407619090
 20
227.0628775714903
 30
0.0000000000000000
 11
229.5208312730815
 21
227.0628775714998
 31
0.0000000000000000
  0
LINE
  5
41A
100
AcDbEntity
  8
MAIN0
  6
CONTINUOUS
 62
3
100
AcDbLine
 10
198.5156970375495
 20
226.4359533644490
 30
0.0000000000000000
 11
229.5208312730816
 21
226.4359533644300
 31
0.0000000000000000
  0
LINE
  5
41B
100
AcDbEntity
  8
MAIN0
  6
CONTINUOUS
 62
3
100
AcDbLine
 10
198.7025260064455
 20
225.3154277897447
 30
0.0000000000000000
 11
229.5208312730816
 21
225.3154277897542
 31
0.0000000000000000
  0
LINE
  5
41C
100
AcDbEntity
  8
MAIN0
  6
CONTINUOUS
 62
3
100
AcDbLine
 10
198.7365495097858
 20
224.9780012086594
 30
0.0000000000000000
 11
229.5208312730816
 21
224.9780012086783
 31
0.0000000000000000
  0
LINE
  5
41D
100
AcDbEntity
  8
MAIN0
  6
CONTINUOUS
 62
3
100
AcDbLine
 10
198.7660008920096
 20
222.1974435827325
 30
0.0000000000000000
 11
229.5208312730815
 21
222.1974435827514
 31
0.0000000000000000
  0
LINE
  5
41E
100
AcDbEntity
  8
MAIN0
  6
CONTINUOUS
 62
3
100
AcDbLine
 10
198.7392937527205
 20
221.7038422156510
 30
0.0000000000000000
 11
229.5208312730815
 21
221.7038422156510
 31
0.0000000000000000
  0
LINE
  5
41F
100
AcDbEntity
  8
MAIN0
  6
CONTINUOUS
 62
3
100
AcDbLine
 10
229.9208312730820
 20
176.8729334102339
 30
0.0000000000000000
 11
244.5208312734407
 21
176.8729334103364
 31
0.0000000000000000
  0
LINE
  5
420
100
AcDbEntity
  8
MAIN0
  6
CONTINUOUS
 62
3
100
AcDbLine
 10
234.5208312729267
 20
219.8729334109025
 30
0.0000000000000000
 11
245.3208312729271
 21
219.8729334108880
 31
0.0000000000000000
  0
LINE
  5
421
100
AcDbEntity
  8
MAIN0
  6
CONTINUOUS
 62
3
100
AcDbLine
 10
234.5208312729267
 20
213.8729334109025
 30
0.0000000000000000
 11
234.5208312729267
 21
219.8729334109025
 31
0.0000000000000000
  0
LINE
  5
422
100
AcDbEntity
  8
MAIN0
  6
CONTINUOUS
 62
3
100
AcDbLine
 10
233.4828952953228
 20
219.4729334109108
 30
0.0000000000000000
 11
244.9208312729264
 21
219.4729334108881
 31
0.0000000000000000
  0
LINE
  5
423
100
AcDbEntity
  8
MAIN0
  6
CONTINUOUS
 62
3
100
AcDbLine
 10
233.4191252435784
 20
214.2729334109111
 30
0.0000000000000000
 11
244.9208312729271
 21
214.2729334108883
 31
0.0000000000000000
  0
LINE
  5
424
100
AcDbEntity
  8
MAIN0
  6
CONTINUOUS
 62
3
100
AcDbLine
 10
234.5208312729267
 20
213.8729334109024
 30
0.0000000000000000
 11
245.3208312729265
 21
213.8729334108879
 31
0.0000000000000000
  0
LINE
  5
425
100
AcDbEntity
  8
MAIN0
  6
CONTINUOUS
 62
3
100
AcDbLine
 10
244.9208312729269
 20
214.2729334108886
 30
0.0000000000000000
 11
245.5208312729270
 21
213.6729334108873
 31
0.0000000000000000
  0
LINE
  5
426
100
AcDbEntity
  8
MAIN0
  6
CONTINUOUS
 62
3
100
AcDbLine
 10
244.9208312729255
 20
214.2729334108882
 30
0.0000000000000000
 11
244.9208312729255
 21
214.3729334109432
 31
0.0000000000000000
  0
LINE
  5
427
100
AcDbEntity
  8
MAIN0
  6
CONTINUOUS
 62
3
100
AcDbLine
 10
244.9208312729265
 20
219.4729334108886
 30
0.0000000000000000
 11
245.5208312729266
 21
220.0729334108874
 31
0.0000000000000000
  0
LINE
  5
428
100
AcDbEntity
  8
MAIN0
  6
CONTINUOUS
 62
3
100
AcDbLine
 10
244.9208312729255
 20
219.3729334109432
 30
0.0000000000000000
 11
244.9208312729255
 21
219.4729334108883
 31
0.0000000000000000
  0
LINE
  5
429
100
AcDbEntity
  8
MAIN0
  6
CENTER
 62
3
100
AcDbLine
 10
314.8415218203724
 20
234.9781288030773
 30
0.0000000000000000
 11
384.2748066194971
 21
194.8908031336034
 31
0.0000000000000000
  0
LINE
  5
42A
100
AcDbEntity
  8
MAIN0
  6
CENTER
 62
3
100
AcDbLine
 10
381.3458121618692
 20
237.1640079494525
 30
0.0000000000000000
 11
314.4704290000910
 21
198.5534874788206
 31
0.0000000000000000
  0
ARC
  5
42B
100
AcDbEntity
  8
MAIN0
  6
HIDDEN
 62
3
100
AcDbCircle
 10
321.9519288148068
 20
230.8729334107950
 30
0.0000000000000000
 40
4.750000000000000
100
AcDbArc
 50
43.04692807855449
 51
256.9530719214711
  0
ARC
  5
42C
100
AcDbEntity
  8
MAIN0
  6
CONTINUOUS
 62
3
100
AcDbCircle
 10
321.9519288148068
 20
230.8729334107950
 30
0.0000000000000000
 40
4.750000000000000
100
AcDbArc
 50
256.9530719214711
 51
403.0469280785545
  0
ARC
  5
42D
100
AcDbEntity
  8
MAIN0
  6
CONTINUOUS
 62
3
100
AcDbCircle
 10
321.9519288148068
 20
230.8729334107950
 30
0.0000000000000000
 40
2.750000000000000
100
AcDbArc
 50
263.9694823137493
 51
396.0305176862763
  0
ARC
  5
42E
100
AcDbEntity
  8
MAIN0
  6
HIDDEN
 62
3
100
AcDbCircle
 10
321.9519288148068
 20
230.8729334107950
 30
0.0000000000000000
 40
2.750000000000000
100
AcDbArc
 50
36.03051768627626
 51
263.9694823137493
  0
ARC
  5
42F
100
AcDbEntity
  8
MAIN0
  6
CONTINUOUS
 62
3
100
AcDbCircle
 10
346.2006401207805
 20
188.8729334108005
 30
0.0000000000000000
 40
4.750000000000000
100
AcDbArc
 50
16.95307192147195
 51
163.0469280785539
  0
ARC
  5
430
100
AcDbEntity
  8
MAIN0
  6
HIDDEN
 62
3
100
AcDbCircle
 10
346.2006401207805
 20
188.8729334108005
 30
0.0000000000000000
 40
4.750000000000000
100
AcDbArc
 50
163.0469280785539
 51
376.9530719214720
  0
ARC
  5
431
100
AcDbEntity
  8
MAIN0
  6
HIDDEN
 62
3
100
AcDbCircle
 10
346.2006401207805
 20
188.8729334108005
 30
0.0000000000000000
 40
2.750000000000000
100
AcDbArc
 50
156.0305176862753
 51
383.9694823137508
  0
ARC
  5
432
100
AcDbEntity
  8
MAIN0
  6
CONTINUOUS
 62
3
100
AcDbCircle
 10
346.2006401207805
 20
188.8729334108005
 30
0.0000000000000000
 40
2.750000000000000
100
AcDbArc
 50
23.96948231375075
 51
156.0305176862753
  0
ARC
  5
433
100
AcDbEntity
  8
MAIN0
  6
CONTINUOUS
 62
3
100
AcDbCircle
 10
370.4493514267354
 20
230.8729334108058
 30
0.0000000000000000
 40
4.750000000000000
100
AcDbArc
 50
136.9530719214710
 51
283.0469280785542
  0
ARC
  5
434
100
AcDbEntity
  8
MAIN0
  6
HIDDEN
 62
3
100
AcDbCircle
 10
370.4493514267354
 20
230.8729334108058
 30
0.0000000000000000
 40
4.750000000000000
100
AcDbArc
 50
283.0469280785542
 51
496.9530719214711
  0
ARC
  5
435
100
AcDbEntity
  8
MAIN0
  6
HIDDEN
 62
3
100
AcDbCircle
 10
370.4493514267354
 20
230.8729334108058
 30
0.0000000000000000
 40
2.750000000000000
100
AcDbArc
 50
276.0305176862757
 51
503.9694823137491
  0
ARC
  5
436
100
AcDbEntity
  8
MAIN0
  6
CONTINUOUS
 62
3
100
AcDbCircle
 10
370.4493514267354
 20
230.8729334108058
 30
0.0000000000000000
 40
2.750000000000000
100
AcDbArc
 50
143.9694823137492
 51
276.0305176862757
  0
LINE
  5
437
100
AcDbEntity
  8
MAIN0
  6
CENTER
 62
3
100
AcDbLine
 10
338.3254370753324
 20
230.5131852051790
 30
0.0000000000000000
 11
335.4527424605648
 21
235.4888382325443
 31
0.0000000000000000
  0
CIRCLE
  5
438
100
AcDbEntity
  8
MAIN0
  6
CONTINUOUS
 62
3
100
AcDbCircle
 10
336.9506401206581
 20
232.8944033807459
 30
0.0000000000000000
 40
2.000000000000000
  0
ARC
  5
439
100
AcDbEntity
  8
MAIN0
  6
CENTER
 62
3
100
AcDbCircle
 10
346.2006401207742
 20
216.8729334108005
 30
0.0000000000000000
 40
18.50000000000000
100
AcDbArc
 50
110.7015086948867
 51
128.7580364445145
  0
LINE
  5
43A
100
AcDbEntity
  8
MAIN0
  6
CENTER
 62
3
100
AcDbLine
 10
338.4767290875040
 20
236.4812239016601
 30
0.0000000000000000
 11
335.6476892074550
 21
243.6631600397586
 31
0.0000000000000000
  0
CIRCLE
  5
43B
100
AcDbEntity
  8
MAIN0
  6
CENTER
 62
3
100
AcDbCircle
 10
346.2006401207742
 20
216.8729334108005
 30
0.0000000000000000
 40
25.00000000000000
  0
ARC
  5
43C
100
AcDbEntity
  8
MAIN0
  6
HIDDEN
 62
3
100
AcDbCircle
 10
337.0381094526273
 20
240.1333726103309
 30
0.0000000000000000
 40
2.500000000000000
100
AcDbArc
 50
355.2684412058957
 51
578.2720071562876
  0
ARC
  5
43D
100
AcDbEntity
  8
MAIN0
  6
CONTINUOUS
 62
3
100
AcDbCircle
 10
337.0381094526273
 20
240.1333726103309
 30
0.0000000000000000
 40
2.500000000000000
100
AcDbArc
 50
218.2720071562876
 51
355.2684412058957
  0
ARC
  5
43E
100
AcDbEntity
  8
MAIN0
  6
CONTINUOUS
 62
3
100
AcDbCircle
 10
337.0381094526273
 20
240.1333726103309
 30
0.0000000000000000
 40
2.000000000000000
100
AcDbArc
 50
233.5054548337991
 51
349.4945451664046
  0
ARC
  5
43F
100
AcDbEntity
  8
MAIN0
  6
HIDDEN
 62
3
100
AcDbCircle
 10
337.0381094526273
 20
240.1333726103309
 30
0.0000000000000000
 40
2.000000000000000
100
AcDbArc
 50
349.4945451664046
 51
593.5054548337990
  0
LINE
  5
440
100
AcDbEntity
  8
MAIN0
  6
CONTINUOUS
 62
3
100
AcDbLine
 10
218.8636742034103
 20
111.0899798874696
 30
0.0000000000000000
 11
277.5963515969543
 21
111.0899798874690
 31
0.0000000000000000
  0
MTEXT
  5
441
100
AcDbEntity
  8
MAIN0
  6
CONTINUOUS
 62
3
100
AcDbMText
 10
235.4116756023824
 20
114.6567597310186
 30
0.0000000000000000
 40
3.099999904632568
 41
0.0000000000000000
 71
     1
 72
     1
  1
{\H0.93x;{ベース配管詳細}}
 11
1.000000000000000
 21
0.0000000000000000
 31
0.0000000000000000
  7
KNJYOKO
  0
LINE
  5
442
100
AcDbEntity
  8
MAIN0
  6
CONTINUOUS
 62
3
100
AcDbLine
 10
237.8987683350079
 20
132.1521495235269
 30
0.0000000000000000
 11
237.8987683350082
 21
144.8588176986120
 31
0.0000000000000000
  0
LINE
  5
443
100
AcDbEntity
  8
MAIN0
  6
CENTER
 62
3
100
AcDbLine
 10
236.9146174552506
 20
138.5054836110625
 30
0.0000000000000000
 11
258.7449616544420
 21
138.5054836110614
 31
0.0000000000000000
  0
LINE
  5
444
100
AcDbEntity
  8
MAIN0
  6
CONTINUOUS
 62
3
100
AcDbLine
 10
237.8987683350079
 20
140.0054836110624
 30
0.0000000000000000
 11
246.8987683350079
 21
140.0054836110620
 31
0.0000000000000000
  0
LINE
  5
445
100
AcDbEntity
  8
MAIN0
  6
CONTINUOUS
 62
3
100
AcDbLine
 10
237.8987683350079
 20
137.0054836110624
 30
0.0000000000000000
 11
246.8987683350080
 21
137.0054836110620
 31
0.0000000000000000
  0
LINE
  5
446
100
AcDbEntity
  8
MAIN0
  6
CONTINUOUS
 62
3
100
AcDbLine
 10
247.8987683350078
 20
132.1521495235266
 30
0.0000000000000000
 11
247.8987683350081
 21
144.8588176986117
 31
0.0000000000000000
  0
LINE
  5
447
100
AcDbEntity
  8
MAIN0
  6
CONTINUOUS
 62
3
100
AcDbLine
 10
246.8987683350081
 20
141.8054836110619
 30
0.0000000000000000
 11
247.8987683350081
 21
141.8054836110618
 31
0.0000000000000000
  0
LINE
  5
448
100
AcDbEntity
  8
MAIN0
  6
CONTINUOUS
 62
3
100
AcDbLine
 10
246.8987683350078
 20
135.2054836110619
 30
0.0000000000000000
 11
247.8987683350078
 21
135.2054836110619
 31
0.0000000000000000
  0
LINE
  5
449
100
AcDbEntity
  8
MAIN0
  6
CONTINUOUS
 62
3
100
AcDbLine
 10
246.8987683350081
 20
141.8054836110619
 30
0.0000000000000000
 11
246.8987683350079
 21
135.2054836110619
 31
0.0000000000000000
  0
LINE
  5
44A
100
AcDbEntity
  8
MAIN0
  6
CONTINUOUS
 62
3
100
AcDbLine
 10
237.8987683350081
 20
144.8588176985978
 30
0.0000000000000000
 11
257.8987683350081
 21
144.8588176985963
 31
0.0000000000000000
  0
LINE
  5
44B
100
AcDbEntity
  8
MAIN0
  6
CONTINUOUS
 62
3
100
AcDbLine
 10
237.8987683350078
 20
132.1521495235269
 30
0.0000000000000000
 11
257.8987683350078
 21
132.1521495235264
 31
0.0000000000000000
  0
MTEXT
  5
44C
100
AcDbEntity
  8
MAIN0
  6
CONTINUOUS
 62
3
100
AcDbMText
 10
214.6335552334950
 20
124.7956840456036
 30
0.0000000000000000
 40
3.099999904632568
 41
0.0000000000000000
 71
     1
 72
     1
  1
{\H0.71x;{(お客様にて手配)\P(Customer prepare)}}
 11
1.000000000000000
 21
0.0000000000000000
 31
0.0000000000000000
  7
KNJYOKO
  0
LINE
  5
44D
100
AcDbEntity
  8
MAIN0
  6
CONTINUOUS
 62
3
100
AcDbLine
 10
257.8987683350078
 20
132.1521495235264
 30
0.0000000000000000
 11
257.8987683350081
 21
144.8588176986115
 31
0.0000000000000000
  0
MTEXT
  5
44E
100
AcDbEntity
  8
MAIN0
  6
CONTINUOUS
 62
3
100
AcDbMText
 10
219.9062650507943
 20
110.5087335803136
 30
0.0000000000000000
 40
3.099999904632568
 41
0.0000000000000000
 71
     1
 72
     1
  1
{\H0.71x;{Ditail of direct connecting}}
 11
1.000000000000000
 21
0.0000000000000000
 31
0.0000000000000000
  7
STANDARD
  0
ELLIPSE
  5
44F
100
AcDbEntity
  8
MAIN0
  6
CONTINUOUS
 62
3
100
AcDbEllipse
 10
247.3987683350081
 20
141.0554836110619
 30
0.0000000000000000
 11
0.0000000000000000
 21
0.7500000000000000
 31
0.0000000000000000
210
0.0000000000000000
220
0.0000000000000000
230
1.000000000000000
 40
0.6666666666666666
 41
0.0000000000000000
 42
6.283185307179586
  0
ELLIPSE
  5
450
100
AcDbEntity
  8
MAIN0
  6
CONTINUOUS
 62
3
100
AcDbEllipse
 10
247.3987683350078
 20
135.9554836110619
 30
0.0000000000000000
 11
0.0000000000000000
 21
-0.7500000000000000
 31
0.0000000000000000
210
0.0000000000000000
220
0.0000000000000000
230
1.000000000000000
 40
0.6666666666666666
 41
0.0000000000000000
 42
6.283185307179586
  0
LEADER
  5
451
100
AcDbEntity
  8
MAIN0
  6
CONTINUOUS
 62
3
100
AcDbLeader
  3
MAIN001
 73
     0
 75
     1
 40
3.099999904632568
 41
14.59900000894069
 76
     3
 10
239.3471284424454
 20
133.8087101842198
 30
0.0000000000000000
 10
231.4338595100818
 20
129.3415429452955
 30
0.0000000000000000
 10
229.6468595627425
 20
129.3415429452955
 30
0.0000000000000000
340
452
213
0.0000000000000000
223
-0.5000000000000000
233
0.0000000000000000
1001
ACAD
1000
DSTYLE
1002
{
1070
   147
1040
0.0
1070
    77
1070
     1
1070
   173
1070
     1
1070
     6
1000
_DOT
1070
     7
1000
_DOT
1002
}
  0
MTEXT
  5
452
102
{ACAD_REACTORS
330
451
102
}
100
AcDbEntity
  8
MAIN0
  6
CONTINUOUS
 62
3
100
AcDbMText
 10
215.0478595538018
 20
132.9415428499281
 30
0.0000000000000000
 40
3.099999904632568
 41
0.0000000000000000
 71
     1
 72
     1
  1
{\H0.70x;{アダプタ\PAdaptor}}
 11
1.000000000000000
 21
0.0000000000000000
 31
0.0000000000000000
  7
KNJYOKO
  0
LEADER
  5
453
100
AcDbEntity
  8
MAIN0
  6
CONTINUOUS
 62
3
100
AcDbLeader
  3
MAIN001
 73
     0
 74
     0
 75
     1
 40
3.099999904632568
 41
14.60100000894073
 76
     3
 10
251.1262783970616
 20
134.6473755337551
 30
0.0000000000000000
 10
257.6348930233382
 20
124.1528861300995
 30
0.0000000000000000
 10
259.4198929706775
 20
124.1528861300995
 30
0.0000000000000000
340
454
213
-0.001000000000033197
223
-0.5000000000000000
233
0.0000000000000000
1001
ACAD
1000
DSTYLE
1002
{
1070
   147
1040
0.0
1070
    77
1070
     1
1070
   173
1070
     1
1070
     6
1000
_DOT
1070
     7
1000
_DOT
1002
}
  0
MTEXT
  5
454
102
{ACAD_REACTORS
330
453
102
}
100
AcDbEntity
  8
MAIN0
  6
CONTINUOUS
 62
3
100
AcDbMText
 10
259.4208929706775
 20
127.7528860347321
 30
0.0000000000000000
 40
3.099999904632568
 41
0.0000000000000000
 71
     1
 72
     1
  1
{\H0.70x;{グリッパ\PGripper}}
 11
1.000000000000000
 21
0.0000000000000000
 31
0.0000000000000000
  7
KNJYOKO
  0
LEADER
  5
455
100
AcDbEntity
  8
MAIN0
  6
CONTINUOUS
 62
3
100
AcDbLeader
  3
MAIN001
 73
     0
 74
     0
 75
     1
 40
3.099999904632568
 41
17.10100000894067
 76
     3
 10
247.9345547304847
 20
141.3696972155855
 30
0.0000000000000000
 10
257.4825945838243
 20
151.8713829240355
 30
0.0000000000000000
 10
259.2675945311636
 20
151.8713829240355
 30
0.0000000000000000
340
456
213
0.0000000000000000
223
-0.5000000000000000
233
0.0000000000000000
1001
ACAD
1000
DSTYLE
1002
{
1070
   147
1040
0.0
1070
    77
1070
     1
1070
   173
1070
     1
1070
     6
1000
_OPEN
1070
     7
1000
_OPEN
1002
}
  0
MTEXT
  5
456
102
{ACAD_REACTORS
330
455
102
}
100
AcDbEntity
  8
MAIN0
  6
CONTINUOUS
 62
3
100
AcDbMText
 10
259.2685945311636
 20
155.4713828286681
 30
0.0000000000000000
 40
3.099999904632568
 41
0.0000000000000000
 71
     1
 72
     1
  1
{\H0.70x;{Ｏリング　S4\PO-ring\P}
 11
1.000000000000000
 21
0.0000000000000000
 31
0.0000000000000000
  7
KNJYOKO
  0
DIMENSION
  5
461
100
AcDbEntity
  8
MAIN0
  6
CONTINUOUS
 62
3
100
AcDbDimension
  2
*D41
 10
232.2438736920050
 20
140.0054836110624
 30
0.0000000000000000
 11
231.7438736920050
 21
145.0376511717245
 31
0.0000000000000000
 70
160
  1
\A1;\U+22053
  3
MAIN001
100
AcDbAlignedDimension
 13
237.8987683350079
 23
137.0054836110624
 33
0.0000000000000000
 14
237.8987683350079
 24
140.0054836110624
 34
0.0000000000000000
 50
90.00000000000000
100
AcDbRotatedDimension
1001
ACAD
1000
DSTYLE
1002
{
1070
   173
1070
     1
1070
     6
1000
_OPEN
1070
     7
1000
_OPEN
1070
    41
1040
2.000000
1070
   287
1070
     0
1002
}
  0
DIMENSION
  5
46B
100
AcDbEntity
  8
MAIN0
  6
CONTINUOUS
 62
3
100
AcDbDimension
  2
*D42
 10
224.7045615801646
 20
141.8054836110619
 30
0.0000000000000000
 11
224.2045615801646
 21
146.5108476393007
 31
0.0000000000000000
 70
160
  1
\A1;\U+22056.6
  3
MAIN001
100
AcDbAlignedDimension
 13
246.8987683350079
 23
135.2054836110619
 33
0.0000000000000000
 14
246.8987683350081
 24
141.8054836110619
 34
0.0000000000000000
 50
90.00000000000000
100
AcDbRotatedDimension
1001
ACAD
1000
DSTYLE
1002
{
1070
   173
1070
     1
1070
     6
1000
_OPEN
1070
     7
1000
_OPEN
1070
    41
1040
2.000000
1002
}
  0
DIMENSION
  5
476
100
AcDbEntity
  8
MAIN0
  6
CONTINUOUS
 62
3
100
AcDbDimension
  2
*D43
 10
247.8987683350079
 20
128.8111214917207
 30
0.0000000000000000
 11
244.6399355333067
 21
129.1444548250540
 31
0.0000000000000000
 70
160
  3
MAIN001
100
AcDbAlignedDimension
 13
246.8987683350079
 23
135.2054836110619
 33
0.0000000000000000
 14
247.8987683350078
 24
132.1521495235267
 34
0.0000000000000000
100
AcDbRotatedDimension
1001
ACAD
1000
DSTYLE
1002
{
1070
   173
1070
     1
1070
     6
1000
_OPEN
1070
     7
1000
_OPEN
1070
    41
1040
2.000000
1070
   287
1070
     0
1002
}
  0
INSERT
  5
488
100
AcDbEntity
  8
MAIN0
  6
CONTINUOUS
 62
3
100
AcDbBlockReference
  2
*X0
 10
0.0000000000000000
 20
0.0000000000000000
 30
0.0000000000000000
 50
0.0000000000000000
  0
INSERT
  5
499
100
AcDbEntity
  8
MAIN0
  6
CONTINUOUS
 62
3
100
AcDbBlockReference
  2
*X1
 10
0.0000000000000000
 20
0.0000000000000000
 30
0.0000000000000000
 50
0.0000000000000000
  0
INSERT
  5
4A3
100
AcDbEntity
  8
MAIN0
  6
CONTINUOUS
 62
3
100
AcDbBlockReference
  2
*X2
 10
0.0000000000000000
 20
0.0000000000000000
 30
0.0000000000000000
 50
0.0000000000000000
  0
INSERT
  5
4AD
100
AcDbEntity
  8
MAIN0
  6
CONTINUOUS
 62
3
100
AcDbBlockReference
  2
*X3
 10
0.0000000000000000
 20
0.0000000000000000
 30
0.0000000000000000
 50
0.0000000000000000
  0
LINE
  5
4AE
100
AcDbEntity
  8
MAIN0
  6
HIDDEN
 62
3
100
AcDbLine
 10
343.4506401210264
 20
112.6601449701173
 30
0.0000000000000000
 11
338.8162610871935
 21
112.6601449701173
 31
0.0000000000000000
  0
LINE
  5
4AF
100
AcDbEntity
  8
MAIN0
  6
HIDDEN
 62
3
100
AcDbLine
 10
343.4506401209749
 20
112.2601449701174
 30
0.0000000000000000
 11
343.4506401209749
 21
74.66014497011733
 31
0.0000000000000000
  0
LINE
  5
4B0
100
AcDbEntity
  8
MAIN0
  6
HIDDEN
 62
3
100
AcDbLine
 10
343.0506401209749
 20
112.6601449701174
 30
0.0000000000000000
 11
343.4506401209748
 21
112.2601449701174
 31
0.0000000000000000
  0
LINE
  5
4B1
100
AcDbEntity
  8
MAIN0
  6
HIDDEN
 62
3
100
AcDbLine
 10
354.4634659839401
 20
112.6601449701173
 30
0.0000000000000000
 11
348.9506401210264
 21
112.6601449701173
 31
0.0000000000000000
  0
LINE
  5
4B2
100
AcDbEntity
  8
MAIN0
  6
HIDDEN
 62
3
100
AcDbLine
 10
349.3506401209749
 20
112.6601449701174
 30
0.0000000000000000
 11
348.9506401209749
 21
112.2601449701173
 31
0.0000000000000000
  0
LINE
  5
4B3
100
AcDbEntity
  8
MAIN0
  6
HIDDEN
 62
3
100
AcDbLine
 10
348.9506401209749
 20
112.2601449701174
 30
0.0000000000000000
 11
348.9506401209749
 21
74.66014497011733
 31
0.0000000000000000
  0
LINE
  5
4B4
100
AcDbEntity
  8
MAIN0
  6
HIDDEN
 62
3
100
AcDbLine
 10
343.4506401209748
 20
74.66014497011759
 30
0.0000000000000000
 11
343.0506401209746
 21
74.26014497011752
 31
0.0000000000000000
  0
LINE
  5
4B5
100
AcDbEntity
  8
MAIN0
  6
HIDDEN
 62
3
100
AcDbLine
 10
348.9506401209747
 20
74.66014497011724
 30
0.0000000000000000
 11
349.3506401209748
 21
74.26014497011721
 31
0.0000000000000000
  0
LINE
  5
4B6
100
AcDbEntity
  8
MAIN0
  6
CENTER
 62
3
100
AcDbLine
 10
333.0813179475401
 20
200.3796849939877
 30
0.0000000000000000
 11
328.2760987436137
 21
194.3386965204966
 31
0.0000000000000000
  0
ARC
  5
4B7
100
AcDbEntity
  8
MAIN0
  6
CONTINUOUS
 62
3
100
AcDbCircle
 10
330.6377742048709
 20
197.3077294894660
 30
0.0000000000000000
 40
2.500000000000000
100
AcDbArc
 50
338.2720071562874
 51
475.2684412058940
  0
ARC
  5
4B8
100
AcDbEntity
  8
MAIN0
  6
HIDDEN
 62
3
100
AcDbCircle
 10
330.6377742048709
 20
197.3077294894660
 30
0.0000000000000000
 40
2.500000000000000
100
AcDbArc
 50
115.2684412058940
 51
338.2720071562874
  0
ARC
  5
4B9
100
AcDbEntity
  8
MAIN0
  6
HIDDEN
 62
3
100
AcDbCircle
 10
330.6377742048709
 20
197.3077294894660
 30
0.0000000000000000
 40
2.000000000000000
100
AcDbArc
 50
109.4945451664023
 51
353.5054548338001
  0
ARC
  5
4BA
100
AcDbEntity
  8
MAIN0
  6
CONTINUOUS
 62
3
100
AcDbCircle
 10
330.6377742048709
 20
197.3077294894660
 30
0.0000000000000000
 40
2.000000000000000
100
AcDbArc
 50
353.5054548338001
 51
469.4945451664024
  0
LINE
  5
4BB
100
AcDbEntity
  8
MAIN0
  6
CENTER
 62
3
100
AcDbLine
 10
367.0438733272785
 20
213.7578913367535
 30
0.0000000000000000
 11
374.6781324112539
 21
212.6169436721459
 31
0.0000000000000000
  0
ARC
  5
4BC
100
AcDbEntity
  8
MAIN0
  6
CONTINUOUS
 62
3
100
AcDbCircle
 10
370.9260367048244
 20
213.1776981326044
 30
0.0000000000000000
 40
2.500000000000000
100
AcDbArc
 50
98.27200715628617
 51
235.2684412058942
  0
ARC
  5
4BD
100
AcDbEntity
  8
MAIN0
  6
HIDDEN
 62
3
100
AcDbCircle
 10
370.9260367048244
 20
213.1776981326044
 30
0.0000000000000000
 40
2.500000000000000
100
AcDbArc
 50
235.2684412058942
 51
458.2720071562862
  0
ARC
  5
4BE
100
AcDbEntity
  8
MAIN0
  6
HIDDEN
 62
3
100
AcDbCircle
 10
370.9260367048244
 20
213.1776981326044
 30
0.0000000000000000
 40
2.000000000000000
100
AcDbArc
 50
229.4945451664026
 51
477.1091555836305
  0
ARC
  5
4BF
100
AcDbEntity
  8
MAIN0
  6
CONTINUOUS
 62
3
100
AcDbCircle
 10
370.9260367048244
 20
213.1776981326044
 30
0.0000000000000000
 40
2.000000000000000
100
AcDbArc
 50
113.5054548337988
 51
229.4945451664026
  0
LINE
  5
4C0
100
AcDbEntity
  8
WAKU0
  6
CONTINUOUS
 62
3
100
AcDbLine
 10
240.0000000000000
 20
51.00000000000000
 30
0.0000000000000000
 11
410.0000000000000
 21
51.00000000000000
 31
0.0000000000000000
  0
LINE
  5
4C1
100
AcDbEntity
  8
WAKU0
  6
CONTINUOUS
 62
3
100
AcDbLine
 10
240.0000000000000
 20
51.00000000000000
 30
0.0000000000000000
 11
240.0000000000000
 21
12.00000000000000
 31
0.0000000000000000
  0
LINE
  5
4C2
100
AcDbEntity
  8
WAKU0
  6
CONTINUOUS
 62
3
100
AcDbLine
 10
312.0000000000000
 20
51.00000000000000
 30
0.0000000000000000
 11
312.0000000000000
 21
12.00000000000000
 31
0.0000000000000000
  0
LINE
  5
4C3
100
AcDbEntity
  8
WAKU0
  6
CONTINUOUS
 62
3
100
AcDbLine
 10
332.0000000000000
 20
51.00000000000000
 30
0.0000000000000000
 11
332.0000000000000
 21
12.00000000000000
 31
0.0000000000000000
  0
LINE
  5
4C4
100
AcDbEntity
  8
WAKU0
  6
CONTINUOUS
 62
3
100
AcDbLine
 10
344.0000000000000
 20
51.00000000000000
 30
0.0000000000000000
 11
344.0000000000000
 21
12.00000000000000
 31
0.0000000000000000
  0
LINE
  5
4C5
100
AcDbEntity
  8
WAKU0
  6
CONTINUOUS
 62
3
100
AcDbLine
 10
344.0000000000000
 20
37.00000000000000
 30
0.0000000000000000
 11
410.0000000000000
 21
37.00000000000000
 31
0.0000000000000000
  0
LINE
  5
4C6
100
AcDbEntity
  8
WAKU0
  6
CONTINUOUS
 62
3
100
AcDbLine
 10
332.0000000000000
 20
23.00000000000000
 30
0.0000000000000000
 11
410.0000000000000
 21
23.00000000000000
 31
0.0000000000000000
  0
LINE
  5
4C7
100
AcDbEntity
  8
WAKU0
  6
CONTINUOUS
 62
3
100
AcDbLine
 10
375.0000000000000
 20
51.00000000000000
 30
0.0000000000000000
 11
375.0000000000000
 21
44.00000000000000
 31
0.0000000000000000
  0
LINE
  5
4C8
100
AcDbEntity
  8
WAKU0
  6
CONTINUOUS
 62
3
100
AcDbLine
 10
387.0000000000000
 20
51.00000000000000
 30
0.0000000000000000
 11
387.0000000000000
 21
44.00000000000000
 31
0.0000000000000000
  0
LINE
  5
4C9
100
AcDbEntity
  8
WAKU0
  6
CONTINUOUS
 62
3
100
AcDbLine
 10
312.0000000000000
 20
31.50000000000000
 30
0.0000000000000000
 11
332.0000000000000
 21
31.50000000000000
 31
0.0000000000000000
  0
LINE
  5
4CA
100
AcDbEntity
  8
WAKU0
  6
CONTINUOUS
 62
3
100
AcDbLine
 10
332.0000000000000
 20
44.00000000000000
 30
0.0000000000000000
 11
410.0000000000000
 21
44.00000000000000
 31
0.0000000000000000
  0
LINE
  5
4CB
100
AcDbEntity
  8
WAKU0
  6
CONTINUOUS
 62
3
100
AcDbLine
 10
240.0000000000000
 20
37.00000000000000
 30
0.0000000000000000
 11
312.0000000000000
 21
37.00000000000000
 31
0.0000000000000000
  0
LINE
  5
4CC
100
AcDbEntity
  8
WAKU0
  6
CONTINUOUS
 62
3
100
AcDbLine
 10
240.0000000000000
 20
23.00000000000000
 30
0.0000000000000000
 11
312.0000000000000
 21
23.00000000000000
 31
0.0000000000000000
  0
LINE
  5
4CD
100
AcDbEntity
  8
WAKU0
  6
CONTINUOUS
 62
3
100
AcDbLine
 10
288.0000000000000
 20
37.00000000000000
 30
0.0000000000000000
 11
288.0000000000000
 21
12.00000000000000
 31
0.0000000000000000
  0
LINE
  5
4CE
100
AcDbEntity
  8
WAKU0
  6
CONTINUOUS
 62
3
100
AcDbLine
 10
264.0000000000000
 20
37.00000000000000
 30
0.0000000000000000
 11
264.0000000000000
 21
23.00000000000000
 31
0.0000000000000000
  0
LINE
  5
4CF
100
AcDbEntity
  8
WAKU0
  6
CONTINUOUS
 62
3
100
AcDbLine
 10
300.0000000000000
 20
26.00000000000000
 30
0.0000000000000000
 11
300.0000000000000
 21
23.00000000000000
 31
0.0000000000000000
  0
LINE
  5
4D0
100
AcDbEntity
  8
WAKU0
  6
CONTINUOUS
 62
3
100
AcDbLine
 10
276.0000000000000
 20
26.00000000000000
 30
0.0000000000000000
 11
276.0000000000000
 21
23.00000000000000
 31
0.0000000000000000
  0
LINE
  5
4D1
100
AcDbEntity
  8
WAKU0
  6
CONTINUOUS
 62
3
100
AcDbLine
 10
252.0000000000000
 20
26.00000000000000
 30
0.0000000000000000
 11
252.0000000000000
 21
23.00000000000000
 31
0.0000000000000000
  0
LINE
  5
4D2
100
AcDbEntity
  8
WAKU0
  6
CONTINUOUS
 62
3
100
AcDbLine
 10
258.0000000000000
 20
51.00000000000000
 30
0.0000000000000000
 11
258.0000000000000
 21
37.00000000000000
 31
0.0000000000000000
  0
LINE
  5
4D3
100
AcDbEntity
  8
WAKU0
  6
CONTINUOUS
 62
3
100
AcDbLine
 10
240.0000000000000
 20
45.00000000000000
 30
0.0000000000000000
 11
312.0000000000000
 21
45.00000000000000
 31
0.0000000000000000
  0
LINE
  5
4D4
100
AcDbEntity
  8
WAKU0
  6
HIDDEN
 62
3
100
AcDbLine
 10
360.5000000000000
 20
23.00000000000000
 30
0.0000000000000000
 11
360.5000000000000
 21
12.00000000000000
 31
0.0000000000000000
  0
LINE
  5
4D5
100
AcDbEntity
  8
WAKU0
  6
HIDDEN
 62
3
100
AcDbLine
 10
372.9000000000000
 20
23.00000000000000
 30
0.0000000000000000
 11
372.9000000000000
 21
12.00000000000000
 31
0.0000000000000000
  0
MTEXT
  5
4D6
100
AcDbEntity
  8
WAKU0
  6
CONTINUOUS
 62
3
100
AcDbMText
 10
344.4820000231266
 20
49.04999995231628
 30
0.0000000000000000
 40
3.099999904632568
 41
0.0000000000000000
 71
     1
 72
     1
  1
{\H0.92x;{QGBL06}}
 11
1.000000000000000
 21
0.0000000000000000
 31
0.0000000000000000
  7
STANDARD
  0
MTEXT
  5
4D7
100
AcDbEntity
  8
WAKU0
  6
CONTINUOUS
 62
3
100
AcDbMText
 10
365.3900006115437
 20
43.50000000000000
 30
0.0000000000000000
 40
3.000000000000000
 41
0.0000000000000000
 71
     1
 72
     1
  1
{\H0.93x;{グリッパ\PＧＲＩＰＰＥＲ}}
 11
1.000000000000000
 21
0.0000000000000000
 31
0.0000000000000000
  7
KNJYOKO
  0
MTEXT
  5
4D8
100
AcDbEntity
  8
WAKU0
  6
CONTINUOUS
 62
3
100
AcDbMText
 10
352.3500009067357
 20
34.23333326975504
 30
0.0000000000000000
 40
3.099999904632568
 41
0.0000000000000000
 71
     1
 72
     1
  1
{\H0.70x;{ＱＧＢＬ０６　ガイケイ\PＱＧＢＬ０６　ＯＵＴＳＩＤＥ　ＶＩＥＷ}}
 11
1.000000000000000
 21
0.0000000000000000
 31
0.0000000000000000
  7
KNJYOKO
  0
MTEXT
  5
4D9
100
AcDbEntity
  8
WAKU0
  6
CONTINUOUS
 62
3
100
AcDbMText
 10
318.0049998760223
 20
39.29999995231628
 30
0.0000000000000000
 40
3.099999904632568
 41
0.0000000000000000
 71
     1
 72
     1
  1
{\H0.90x;{1:1}}
 11
1.000000000000000
 21
0.0000000000000000
 31
0.0000000000000000
  7
STANDARD
  0
MTEXT
  5
4DA
100
AcDbEntity
  8
WAKU0
  6
CONTINUOUS
 62
3
100
AcDbMText
 10
374.4000001549721
 20
20.15000009536743
 30
0.0000000000000000
 40
5.300000190734863
 41
0.0000000000000000
 71
     1
 72
     1
  1
{\H0.90x;{6541}}
 11
1.000000000000000
 21
0.0000000000000000
 31
0.0000000000000000
  7
STANDARD
  0
MTEXT
  5
4DB
100
AcDbEntity
  8
WAKU0
  6
CONTINUOUS
 62
3
100
AcDbMText
 10
362.3000000834465
 20
20.15000009536743
 30
0.0000000000000000
 40
5.300000190734863
 41
0.0000000000000000
 71
     1
 72
     1
  1
{\H0.87x;{85}}
 11
1.000000000000000
 21
0.0000000000000000
 31
0.0000000000000000
  7
STANDARD
  0
MTEXT
  5
4DC
100
AcDbEntity
  8
WAKU0
  6
CONTINUOUS
 62
3
100
AcDbMText
 10
345.5000001192093
 20
20.15000009536743
 30
0.0000000000000000
 40
5.300000190734863
 41
0.0000000000000000
 71
     1
 72
     1
  1
{\H0.89x;{61G}}
 11
1.000000000000000
 21
0.0000000000000000
 31
0.0000000000000000
  7
STANDARD
  0
MTEXT
  5
4DD
100
AcDbEntity
  8
WAKU0
  6
CONTINUOUS
 62
3
100
AcDbMText
 10
400.0000000476837
 20
20.15000009536743
 30
0.0000000000000000
 40
5.300000190734863
 41
0.0000000000000000
 71
     1
 72
     1
  1
{\H0.81x;{0}}
 11
1.000000000000000
 21
0.0000000000000000
 31
0.0000000000000000
  7
STANDARD
  0
MTEXT
  5
4DE
100
AcDbEntity
  8
WAKU0
  6
CONTINUOUS
 62
3
100
AcDbMText
 10
400.0000000819564
 20
44.84999990463257
 30
0.0000000000000000
 40
5.300000190734863
 41
0.0000000000000000
 71
     7
 72
     1
  1
{\H0.81x;{ }}
 11
1.000000000000000
 21
0.0000000000000000
 31
0.0000000000000000
  7
STANDARD
  0
MTEXT
  5
4DF
100
AcDbEntity
  8
WAKU0
  6
CONTINUOUS
 62
3
100
AcDbMText
 10
289.3850002884865
 20
33.00000000000000
 30
0.0000000000000000
 40
3.000000000000000
 41
0.0000000000000000
 71
     7
 72
     1
  1
{\H0.93x;{DRAWN BY}}
 11
1.000000000000000
 21
0.0000000000000000
 31
0.0000000000000000
  7
STANDARD
  0
MTEXT
  5
4E0
100
AcDbEntity
  8
WAKU0
  6
CONTINUOUS
 62
3
100
AcDbMText
 10
269.2149997949600
 20
32.95000004768372
 30
0.0000000000000000
 40
3.099999904632568
 41
0.0000000000000000
 71
     7
 72
     1
  1
{\H0.92x;{CHIEF}}
 11
1.000000000000000
 21
0.0000000000000000
 31
0.0000000000000000
  7
STANDARD
  0
MTEXT
  5
4E1
100
AcDbEntity
  8
WAKU0
  6
CONTINUOUS
 62
3
100
AcDbMText
 10
242.4249997138977
 20
32.95000004768372
 30
0.0000000000000000
 40
3.099999904632568
 41
0.0000000000000000
 71
     7
 72
     1
  1
{\H0.92x;{MANAGER}}
 11
1.000000000000000
 21
0.0000000000000000
 31
0.0000000000000000
  7
STANDARD
  0
MTEXT
  5
4E2
100
AcDbEntity
  8
WAKU0
  6
CONTINUOUS
 62
3
100
AcDbMText
 10
241.0850002169609
 20
46.50000000000000
 30
0.0000000000000000
 40
3.000000000000000
 41
0.0000000000000000
 71
     7
 72
     1
  1
{\H0.92x;{CAREER}}
 11
1.000000000000000
 21
0.0000000000000000
 31
0.0000000000000000
  7
STANDARD
  0
MTEXT
  5
4E3
100
AcDbEntity
  8
WAKU0
  6
CONTINUOUS
 62
3
100
AcDbMText
 10
294.6099998354912
 20
18.95000004768372
 30
0.0000000000000000
 40
3.099999904632568
 41
0.0000000000000000
 71
     7
 72
     1
  1
{\H0.91x;{DATE}}
 11
1.000000000000000
 21
0.0000000000000000
 31
0.0000000000000000
  7
STANDARD
  0
MTEXT
  5
4E4
100
AcDbEntity
  8
WAKU0
  6
CONTINUOUS
 62
3
100
AcDbMText
 10
313.9000002145767
 20
26.50000000000000
 30
0.0000000000000000
 40
3.000000000000000
 41
0.0000000000000000
 71
     7
 72
     1
  1
{\H0.63x;{3RD ANGLE}}
 11
1.000000000000000
 21
0.0000000000000000
 31
0.0000000000000000
  7
STANDARD
  0
MTEXT
  5
4E5
100
AcDbEntity
  8
WAKU0
  6
CONTINUOUS
 62
3
100
AcDbMText
 10
315.2149997949600
 20
45.95000004768372
 30
0.0000000000000000
 40
3.099999904632568
 41
0.0000000000000000
 71
     7
 72
     1
  1
{\H0.92x;{SCALE}}
 11
1.000000000000000
 21
0.0000000000000000
 31
0.0000000000000000
  7
STANDARD
  0
MTEXT
  5
4E6
100
AcDbEntity
  8
WAKU0
  6
CONTINUOUS
 62
3
100
AcDbMText
 10
405.7000000476837
 20
46.00000000000000
 30
0.0000000000000000
 40
3.000000000000000
 41
0.0000000000000000
 71
     7
 72
     1
  1
{\H0.63x;{kg}}
 11
1.000000000000000
 21
0.0000000000000000
 31
0.0000000000000000
  7
STANDARD
  0
MTEXT
  5
4E7
100
AcDbEntity
  8
WAKU0
  6
CONTINUOUS
 62
3
100
AcDbMText
 10
375.6000001430512
 20
46.00000000000000
 30
0.0000000000000000
 40
3.000000000000000
 41
0.0000000000000000
 71
     7
 72
     1
  1
{\H0.63x;{WEIGHT}}
 11
1.000000000000000
 21
0.0000000000000000
 31
0.0000000000000000
  7
STANDARD
  0
MTEXT
  5
4E8
100
AcDbEntity
  8
WAKU0
  6
CONTINUOUS
 62
3
100
AcDbMText
 10
334.0049998760223
 20
18.13333336512248
 30
0.0000000000000000
 40
3.099999904632568
 41
0.0000000000000000
 71
     7
 72
     1
  1
{\H0.90x;{DRW\PNO.}}
 11
1.000000000000000
 21
0.0000000000000000
 31
0.0000000000000000
  7
STANDARD
  0
MTEXT
  5
4E9
100
AcDbEntity
  8
WAKU0
  6
CONTINUOUS
 62
3
100
AcDbMText
 10
332.6099998354912
 20
31.95000004768372
 30
0.0000000000000000
 40
3.099999904632568
 41
0.0000000000000000
 71
     7
 72
     1
  1
{\H0.91x;{NAME}}
 11
1.000000000000000
 21
0.0000000000000000
 31
0.0000000000000000
  7
STANDARD
  0
MTEXT
  5
4EA
100
AcDbEntity
  8
WAKU0
  6
CONTINUOUS
 62
3
100
AcDbMText
 10
332.6099998354912
 20
45.95000004768372
 30
0.0000000000000000
 40
3.099999904632568
 41
0.0000000000000000
 71
     7
 72
     1
  1
{\H0.91x;{TYPE}}
 11
1.000000000000000
 21
0.0000000000000000
 31
0.0000000000000000
  7
STANDARD
  0
LINE
  5
4EB
100
AcDbEntity
  8
WAKU0
  6
HIDDEN
 62
3
100
AcDbLine
 10
407.1599564743885
 20
13.84999990463257
 30
0.0000000000000000
 11
396.9400436209789
 21
13.84999990463257
 31
0.0000000000000000
  0
LINE
  5
4EC
100
AcDbEntity
  8
WAKU0
  6
HIDDEN
 62
3
100
AcDbLine
 10
407.1599564743885
 20
13.84999990463250
 30
0.0000000000000000
 11
402.0500000476852
 21
22.70070406014901
 31
0.0000000000000000
  0
LINE
  5
4ED
100
AcDbEntity
  8
WAKU0
  6
HIDDEN
 62
3
100
AcDbLine
 10
402.0500000476852
 20
22.70070406014902
 30
0.0000000000000000
 11
396.9400436209789
 21
13.84999990463248
 31
0.0000000000000000
  0
MTEXT
  5
4EE
100
AcDbEntity
  8
WAKU0
  6
CONTINUOUS
 62
3
100
AcDbMText
 10
247.0000009614873
 20
20.63471521698214
 30
0.0000000000000000
 40
3.140094041824341
 41
0.0000000000000000
 71
     1
 72
     1
  1
{\H0.83x;{Ｋｉｔａｇａｗａ\PＣｏｒｐｏｒａｔｉｏｎ}}
 11
1.000000000000000
 21
0.0000000000000000
 31
0.0000000000000000
  7
KNJYOKO
  0
LINE
  5
4EF
100
AcDbEntity
  8
WAKU0
  6
CONTINUOUS
 62
3
100
AcDbLine
 10
330.4713877753800
 20
15.78041421262812
 30
0.0000000000000000
 11
330.4713877753800
 21
21.78041421262815
 31
0.0000000000000000
  0
LINE
  5
4F0
100
AcDbEntity
  8
WAKU0
  6
CONTINUOUS
 62
3
100
AcDbLine
 10
323.9336941228225
 20
17.28041421262811
 30
0.0000000000000000
 11
323.9336941228225
 21
20.28041421262824
 31
0.0000000000000000
  0
LINE
  5
4F1
100
AcDbEntity
  8
WAKU0
  6
CENTER
 62
12
100
AcDbLine
 10
313.4321805514995
 20
18.78041421262813
 30
0.0000000000000000
 11
331.2765788964694
 21
18.78041421262813
 31
0.0000000000000000
  0
LINE
  5
4F2
100
AcDbEntity
  8
WAKU0
  6
CENTER
 62
12
100
AcDbLine
 10
317.4474565857986
 20
14.55921662918448
 30
0.0000000000000000
 11
317.4474565857986
 21
22.89865102149943
 31
0.0000000000000000
  0
LINE
  5
4F3
100
AcDbEntity
  8
WAKU0
  6
CONTINUOUS
 62
3
100
AcDbLine
 10
323.9336941228225
 20
20.28041421262797
 30
0.0000000000000000
 11
330.4713877753800
 21
21.78041421262795
 31
0.0000000000000000
  0
LINE
  5
4F4
100
AcDbEntity
  8
WAKU0
  6
CONTINUOUS
 62
3
100
AcDbLine
 10
323.9336941228225
 20
17.28041421262811
 30
0.0000000000000000
 11
330.4713877753799
 21
15.78041421262812
 31
0.0000000000000000
  0
CIRCLE
  5
4F5
100
AcDbEntity
  8
WAKU0
  6
CONTINUOUS
 62
3
100
AcDbCircle
 10
317.4474565857986
 20
18.78041421262813
 30
0.0000000000000000
 40
1.499999999999972
  0
CIRCLE
  5
4F6
100
AcDbEntity
  8
WAKU0
  6
CONTINUOUS
 62
3
100
AcDbCircle
 10
317.4474565857986
 20
18.78041421262813
 30
0.0000000000000000
 40
2.999999999999979
  0
ENDSEC
  0
SECTION
  2
OBJECTS
  0
DICTIONARY
  5
553
100
AcDbDictionary
  3
ACAD_GROUP
350
554
  3
ACAD_MLINESTYLE
350
555
  0
DICTIONARY
  5
554
102
{ACAD_REACTORS
330
553
102
}
100
AcDbDictionary
  0
DICTIONARY
  5
555
102
{ACAD_REACTORS
330
553
102
}
100
AcDbDictionary
  3
STANDARD
350
556
  0
MLINESTYLE
  5
556
102
{ACAD_REACTORS
330
555
102
}
100
AcDbMlineStyle
  2
STANDARD
 70
     0
  3

 62
   256
 51
90.00
 52
90.00
 71
     2
 49
0.50
 62
   256
  6
BYLAYER
 49
-0.50
 62
   256
  6
BYLAYER
  0
ENDSEC
  0
EOF
