  0
SECTION
  2
HEADER
  9
$ACADVER
  1
AC1014
  9
$DWGCODEPAGE
  3
ANSI_932
  9
$LTSCALE
 40
20.0
  9
$FILLMODE
 70
     1
  9
$CLAYER
  8
0
  9
$PDMODE
 70
     0
  9
$SPLFRAME
 70
     0
  9
$SPLINETYPE
 70
     6
  9
$SPLINESEGS
 70
     8
  9
$DIMASZ
 40
2.000000
  9
$DIMEXE
 40
2.000000
  9
$DIMEXO
 40
0.800000
  9
$DIMTAD
 70
     1
  9
$DIMTIH
 70
     0
  9
$DIMTOH
 70
     0
  9
$DIMTVP
 40
0.500000
  9
$DIMTXT
 40
3.100000
  9
$EXTMIN
 10
0.000000
 20
0.000000
 30
0.000000
  9
$EXTMAX
 10
297.000000
 20
420.000000
 30
0.000000
  9
$MEASUREMENT
 70
  1
  9
$LIMMIN
 10
0.000000
 20
0.000000
  9
$LIMMAX
 10
297.000000
 20
420.000000
  9
$HANDLING
 70
     1
  9
$HANDSEED
  5
3CB
  9
$DIMBLK
  1
_OPEN
  9
$DIMDEC
 70
     3
  9
$DIMAUNIT
 70
     1
  9
$DIMZIN
 70
     8
  9
$DIMTOFL
 70
     1
  0
ENDSEC
  0
SECTION
  2
CLASSES
  0
ENDSEC
  0
SECTION
  2
TABLES
  0
TABLE
  2
VPORT
  5
390
100
AcDbSymbolTable
 70
     1
  0
VPORT
  5
391
100
AcDbSymbolTableRecord
100
AcDbViewportTableRecord
  2
*ACTIVE
 70
     0
 12
210.120582
 22
148.500000
 40
297.000000
 41
1.414953
  0
ENDTAB
  0
TABLE
  2
LTYPE
  5
392
100
AcDbSymbolTable
 70
     3
  0
LTYPE
  5
393
100
AcDbSymbolTableRecord
100
AcDbLinetypeTableRecord
  2
BYBLOCK
 70
     0
  3

 72
    65
 73
     0
 40
0.0
  0
LTYPE
  5
394
100
AcDbSymbolTableRecord
100
AcDbLinetypeTableRecord
  2
BYLAYER
 70
     0
  3

 72
    65
 73
     0
 40
0.0
  0
LTYPE
  5
395
100
AcDbSymbolTableRecord
100
AcDbLinetypeTableRecord
  2
CONTINUOUS
 70
     0
  3
Solid line (NEC CAE2D for Win R14.2 : 2022.02.25)
 72
    65
 73
     0
 40
0.0
  0
LTYPE
  5
396
100
AcDbSymbolTableRecord
100
AcDbLinetypeTableRecord
  2
HIDDEN
 70
     0
  3
__ __ __ __ __ __ __ __ __ __ __ __ __ __
 72
    65
 73
     2
 40
0.375
 49
0.25
 74
     0
 49
-0.125
 74
     0
  0
LTYPE
  5
397
100
AcDbSymbolTableRecord
100
AcDbLinetypeTableRecord
  2
CENTER
 70
     0
  3
____ _ ____ _ ____ _ ____ _ ____ _ ____
 72
    65
 73
     4
 40
2.0
 49
1.25
 74
     0
 49
-0.25
 74
     0
 49
0.25
 74
     0
 49
-0.25
 74
     0
  0
ENDTAB
  0
TABLE
  2
LAYER
  5
398
100
AcDbSymbolTable
 70
     8
  0
LAYER
  5
399
100
AcDbSymbolTableRecord
100
AcDbLayerTableRecord
  2
0
 70
     0
 62
     7
  6
CONTINUOUS
  0
LAYER
  5
39A
100
AcDbSymbolTableRecord
100
AcDbLayerTableRecord
  2
MAIN0
 70
     0
 62
     7
  6
CONTINUOUS
  0
LAYER
  5
39B
100
AcDbSymbolTableRecord
100
AcDbLayerTableRecord
  2
MAIN1
 70
     0
 62
     7
  6
CONTINUOUS
  0
LAYER
  5
39C
100
AcDbSymbolTableRecord
100
AcDbLayerTableRecord
  2
MAIN1023
 70
     0
 62
    16
  6
CONTINUOUS
  0
LAYER
  5
39D
100
AcDbSymbolTableRecord
100
AcDbLayerTableRecord
  2
WAKU0
 70
     0
 62
     7
  6
CONTINUOUS
  0
LAYER
  5
39E
100
AcDbSymbolTableRecord
100
AcDbLayerTableRecord
  2
WAKU1023
 70
     0
 62
    16
  6
CONTINUOUS
  0
LAYER
  5
39F
100
AcDbSymbolTableRecord
100
AcDbLayerTableRecord
  2
MDF0
 70
     0
 62
     7
  6
CONTINUOUS
  0
LAYER
  5
3A0
100
AcDbSymbolTableRecord
100
AcDbLayerTableRecord
  2
MDF1023
 70
     0
 62
    16
  6
CONTINUOUS
  0
ENDTAB
  0
TABLE
  2
STYLE
  5
3A1
100
AcDbSymbolTable
 70
     4
  0
STYLE
  5
3A2
100
AcDbSymbolTableRecord
100
AcDbTextStyleTableRecord
  2
STANDARD
 70
    64
 40
0.0
 41
1.0
 50
0.0
 71
     0
 42
3.140094041824341
  3
TXT
  4

  0
STYLE
  5
3A3
100
AcDbSymbolTableRecord
100
AcDbTextStyleTableRecord
  2
ANKTATE
 70
    68
 40
0.0
 41
1.0
 50
0.0
 71
     0
 42
3.140094041824341
  3
TXT
  4

  0
STYLE
  5
6E
100
AcDbSymbolTableRecord
100
AcDbTextStyleTableRecord
  2
KNJYOKO
 70
    64
 40
0.0
 41
1.0
 50
0.0
 71
     0
 42
3.140094041824341
  3
TXT
  4
BIGFONT
  0
STYLE
  5
3A4
100
AcDbSymbolTableRecord
100
AcDbTextStyleTableRecord
  2
KNJTATE
 70
    68
 40
0.0
 41
1.0
 50
0.0
 71
     0
 42
3.140094041824341
  3
TXT
  4
BIGFONT
  0
ENDTAB
  0
TABLE
  2
VIEW
  5
3A5
100
AcDbSymbolTable
 70
     0
  0
ENDTAB
  0
TABLE
  2
UCS
  5
3A6
100
AcDbSymbolTable
 70
     0
  0
ENDTAB
  0
TABLE
  2
APPID
  5
3A7
100
AcDbSymbolTable
 70
     1
  0
APPID
  5
3A8
100
AcDbSymbolTableRecord
100
AcDbRegAppTableRecord
  2
ACAD
 70
     0
  0
ENDTAB
  0
TABLE
  2
DIMSTYLE
  5
3A9
100
AcDbSymbolTable
 70
     1
  0
DIMSTYLE
105
3AA
100
AcDbSymbolTableRecord
100
AcDbDimStyleTableRecord
  2
STANDARD
 70
     0
 41
2.000000
 44
2.000000
 42
0.800000
145
0.661290
140
3.100000
144
1.000000
146
0.903226
340
3A2
  0
DIMSTYLE
105
3AB
100
AcDbSymbolTableRecord
100
AcDbDimStyleTableRecord
  2
MAIN001
 70
     0
 41
2.000000
 44
2.000000
 42
0.800000
145
0.661290
140
3.100000
144
1.000000
146
0.903226
 77
     1
 73
     0
 74
     0
271
     3
275
     1
 78
     8
172
     1
340
3A2
  0
DIMSTYLE
105
3AC
100
AcDbSymbolTableRecord
100
AcDbDimStyleTableRecord
  2
WAKU002
 70
     0
 41
2.000000
 44
2.000000
 42
0.800000
145
0.661290
140
3.100000
144
1.000000
146
0.903226
 77
     1
 73
     0
 74
     0
271
     3
275
     1
 78
     8
172
     1
340
3A2
  0
DIMSTYLE
105
3AD
100
AcDbSymbolTableRecord
100
AcDbDimStyleTableRecord
  2
MDF003
 70
     0
 41
2.000000
 44
2.000000
 42
0.800000
145
0.661290
140
3.100000
144
1.000000
146
0.903226
 77
     1
 73
     0
 74
     0
271
     3
275
     1
 78
     8
172
     1
340
3A2
  0
ENDTAB
  0
TABLE
  2
BLOCK_RECORD
  5
3AE
100
AcDbSymbolTable
 70
    30
  0
BLOCK_RECORD
  5
3AF
100
AcDbSymbolTableRecord
100
AcDbBlockTableRecord
  2
*MODEL_SPACE
  0
BLOCK_RECORD
  5
3B0
100
AcDbSymbolTableRecord
100
AcDbBlockTableRecord
  2
*PAPER_SPACE
  0
BLOCK_RECORD
  5
1
100
AcDbSymbolTableRecord
100
AcDbBlockTableRecord
  2
_NONE
  0
BLOCK_RECORD
  5
4
100
AcDbSymbolTableRecord
100
AcDbBlockTableRecord
  2
_CLOSED
  0
BLOCK_RECORD
  5
B
100
AcDbSymbolTableRecord
100
AcDbBlockTableRecord
  2
_DOT
  0
BLOCK_RECORD
  5
13
100
AcDbSymbolTableRecord
100
AcDbBlockTableRecord
  2
_OPEN
  0
BLOCK_RECORD
  5
19
100
AcDbSymbolTableRecord
100
AcDbBlockTableRecord
  2
_ORIGIN
  0
BLOCK_RECORD
  5
1E
100
AcDbSymbolTableRecord
100
AcDbBlockTableRecord
  2
_OPEN30
  0
BLOCK_RECORD
  5
24
100
AcDbSymbolTableRecord
100
AcDbBlockTableRecord
  2
_BOXFILLED
  0
BLOCK_RECORD
  5
29
100
AcDbSymbolTableRecord
100
AcDbBlockTableRecord
  2
_BOXBLANK
  0
BLOCK_RECORD
  5
31
100
AcDbSymbolTableRecord
100
AcDbBlockTableRecord
  2
_OBLIQUE
  0
BLOCK_RECORD
  5
35
100
AcDbSymbolTableRecord
100
AcDbBlockTableRecord
  2
_OPEN90
  0
BLOCK_RECORD
  5
3B
100
AcDbSymbolTableRecord
100
AcDbBlockTableRecord
  2
_CLOSEDBLANK
  0
BLOCK_RECORD
  5
41
100
AcDbSymbolTableRecord
100
AcDbBlockTableRecord
  2
_DOTBLANK
  0
BLOCK_RECORD
  5
3B1
100
AcDbSymbolTableRecord
100
AcDbBlockTableRecord
  2
*D0
  0
BLOCK_RECORD
  5
3B2
100
AcDbSymbolTableRecord
100
AcDbBlockTableRecord
  2
D1
  0
BLOCK_RECORD
  5
3B3
100
AcDbSymbolTableRecord
100
AcDbBlockTableRecord
  2
D2
  0
BLOCK_RECORD
  5
3B4
100
AcDbSymbolTableRecord
100
AcDbBlockTableRecord
  2
D3
  0
BLOCK_RECORD
  5
3B5
100
AcDbSymbolTableRecord
100
AcDbBlockTableRecord
  2
*D4
  0
BLOCK_RECORD
  5
3B6
100
AcDbSymbolTableRecord
100
AcDbBlockTableRecord
  2
*D5
  0
BLOCK_RECORD
  5
3B7
100
AcDbSymbolTableRecord
100
AcDbBlockTableRecord
  2
*D6
  0
BLOCK_RECORD
  5
3B8
100
AcDbSymbolTableRecord
100
AcDbBlockTableRecord
  2
*D7
  0
BLOCK_RECORD
  5
3B9
100
AcDbSymbolTableRecord
100
AcDbBlockTableRecord
  2
*D8
  0
BLOCK_RECORD
  5
3BA
100
AcDbSymbolTableRecord
100
AcDbBlockTableRecord
  2
*D9
  0
BLOCK_RECORD
  5
3BB
100
AcDbSymbolTableRecord
100
AcDbBlockTableRecord
  2
*D10
  0
BLOCK_RECORD
  5
3BC
100
AcDbSymbolTableRecord
100
AcDbBlockTableRecord
  2
*D11
  0
BLOCK_RECORD
  5
3BD
100
AcDbSymbolTableRecord
100
AcDbBlockTableRecord
  2
*D12
  0
BLOCK_RECORD
  5
3BE
100
AcDbSymbolTableRecord
100
AcDbBlockTableRecord
  2
*D13
  0
BLOCK_RECORD
  5
3BF
100
AcDbSymbolTableRecord
100
AcDbBlockTableRecord
  2
*D14
  0
BLOCK_RECORD
  5
3C0
100
AcDbSymbolTableRecord
100
AcDbBlockTableRecord
  2
*D15
  0
BLOCK_RECORD
  5
3C1
100
AcDbSymbolTableRecord
100
AcDbBlockTableRecord
  2
*D16
  0
BLOCK_RECORD
  5
3C2
100
AcDbSymbolTableRecord
100
AcDbBlockTableRecord
  2
*D17
  0
ENDTAB
  0
ENDSEC
  0
SECTION
  2
BLOCKS
  0
BLOCK
  5
3C3
100
AcDbEntity
  8
0
100
AcDbBlockBegin
  2
*MODEL_SPACE
 70
     0
 10
0.0
 20
0.0
 30
0.0
  3
*MODEL_SPACE
  1

  0
ENDBLK
  5
3C4
100
AcDbEntity
  8
0
100
AcDbBlockEnd
  0
BLOCK
  5
3C5
100
AcDbEntity
  8
0
100
AcDbBlockBegin
  2
*PAPER_SPACE
 70
     0
 10
0.0
 20
0.0
 30
0.0
  3
*PAPER_SPACE
  1

  0
ENDBLK
  5
3C6
100
AcDbEntity
  8
0
100
AcDbBlockEnd
  0
BLOCK
  5
2
100
AcDbEntity
  8
0
100
AcDbBlockBegin
  2
_NONE
 70
     0
 10
0.0
 20
0.0
 30
0.0
  3
_NONE
  1

  0
ENDBLK
  5
3
100
AcDbEntity
  8
0
100
AcDbBlockEnd
  0
BLOCK
  5
5
100
AcDbEntity
  8
0
100
AcDbBlockBegin
  2
_CLOSED
 70
     0
 10
0.0
 20
0.0
 30
0.0
  3
_CLOSED
  1

  0
LINE
  5
6
100
AcDbEntity
  8
0
  6
BYBLOCK
 62
     0
100
AcDbLine
 10
-1.0
 20
0.166667
 30
0.0
 11
0.0
 21
0.0
 31
0.0
  0
LINE
  5
7
100
AcDbEntity
  8
0
  6
BYBLOCK
 62
     0
100
AcDbLine
 10
0.0
 20
0.0
 30
0.0
 11
-1.0
 21
-0.166667
 31
0.0
  0
LINE
  5
8
100
AcDbEntity
  8
0
  6
BYBLOCK
 62
     0
100
AcDbLine
 10
-1.0
 20
0.166667
 30
0.0
 11
-1.0
 21
-0.166667
 31
0.0
  0
LINE
  5
9
100
AcDbEntity
  8
0
  6
BYBLOCK
 62
     0
100
AcDbLine
 10
0.0
 20
0.0
 30
0.0
 11
-1.0
 21
0.0
 31
0.0
  0
ENDBLK
  5
A
100
AcDbEntity
  8
0
100
AcDbBlockEnd
  0
BLOCK
  5
C
100
AcDbEntity
  8
0
100
AcDbBlockBegin
  2
_DOT
 70
     0
 10
0.0
 20
0.0
 30
0.0
  3
_DOT
  1

  0
POLYLINE
  5
D
100
AcDbEntity
  8
0
  6
BYBLOCK
 62
     0
100
AcDb2dPolyline
 66
     1
 10
0.0
 20
0.0
 30
0.0
 70
     1
 40
0.5
 41
0.5
  0
VERTEX
  5
E
100
AcDbEntity
  8
0
  6
BYBLOCK
 62
     0
100
AcDbVertex
100
AcDb2dVertex
 10
-0.25
 20
0.0
 30
0.0
 42
1.0
  0
VERTEX
  5
F
100
AcDbEntity
  8
0
  6
BYBLOCK
 62
     0
100
AcDbVertex
100
AcDb2dVertex
 10
0.25
 20
0.0
 30
0.0
 42
1.0
  0
SEQEND
  5
10
100
AcDbEntity
  8
0
  6
BYBLOCK
 62
     0
  0
LINE
  5
11
100
AcDbEntity
  8
0
  6
BYBLOCK
 62
     0
100
AcDbLine
 10
-0.5
 20
0.0
 30
0.0
 11
-1.0
 21
0.0
 31
0.0
  0
ENDBLK
  5
12
100
AcDbEntity
  8
0
100
AcDbBlockEnd
  0
BLOCK
  5
14
100
AcDbEntity
  8
0
100
AcDbBlockBegin
  2
_OPEN
 70
     0
 10
0.0
 20
0.0
 30
0.0
  3
_OPEN
  1

  0
LINE
  5
15
100
AcDbEntity
  8
0
  6
BYBLOCK
 62
     0
100
AcDbLine
 10
-1.0
 20
0.166667
 30
0.0
 11
0.0
 21
0.0
 31
0.0
  0
LINE
  5
16
100
AcDbEntity
  8
0
  6
BYBLOCK
 62
     0
100
AcDbLine
 10
0.0
 20
0.0
 30
0.0
 11
-1.0
 21
-0.166667
 31
0.0
  0
LINE
  5
17
100
AcDbEntity
  8
0
  6
BYBLOCK
 62
     0
100
AcDbLine
 10
0.0
 20
0.0
 30
0.0
 11
-1.0
 21
0.0
 31
0.0
  0
ENDBLK
  5
18
100
AcDbEntity
  8
0
100
AcDbBlockEnd
  0
BLOCK
  5
1A
100
AcDbEntity
  8
0
100
AcDbBlockBegin
  2
_ORIGIN
 70
     0
 10
0.0
 20
0.0
 30
0.0
  3
_ORIGIN
  1

  0
CIRCLE
  5
1B
100
AcDbEntity
  8
0
  6
BYBLOCK
 62
     0
100
AcDbCircle
 10
0.0
 20
0.0
 30
0.0
 40
0.5
  0
LINE
  5
1C
100
AcDbEntity
  8
0
  6
BYBLOCK
 62
     0
100
AcDbLine
 10
0.0
 20
0.0
 30
0.0
 11
-1.0
 21
0.0
 31
0.0
  0
ENDBLK
  5
1D
100
AcDbEntity
  8
0
100
AcDbBlockEnd
  0
BLOCK
  5
1F
100
AcDbEntity
  8
0
100
AcDbBlockBegin
  2
_OPEN30
 70
     0
 10
0.0
 20
0.0
 30
0.0
  3
_OPEN30
  1

  0
LINE
  5
20
100
AcDbEntity
  8
0
  6
BYBLOCK
 62
     0
100
AcDbLine
 10
-1.0
 20
0.267949
 30
0.0
 11
0.0
 21
0.0
 31
0.0
  0
LINE
  5
21
100
AcDbEntity
  8
0
  6
BYBLOCK
 62
     0
100
AcDbLine
 10
0.0
 20
0.0
 30
0.0
 11
-1.0
 21
-0.267949
 31
0.0
  0
LINE
  5
22
100
AcDbEntity
  8
0
  6
BYBLOCK
 62
     0
100
AcDbLine
 10
0.0
 20
0.0
 30
0.0
 11
-1.0
 21
0.0
 31
0.0
  0
ENDBLK
  5
23
100
AcDbEntity
  8
0
100
AcDbBlockEnd
  0
BLOCK
  5
25
100
AcDbEntity
  8
0
100
AcDbBlockBegin
  2
_BOXFILLED
 70
     0
 10
0.0
 20
0.0
 30
0.0
  3
_BOXFILLED
  1

  0
SOLID
  5
26
100
AcDbEntity
  8
0
  6
BYBLOCK
 62
     0
100
AcDbTrace
 10
-0.5
 20
0.5
 30
0.0
 11
0.5
 21
0.5
 31
0.0
 12
-0.5
 22
-0.5
 32
0.0
 13
0.5
 23
-0.5
 33
0.0
  0
LINE
  5
27
100
AcDbEntity
  8
0
  6
BYBLOCK
 62
     0
100
AcDbLine
 10
-0.5
 20
0.0
 30
0.0
 11
-1.0
 21
0.0
 31
0.0
  0
ENDBLK
  5
28
100
AcDbEntity
  8
0
100
AcDbBlockEnd
  0
BLOCK
  5
2A
100
AcDbEntity
  8
0
100
AcDbBlockBegin
  2
_BOXBLANK
 70
     0
 10
0.0
 20
0.0
 30
0.0
  3
_BOXBLANK
  1

  0
LINE
  5
2B
100
AcDbEntity
  8
0
  6
BYBLOCK
 62
     0
100
AcDbLine
 10
-0.5
 20
-0.5
 30
0.0
 11
0.5
 21
-0.5
 31
0.0
  0
LINE
  5
2C
100
AcDbEntity
  8
0
  6
BYBLOCK
 62
     0
100
AcDbLine
 10
0.5
 20
-0.5
 30
0.0
 11
0.5
 21
0.5
 31
0.0
  0
LINE
  5
2D
100
AcDbEntity
  8
0
  6
BYBLOCK
 62
     0
100
AcDbLine
 10
0.5
 20
0.5
 30
0.0
 11
-0.5
 21
0.5
 31
0.0
  0
LINE
  5
2E
100
AcDbEntity
  8
0
  6
BYBLOCK
 62
     0
100
AcDbLine
 10
-0.5
 20
0.5
 30
0.0
 11
-0.5
 21
-0.5
 31
0.0
  0
LINE
  5
2F
100
AcDbEntity
  8
0
  6
BYBLOCK
 62
     0
100
AcDbLine
 10
-0.5
 20
0.0
 30
0.0
 11
-1.0
 21
0.0
 31
0.0
  0
ENDBLK
  5
30
100
AcDbEntity
  8
0
100
AcDbBlockEnd
  0
BLOCK
  5
32
100
AcDbEntity
  8
0
100
AcDbBlockBegin
  2
_OBLIQUE
 70
     0
 10
0.0
 20
0.0
 30
0.0
  3
_OBLIQUE
  1

  0
LINE
  5
33
100
AcDbEntity
  8
0
  6
BYBLOCK
 62
     0
100
AcDbLine
 10
-0.5
 20
-0.5
 30
0.0
 11
0.5
 21
0.5
 31
0.0
  0
ENDBLK
  5
34
100
AcDbEntity
  8
0
100
AcDbBlockEnd
  0
BLOCK
  5
36
100
AcDbEntity
  8
0
100
AcDbBlockBegin
  2
_OPEN90
 70
     0
 10
0.0
 20
0.0
 30
0.0
  3
_OPEN90
  1

  0
LINE
  5
37
100
AcDbEntity
  8
0
  6
BYBLOCK
 62
     0
100
AcDbLine
 10
-0.5
 20
0.5
 30
0.0
 11
0.0
 21
0.0
 31
0.0
  0
LINE
  5
38
100
AcDbEntity
  8
0
  6
BYBLOCK
 62
     0
100
AcDbLine
 10
0.0
 20
0.0
 30
0.0
 11
-0.5
 21
-0.5
 31
0.0
  0
LINE
  5
39
100
AcDbEntity
  8
0
  6
BYBLOCK
 62
     0
100
AcDbLine
 10
0.0
 20
0.0
 30
0.0
 11
-1.0
 21
0.0
 31
0.0
  0
ENDBLK
  5
3A
100
AcDbEntity
  8
0
100
AcDbBlockEnd
  0
BLOCK
  5
3C
100
AcDbEntity
  8
0
100
AcDbBlockBegin
  2
_CLOSEDBLANK
 70
     0
 10
0.0
 20
0.0
 30
0.0
  3
_CLOSEDBLANK
  1

  0
LINE
  5
3D
100
AcDbEntity
  8
0
  6
BYBLOCK
 62
     0
100
AcDbLine
 10
-1.0
 20
0.1666666666666666
 30
0.0
 11
0.0
 21
0.0
 31
0.0
  0
LINE
  5
3E
100
AcDbEntity
  8
0
  6
BYBLOCK
 62
     0
100
AcDbLine
 10
0.0
 20
0.0
 30
0.0
 11
-1.0
 21
-0.1666666666666666
 31
0.0
  0
LINE
  5
3F
100
AcDbEntity
  8
0
  6
BYBLOCK
 62
     0
100
AcDbLine
 10
-1.0
 20
0.1666666666666666
 30
0.0
 11
-1.0
 21
-0.1666666666666666
 31
0.0
  0
ENDBLK
  5
40
100
AcDbEntity
  8
0
100
AcDbBlockEnd
  0
BLOCK
  5
42
100
AcDbEntity
  8
0
100
AcDbBlockBegin
  2
_DOTBLANK
 70
     0
 10
0.0
 20
0.0
 30
0.0
  3
_DOTBLANK
  1

  0
CIRCLE
  5
43
100
AcDbEntity
  8
0
  6
BYBLOCK
 62
     0
100
AcDbCircle
 10
0.0
 20
0.0
 30
0.0
 40
0.5
  0
LINE
  5
44
100
AcDbEntity
  8
0
  6
BYBLOCK
 62
     0
100
AcDbLine
 10
-0.5
 20
0.0
 30
0.0
 11
-1.0
 21
0.0
 31
0.0
  0
ENDBLK
  5
45
100
AcDbEntity
  8
0
100
AcDbBlockEnd
  0
BLOCK
  5
65
100
AcDbEntity
  8
MAIN0
  6
CONTINUOUS
 62
3
100
AcDbBlockBegin
  2
*D0
 70
    65
 10
0.0
 20
0.0
 30
0.0
  0
LINE
  5
66
100
AcDbEntity
  8
MAIN0
  6
BYBLOCK
 62
0
100
AcDbLine
 10
175.4235669009512
 20
202.1174999413562
 30
0.0000000000000000
 11
165.3379262667722
 21
202.1174999413562
 31
0.0000000000000000
  0
LINE
  5
67
100
AcDbEntity
  8
MAIN0
  6
BYBLOCK
 62
0
100
AcDbLine
 10
167.3379262667722
 20
200.1174999413562
 30
0.0000000000000000
 11
167.3379262667722
 21
177.1174999413562
 31
0.0000000000000000
  0
INSERT
  5
68
100
AcDbEntity
  8
MAIN0
  6
BYBLOCK
 62
0
100
AcDbBlockReference
  2
_OPEN
 10
167.3379262667722
 20
202.1174999413562
 30
0.0000000000000000
 41
2.000000000000000
 42
2.000000000000000
 43
2.000000000000000
 50
90.00000000000000
  0
INSERT
  5
69
100
AcDbEntity
  8
MAIN0
  6
BYBLOCK
 62
0
100
AcDbBlockReference
  2
_OPEN
 10
167.3379262667722
 20
175.1174999413562
 30
0.0000000000000000
 41
2.000000000000000
 42
2.000000000000000
 43
2.000000000000000
 50
270.0000000000000
  0
LINE
  5
6A
100
AcDbEntity
  8
MAIN0
  6
BYBLOCK
 62
0
100
AcDbLine
 10
175.4235669009512
 20
175.1174999413562
 30
0.0000000000000000
 11
165.3379262667722
 21
175.1174999413562
 31
0.0000000000000000
  0
MTEXT
  5
6B
100
AcDbEntity
  8
MAIN0
  6
BYBLOCK
 62
0
100
AcDbMText
 10
165.2879263144559
 20
188.6175000177246
 30
0.0000000000000000
 40
3.099999904632568
 41
0.0000000000000000
 71
     5
 72
     1
  1
\A1;\U+220527h7\H0.903226x;\S　0^ －0.021;
 11
6.123233995736766e-017
 21
1.000000000000000
 31
0.0000000000000000
  7
KNJYOKO
  0
ENDBLK
  5
6C
100
AcDbEntity
  8
MAIN0
  6
CONTINUOUS
 62
3
100
AcDbBlockEnd
  0
BLOCK
  5
6F
100
AcDbEntity
  8
MAIN0
  6
CONTINUOUS
 62
3
100
AcDbBlockBegin
  2
D1
 70
    64
 10
0.0
 20
0.0
 30
0.0
  0
LINE
  5
70
100
AcDbEntity
  8
MAIN0
  6
BYBLOCK
 62
0
100
AcDbLine
 10
-9.197644865765255
 20
7.500000000000000
 30
0.0000000000000000
 11
-9.197644865765255
 21
-23.50000000000000
 31
0.0000000000000000
  0
LINE
  5
71
100
AcDbEntity
  8
MAIN0
  6
BYBLOCK
 62
0
100
AcDbLine
 10
-8.597644841923398
 20
-21.50000000000000
 30
0.0000000000000000
 11
-9.197644865765255
 21
-23.50000000000000
 31
0.0000000000000000
  0
LINE
  5
72
100
AcDbEntity
  8
MAIN0
  6
BYBLOCK
 62
0
100
AcDbLine
 10
-9.197644865765255
 20
-23.50000000000000
 30
0.0000000000000000
 11
-9.797644889607113
 21
-21.50000000000000
 31
0.0000000000000000
  0
LINE
  5
73
100
AcDbEntity
  8
MAIN0
  6
BYBLOCK
 62
0
100
AcDbLine
 10
10.00235512231382
 20
-23.50000000000000
 30
0.0000000000000000
 11
-11.19764486576526
 21
-23.50000000000000
 31
0.0000000000000000
  0
MTEXT
  5
74
100
AcDbEntity
  8
MAIN0
  6
BYBLOCK
 62
0
100
AcDbMText
 10
-11.24764481808154
 20
0.0000000000000000
 30
0.0000000000000000
 40
3.099999904632568
 41
0.0000000000000000
 71
     5
 72
     1
  1
\A1;\U+220547
 11
6.123233995736766e-017
 21
1.000000000000000
 31
0.0000000000000000
  7
STANDARD
  0
ENDBLK
  5
75
100
AcDbEntity
  8
MAIN0
  6
CONTINUOUS
 62
3
100
AcDbBlockEnd
  0
BLOCK
  5
77
100
AcDbEntity
  8
MAIN0
  6
CONTINUOUS
 62
3
100
AcDbBlockBegin
  2
D2
 70
    64
 10
0.0
 20
0.0
 30
0.0
  0
LINE
  5
78
100
AcDbEntity
  8
MAIN0
  6
BYBLOCK
 62
0
100
AcDbLine
 10
-16.69764486576526
 20
-3.647948741912842
 30
0.0000000000000000
 11
-16.69764486576526
 21
26.50000000000000
 31
0.0000000000000000
  0
LINE
  5
79
100
AcDbEntity
  8
MAIN0
  6
BYBLOCK
 62
0
100
AcDbLine
 10
-17.29764488960711
 20
24.50000000000000
 30
0.0000000000000000
 11
-16.69764486576526
 21
26.50000000000000
 31
0.0000000000000000
  0
LINE
  5
7A
100
AcDbEntity
  8
MAIN0
  6
BYBLOCK
 62
0
100
AcDbLine
 10
-16.69764486576526
 20
26.50000000000000
 30
0.0000000000000000
 11
-16.09764484192340
 21
24.50000000000000
 31
0.0000000000000000
  0
LINE
  5
7B
100
AcDbEntity
  8
MAIN0
  6
BYBLOCK
 62
0
100
AcDbLine
 10
10.40235512231379
 20
26.50000000000000
 30
0.0000000000000000
 11
-18.69764486576526
 21
26.50000000000000
 31
0.0000000000000000
  0
MTEXT
  5
7C
100
AcDbEntity
  8
MAIN0
  6
BYBLOCK
 62
0
100
AcDbMText
 10
-18.74764481808154
 20
-0.2479486411201819
 30
0.0000000000000000
 40
3.099999904632568
 41
0.0000000000000000
 71
     5
 72
     1
  1
\A1;\U+220553
 11
6.123233995736766e-017
 21
1.000000000000000
 31
0.0000000000000000
  7
STANDARD
  0
ENDBLK
  5
7D
100
AcDbEntity
  8
MAIN0
  6
CONTINUOUS
 62
3
100
AcDbBlockEnd
  0
BLOCK
  5
7F
100
AcDbEntity
  8
MAIN0
  6
CONTINUOUS
 62
3
100
AcDbBlockBegin
  2
D3
 70
    64
 10
0.0
 20
0.0
 30
0.0
  0
LINE
  5
80
100
AcDbEntity
  8
MAIN0
  6
BYBLOCK
 62
0
100
AcDbLine
 10
-24.19764486576526
 20
-4.449999809265137
 30
0.0000000000000000
 11
-24.19764486576526
 21
52.00000000000000
 31
0.0000000000000000
  0
LINE
  5
81
100
AcDbEntity
  8
MAIN0
  6
BYBLOCK
 62
0
100
AcDbLine
 10
-24.79764488960711
 20
50.00000000000000
 30
0.0000000000000000
 11
-24.19764486576526
 21
52.00000000000000
 31
0.0000000000000000
  0
LINE
  5
82
100
AcDbEntity
  8
MAIN0
  6
BYBLOCK
 62
0
100
AcDbLine
 10
-24.19764486576526
 20
52.00000000000000
 30
0.0000000000000000
 11
-23.59764484192340
 21
50.00000000000000
 31
0.0000000000000000
  0
LINE
  5
83
100
AcDbEntity
  8
MAIN0
  6
BYBLOCK
 62
0
100
AcDbLine
 10
22.00235512231382
 20
52.00000000000000
 30
0.0000000000000000
 11
-26.19764486576526
 21
52.00000000000000
 31
0.0000000000000000
  0
MTEXT
  5
84
100
AcDbEntity
  8
MAIN0
  6
BYBLOCK
 62
0
100
AcDbMText
 10
-26.24764481808154
 20
0.0000000000000000
 30
0.0000000000000000
 40
3.099999904632568
 41
0.0000000000000000
 71
     5
 72
     1
  1
\A1;\U+2205104
 11
6.123233995736766e-017
 21
1.000000000000000
 31
0.0000000000000000
  7
STANDARD
  0
ENDBLK
  5
85
100
AcDbEntity
  8
MAIN0
  6
CONTINUOUS
 62
3
100
AcDbBlockEnd
  0
BLOCK
  5
87
100
AcDbEntity
  8
MAIN0
  6
CONTINUOUS
 62
3
100
AcDbBlockBegin
  2
*D4
 70
    65
 10
0.0
 20
0.0
 30
0.0
  0
LINE
  5
88
100
AcDbEntity
  8
MAIN0
  6
BYBLOCK
 62
0
100
AcDbLine
 10
179.8379262667722
 20
215.5174999532771
 30
0.0000000000000000
 11
179.8379262667722
 21
228.1174999413562
 31
0.0000000000000000
  0
LINE
  5
89
100
AcDbEntity
  8
MAIN0
  6
BYBLOCK
 62
0
100
AcDbLine
 10
179.8379262667722
 20
226.1174999413562
 30
0.0000000000000000
 11
183.8379262667722
 21
226.1174999413562
 31
0.0000000000000000
  0
INSERT
  5
8A
100
AcDbEntity
  8
MAIN0
  6
BYBLOCK
 62
0
100
AcDbBlockReference
  2
_OPEN
 10
179.8379262667722
 20
226.1174999413562
 30
0.0000000000000000
 41
2.000000000000000
 42
2.000000000000000
 43
2.000000000000000
 50
0.0000000000000000
  0
INSERT
  5
8B
100
AcDbEntity
  8
MAIN0
  6
BYBLOCK
 62
0
100
AcDbBlockReference
  2
_OPEN
 10
183.8379262667722
 20
226.1174999413562
 30
0.0000000000000000
 41
2.000000000000000
 42
2.000000000000000
 43
2.000000000000000
 50
180.0000000000000
  0
LINE
  5
8C
100
AcDbEntity
  8
MAIN0
  6
BYBLOCK
 62
0
100
AcDbLine
 10
177.8379262667722
 20
226.1174999413562
 30
0.0000000000000000
 11
176.8379262667722
 21
226.1174999413562
 31
0.0000000000000000
  0
LINE
  5
8D
100
AcDbEntity
  8
MAIN0
  6
BYBLOCK
 62
0
100
AcDbLine
 10
185.8379262667722
 20
226.1174999413562
 30
0.0000000000000000
 11
186.8379262667722
 21
226.1174999413562
 31
0.0000000000000000
  0
LINE
  5
8E
100
AcDbEntity
  8
MAIN0
  6
BYBLOCK
 62
0
100
AcDbLine
 10
183.8379262667722
 20
215.5174999532771
 30
0.0000000000000000
 11
183.8379262667722
 21
228.1174999413562
 31
0.0000000000000000
  0
MTEXT
  5
8F
100
AcDbEntity
  8
MAIN0
  6
BYBLOCK
 62
0
100
AcDbMText
 10
181.8379262667722
 20
228.1674998936724
 30
0.0000000000000000
 40
3.099999904632568
 41
0.0000000000000000
 71
     5
 72
     1
  1
\A1;4
 11
1.000000000000000
 21
0.0000000000000000
 31
0.0000000000000000
  7
STANDARD
  0
ENDBLK
  5
90
100
AcDbEntity
  8
MAIN0
  6
CONTINUOUS
 62
3
100
AcDbBlockEnd
  0
BLOCK
  5
92
100
AcDbEntity
  8
MAIN0
  6
CONTINUOUS
 62
3
100
AcDbBlockBegin
  2
*D5
 70
    65
 10
0.0
 20
0.0
 30
0.0
  0
LINE
  5
93
100
AcDbEntity
  8
MAIN0
  6
BYBLOCK
 62
0
100
AcDbLine
 10
179.8379262667722
 20
215.5174999532771
 30
0.0000000000000000
 11
179.8379262667722
 21
258.1174999413561
 31
0.0000000000000000
  0
LINE
  5
94
100
AcDbEntity
  8
MAIN0
  6
BYBLOCK
 62
0
100
AcDbLine
 10
181.8379262667722
 20
256.1174999413561
 30
0.0000000000000000
 11
225.4379262667721
 21
256.1174999413561
 31
0.0000000000000000
  0
INSERT
  5
95
100
AcDbEntity
  8
MAIN0
  6
BYBLOCK
 62
0
100
AcDbBlockReference
  2
_OPEN
 10
179.8379262667722
 20
256.1174999413561
 30
0.0000000000000000
 41
2.000000000000000
 42
2.000000000000000
 43
2.000000000000000
 50
180.0000000000000
  0
INSERT
  5
96
100
AcDbEntity
  8
MAIN0
  6
BYBLOCK
 62
0
100
AcDbBlockReference
  2
_OPEN
 10
227.4379262667721
 20
256.1174999413561
 30
0.0000000000000000
 41
2.000000000000000
 42
2.000000000000000
 43
2.000000000000000
 50
0.0000000000000000
  0
LINE
  5
97
100
AcDbEntity
  8
MAIN0
  6
BYBLOCK
 62
0
100
AcDbLine
 10
227.4379262667721
 20
242.5104111189771
 30
0.0000000000000000
 11
227.4379262667721
 21
258.1174999413561
 31
0.0000000000000000
  0
MTEXT
  5
98
100
AcDbEntity
  8
MAIN0
  6
BYBLOCK
 62
0
100
AcDbMText
 10
203.6379262667722
 20
258.1674998936724
 30
0.0000000000000000
 40
3.099999904632568
 41
0.0000000000000000
 71
     5
 72
     1
  1
\A1;47.6
 11
1.000000000000000
 21
0.0000000000000000
 31
0.0000000000000000
  7
STANDARD
  0
ENDBLK
  5
99
100
AcDbEntity
  8
MAIN0
  6
CONTINUOUS
 62
3
100
AcDbBlockEnd
  0
BLOCK
  5
9B
100
AcDbEntity
  8
MAIN0
  6
CONTINUOUS
 62
3
100
AcDbBlockBegin
  2
*D6
 70
    65
 10
0.0
 20
0.0
 30
0.0
  0
LINE
  5
9C
100
AcDbEntity
  8
MAIN0
  6
BYBLOCK
 62
0
100
AcDbLine
 10
224.4379262667721
 20
234.7104111189771
 30
0.0000000000000000
 11
224.4379262667721
 21
250.6174999413562
 31
0.0000000000000000
  0
LINE
  5
9D
100
AcDbEntity
  8
MAIN0
  6
BYBLOCK
 62
0
100
AcDbLine
 10
224.4379262667721
 20
248.6174999413562
 30
0.0000000000000000
 11
227.4379262667721
 21
248.6174999413562
 31
0.0000000000000000
  0
INSERT
  5
9E
100
AcDbEntity
  8
MAIN0
  6
BYBLOCK
 62
0
100
AcDbBlockReference
  2
_OPEN
 10
224.4379262667721
 20
248.6174999413562
 30
0.0000000000000000
 41
2.000000000000000
 42
2.000000000000000
 43
2.000000000000000
 50
0.0000000000000000
  0
INSERT
  5
9F
100
AcDbEntity
  8
MAIN0
  6
BYBLOCK
 62
0
100
AcDbBlockReference
  2
_OPEN
 10
227.4379262667721
 20
248.6174999413562
 30
0.0000000000000000
 41
2.000000000000000
 42
2.000000000000000
 43
2.000000000000000
 50
180.0000000000000
  0
LINE
  5
A0
100
AcDbEntity
  8
MAIN0
  6
BYBLOCK
 62
0
100
AcDbLine
 10
222.4379262667721
 20
248.6174999413562
 30
0.0000000000000000
 11
221.4379262667721
 21
248.6174999413562
 31
0.0000000000000000
  0
LINE
  5
A1
100
AcDbEntity
  8
MAIN0
  6
BYBLOCK
 62
0
100
AcDbLine
 10
229.4379262667721
 20
248.6174999413562
 30
0.0000000000000000
 11
230.4379262667721
 21
248.6174999413562
 31
0.0000000000000000
  0
LINE
  5
A2
100
AcDbEntity
  8
MAIN0
  6
BYBLOCK
 62
0
100
AcDbLine
 10
227.4379262667721
 20
242.5104111189771
 30
0.0000000000000000
 11
227.4379262667721
 21
250.6174999413562
 31
0.0000000000000000
  0
MTEXT
  5
A3
100
AcDbEntity
  8
MAIN0
  6
BYBLOCK
 62
0
100
AcDbMText
 10
225.9379262667721
 20
250.6674998936724
 30
0.0000000000000000
 40
3.099999904632568
 41
0.0000000000000000
 71
     5
 72
     1
  1
\A1;3
 11
1.000000000000000
 21
0.0000000000000000
 31
0.0000000000000000
  7
STANDARD
  0
ENDBLK
  5
A4
100
AcDbEntity
  8
MAIN0
  6
CONTINUOUS
 62
3
100
AcDbBlockEnd
  0
BLOCK
  5
A6
100
AcDbEntity
  8
MAIN0
  6
CONTINUOUS
 62
3
100
AcDbBlockBegin
  2
*D7
 70
    65
 10
0.0
 20
0.0
 30
0.0
  0
LINE
  5
A7
100
AcDbEntity
  8
MAIN0
  6
BYBLOCK
 62
0
100
AcDbLine
 10
242.2683536161230
 20
188.6174999413562
 30
0.0000000000000000
 11
251.8379262667722
 21
188.6174999413562
 31
0.0000000000000000
  0
LINE
  5
A8
100
AcDbEntity
  8
MAIN0
  6
BYBLOCK
 62
0
100
AcDbLine
 10
249.8379262667722
 20
190.6174999413562
 30
0.0000000000000000
 11
249.8379262667722
 21
229.4104111070990
 31
0.0000000000000000
  0
INSERT
  5
A9
100
AcDbEntity
  8
MAIN0
  6
BYBLOCK
 62
0
100
AcDbBlockReference
  2
_OPEN
 10
249.8379262667722
 20
188.6174999413562
 30
0.0000000000000000
 41
2.000000000000000
 42
2.000000000000000
 43
2.000000000000000
 50
270.0000000000000
  0
INSERT
  5
AA
100
AcDbEntity
  8
MAIN0
  6
BYBLOCK
 62
0
100
AcDbBlockReference
  2
_OPEN
 10
249.8379262667722
 20
231.4104111070990
 30
0.0000000000000000
 41
2.000000000000000
 42
2.000000000000000
 43
2.000000000000000
 50
90.00000000000000
  0
LINE
  5
AB
100
AcDbEntity
  8
MAIN0
  6
BYBLOCK
 62
0
100
AcDbLine
 10
230.0073686262376
 20
231.4104111070990
 30
0.0000000000000000
 11
251.8379262667722
 21
231.4104111070990
 31
0.0000000000000000
  0
MTEXT
  5
AC
100
AcDbEntity
  8
MAIN0
  6
BYBLOCK
 62
0
100
AcDbMText
 10
247.7879263144559
 20
210.0139555242276
 30
0.0000000000000000
 40
3.099999904632568
 41
0.0000000000000000
 71
     5
 72
     1
  1
\A1;MAX 42.8
 11
6.123233995736766e-017
 21
1.000000000000000
 31
0.0000000000000000
  7
STANDARD
  0
ENDBLK
  5
AD
100
AcDbEntity
  8
MAIN0
  6
CONTINUOUS
 62
3
100
AcDbBlockEnd
  0
BLOCK
  5
B0
100
AcDbEntity
  8
MAIN0
  6
CONTINUOUS
 62
3
100
AcDbBlockBegin
  2
*D8
 70
    65
 10
0.0
 20
0.0
 30
0.0
  0
LINE
  5
B1
100
AcDbEntity
  8
MAIN0
  6
BYBLOCK
 62
0
100
AcDbLine
 10
230.0477369049811
 20
224.9104111070963
 30
0.0000000000000000
 11
244.3379262667722
 21
224.9104111070733
 31
0.0000000000000000
  0
LINE
  5
B2
100
AcDbEntity
  8
MAIN0
  6
BYBLOCK
 62
0
100
AcDbLine
 10
242.3379262667722
 20
226.9104111070765
 30
0.0000000000000000
 11
242.3379262667722
 21
235.9104111070942
 31
0.0000000000000000
  0
INSERT
  5
B3
100
AcDbEntity
  8
MAIN0
  6
BYBLOCK
 62
0
100
AcDbBlockReference
  2
_OPEN
 10
242.3379262667722
 20
224.9104111070765
 30
0.0000000000000000
 41
2.000000000000000
 42
2.000000000000000
 43
2.000000000000000
 50
270.0000000000000
  0
INSERT
  5
B4
100
AcDbEntity
  8
MAIN0
  6
BYBLOCK
 62
0
100
AcDbBlockReference
  2
_OPEN
 10
242.3379262667722
 20
237.9104111070942
 30
0.0000000000000000
 41
2.000000000000000
 42
2.000000000000000
 43
2.000000000000000
 50
90.00000000000000
  0
LINE
  5
B5
100
AcDbEntity
  8
MAIN0
  6
BYBLOCK
 62
0
100
AcDbLine
 10
230.0477369049762
 20
237.9104111070960
 30
0.0000000000000000
 11
244.3379262667722
 21
237.9104111070939
 31
0.0000000000000000
  0
MTEXT
  5
B6
100
AcDbEntity
  8
MAIN0
  6
BYBLOCK
 62
0
100
AcDbMText
 10
240.2879263144559
 20
234.0352498076974
 30
0.0000000000000000
 40
3.099999904632568
 41
0.0000000000000000
 71
     5
 72
     1
  1
\A1;13
 11
6.123233995736766e-017
 21
1.000000000000000
 31
0.0000000000000000
  7
STANDARD
  0
ENDBLK
  5
B7
100
AcDbEntity
  8
MAIN0
  6
CONTINUOUS
 62
3
100
AcDbBlockEnd
  0
BLOCK
  5
B9
100
AcDbEntity
  8
MAIN0
  6
CONTINUOUS
 62
3
100
AcDbBlockBegin
  2
*D9
 70
    65
 10
0.0
 20
0.0
 30
0.0
  0
LINE
  5
BA
100
AcDbEntity
  8
MAIN0
  6
BYBLOCK
 62
0
100
AcDbLine
 10
230.0477369049762
 20
237.9104111070960
 30
0.0000000000000000
 11
244.3379262667722
 21
237.9104111070939
 31
0.0000000000000000
  0
LINE
  5
BB
100
AcDbEntity
  8
MAIN0
  6
BYBLOCK
 62
0
100
AcDbLine
 10
242.3379262667722
 20
237.9104111070942
 30
0.0000000000000000
 11
242.3379262667722
 21
241.9104111070562
 31
0.0000000000000000
  0
INSERT
  5
BC
100
AcDbEntity
  8
MAIN0
  6
BYBLOCK
 62
0
100
AcDbBlockReference
  2
_OPEN
 10
242.3379262667722
 20
237.9104111070942
 30
0.0000000000000000
 41
2.000000000000000
 42
2.000000000000000
 43
2.000000000000000
 50
90.00000000000000
  0
INSERT
  5
BD
100
AcDbEntity
  8
MAIN0
  6
BYBLOCK
 62
0
100
AcDbBlockReference
  2
_OPEN
 10
242.3379262667722
 20
241.9104111070562
 30
0.0000000000000000
 41
2.000000000000000
 42
2.000000000000000
 43
2.000000000000000
 50
270.0000000000000
  0
LINE
  5
BE
100
AcDbEntity
  8
MAIN0
  6
BYBLOCK
 62
0
100
AcDbLine
 10
242.3379262667722
 20
235.9104111070942
 30
0.0000000000000000
 11
242.3379262667722
 21
234.9104111070942
 31
0.0000000000000000
  0
LINE
  5
BF
100
AcDbEntity
  8
MAIN0
  6
BYBLOCK
 62
0
100
AcDbLine
 10
242.3379262667722
 20
243.9104111070562
 30
0.0000000000000000
 11
242.3379262667722
 21
244.9104111070562
 31
0.0000000000000000
  0
LINE
  5
C0
100
AcDbEntity
  8
MAIN0
  6
BYBLOCK
 62
0
100
AcDbLine
 10
228.0379262786931
 20
241.9104111070562
 30
0.0000000000000000
 11
244.3379262667722
 21
241.9104111070562
 31
0.0000000000000000
  0
MTEXT
  5
C1
100
AcDbEntity
  8
MAIN0
  6
BYBLOCK
 62
0
100
AcDbMText
 10
240.2879263144559
 20
239.9104111070752
 30
0.0000000000000000
 40
3.099999904632568
 41
0.0000000000000000
 71
     5
 72
     1
  1
\A1;4
 11
6.123233995736766e-017
 21
1.000000000000000
 31
0.0000000000000000
  7
STANDARD
  0
ENDBLK
  5
C2
100
AcDbEntity
  8
MAIN0
  6
CONTINUOUS
 62
3
100
AcDbBlockEnd
  0
BLOCK
  5
C4
100
AcDbEntity
  8
MAIN0
  6
CONTINUOUS
 62
3
100
AcDbBlockBegin
  2
*D10
 70
    65
 10
0.0
 20
0.0
 30
0.0
  0
LINE
  5
C5
100
AcDbEntity
  8
MAIN0
  6
BYBLOCK
 62
0
100
AcDbLine
 10
228.0379262786954
 20
228.9104111071362
 30
0.0000000000000000
 11
236.8379262667722
 21
228.9104111071362
 31
0.0000000000000000
  0
LINE
  5
C6
100
AcDbEntity
  8
MAIN0
  6
BYBLOCK
 62
0
100
AcDbLine
 10
234.8379262667722
 20
228.9104111071362
 30
0.0000000000000000
 11
234.8379262667722
 21
233.9104111070562
 31
0.0000000000000000
  0
INSERT
  5
C7
100
AcDbEntity
  8
MAIN0
  6
BYBLOCK
 62
0
100
AcDbBlockReference
  2
_OPEN
 10
234.8379262667722
 20
228.9104111071362
 30
0.0000000000000000
 41
2.000000000000000
 42
2.000000000000000
 43
2.000000000000000
 50
90.00000000000000
  0
INSERT
  5
C8
100
AcDbEntity
  8
MAIN0
  6
BYBLOCK
 62
0
100
AcDbBlockReference
  2
_OPEN
 10
234.8379262667722
 20
233.9104111070562
 30
0.0000000000000000
 41
2.000000000000000
 42
2.000000000000000
 43
2.000000000000000
 50
270.0000000000000
  0
LINE
  5
C9
100
AcDbEntity
  8
MAIN0
  6
BYBLOCK
 62
0
100
AcDbLine
 10
234.8379262667722
 20
226.9104111071362
 30
0.0000000000000000
 11
234.8379262667722
 21
225.9104111071362
 31
0.0000000000000000
  0
LINE
  5
CA
100
AcDbEntity
  8
MAIN0
  6
BYBLOCK
 62
0
100
AcDbLine
 10
234.8379262667722
 20
235.9104111070562
 30
0.0000000000000000
 11
234.8379262667722
 21
251.7674991960455
 31
0.0000000000000000
  0
LINE
  5
CB
100
AcDbEntity
  8
MAIN0
  6
BYBLOCK
 62
0
100
AcDbLine
 10
228.0379262786930
 20
233.9104111070562
 30
0.0000000000000000
 11
236.8379262667722
 21
233.9104111070562
 31
0.0000000000000000
  0
MTEXT
  5
CC
100
AcDbEntity
  8
MAIN0
  6
BYBLOCK
 62
0
100
AcDbMText
 10
232.7879263144559
 20
248.6174999413562
 30
0.0000000000000000
 40
3.099999904632568
 41
0.0000000000000000
 71
     5
 72
     1
  1
\A1;5H8
 11
6.123233995736766e-017
 21
1.000000000000000
 31
0.0000000000000000
  7
STANDARD
  0
ENDBLK
  5
CD
100
AcDbEntity
  8
MAIN0
  6
CONTINUOUS
 62
3
100
AcDbBlockEnd
  0
BLOCK
  5
CF
100
AcDbEntity
  8
MAIN0
  6
CONTINUOUS
 62
3
100
AcDbBlockBegin
  2
*D11
 70
    65
 10
0.0
 20
0.0
 30
0.0
  0
LINE
  5
D0
100
AcDbEntity
  8
MAIN0
  6
BYBLOCK
 62
0
100
AcDbLine
 10
174.8379262667722
 20
175.1174999294352
 30
0.0000000000000000
 11
174.8379262667722
 21
126.6174999413562
 31
0.0000000000000000
  0
LINE
  5
D1
100
AcDbEntity
  8
MAIN0
  6
BYBLOCK
 62
0
100
AcDbLine
 10
174.8379262667722
 20
128.6174999413562
 30
0.0000000000000000
 11
179.8379262667722
 21
128.6174999413562
 31
0.0000000000000000
  0
INSERT
  5
D2
100
AcDbEntity
  8
MAIN0
  6
BYBLOCK
 62
0
100
AcDbBlockReference
  2
_OPEN
 10
174.8379262667722
 20
128.6174999413562
 30
0.0000000000000000
 41
2.000000000000000
 42
2.000000000000000
 43
2.000000000000000
 50
0.0000000000000000
  0
INSERT
  5
D3
100
AcDbEntity
  8
MAIN0
  6
BYBLOCK
 62
0
100
AcDbBlockReference
  2
_OPEN
 10
179.8379262667722
 20
128.6174999413562
 30
0.0000000000000000
 41
2.000000000000000
 42
2.000000000000000
 43
2.000000000000000
 50
180.0000000000000
  0
LINE
  5
D4
100
AcDbEntity
  8
MAIN0
  6
BYBLOCK
 62
0
100
AcDbLine
 10
172.8379262667722
 20
128.6174999413562
 30
0.0000000000000000
 11
171.8379262667722
 21
128.6174999413562
 31
0.0000000000000000
  0
LINE
  5
D5
100
AcDbEntity
  8
MAIN0
  6
BYBLOCK
 62
0
100
AcDbLine
 10
181.8379262667722
 20
128.6174999413562
 30
0.0000000000000000
 11
182.8379262667722
 21
128.6174999413562
 31
0.0000000000000000
  0
LINE
  5
D6
100
AcDbEntity
  8
MAIN0
  6
BYBLOCK
 62
0
100
AcDbLine
 10
179.8379262667722
 20
164.3174999294352
 30
0.0000000000000000
 11
179.8379262667722
 21
126.6174999413562
 31
0.0000000000000000
  0
MTEXT
  5
D7
100
AcDbEntity
  8
MAIN0
  6
BYBLOCK
 62
0
100
AcDbMText
 10
177.3379262667722
 20
130.6674998936724
 30
0.0000000000000000
 40
3.099999904632568
 41
0.0000000000000000
 71
     5
 72
     1
  1
\A1;5
 11
1.000000000000000
 21
0.0000000000000000
 31
0.0000000000000000
  7
STANDARD
  0
ENDBLK
  5
D8
100
AcDbEntity
  8
MAIN0
  6
CONTINUOUS
 62
3
100
AcDbBlockEnd
  0
BLOCK
  5
DA
100
AcDbEntity
  8
MAIN0
  6
CONTINUOUS
 62
3
100
AcDbBlockBegin
  2
*D12
 70
    65
 10
0.0
 20
0.0
 30
0.0
  0
LINE
  5
DB
100
AcDbEntity
  8
MAIN0
  6
BYBLOCK
 62
0
100
AcDbLine
 10
179.8379262667722
 20
164.3174999294352
 30
0.0000000000000000
 11
179.8379262667722
 21
126.6174999413562
 31
0.0000000000000000
  0
LINE
  5
DC
100
AcDbEntity
  8
MAIN0
  6
BYBLOCK
 62
0
100
AcDbLine
 10
181.8379262667722
 20
128.6174999413562
 30
0.0000000000000000
 11
224.4379262667721
 21
128.6174999413562
 31
0.0000000000000000
  0
INSERT
  5
DD
100
AcDbEntity
  8
MAIN0
  6
BYBLOCK
 62
0
100
AcDbBlockReference
  2
_OPEN
 10
179.8379262667722
 20
128.6174999413562
 30
0.0000000000000000
 41
2.000000000000000
 42
2.000000000000000
 43
2.000000000000000
 50
180.0000000000000
  0
INSERT
  5
DE
100
AcDbEntity
  8
MAIN0
  6
BYBLOCK
 62
0
100
AcDbBlockReference
  2
_OPEN
 10
226.4379262667721
 20
128.6174999413562
 30
0.0000000000000000
 41
2.000000000000000
 42
2.000000000000000
 43
2.000000000000000
 50
0.0000000000000000
  0
LINE
  5
DF
100
AcDbEntity
  8
MAIN0
  6
BYBLOCK
 62
0
100
AcDbLine
 10
226.4379262667721
 20
152.3325666844353
 30
0.0000000000000000
 11
226.4379262667721
 21
126.6174999413562
 31
0.0000000000000000
  0
MTEXT
  5
E0
100
AcDbEntity
  8
MAIN0
  6
BYBLOCK
 62
0
100
AcDbMText
 10
203.1379262667722
 20
130.6674998936724
 30
0.0000000000000000
 40
3.099999904632568
 41
0.0000000000000000
 71
     5
 72
     1
  1
\A1;46.6
 11
1.000000000000000
 21
0.0000000000000000
 31
0.0000000000000000
  7
STANDARD
  0
ENDBLK
  5
E1
100
AcDbEntity
  8
MAIN0
  6
CONTINUOUS
 62
3
100
AcDbBlockEnd
  0
BLOCK
  5
E3
100
AcDbEntity
  8
MAIN0
  6
CONTINUOUS
 62
3
100
AcDbBlockBegin
  2
*D13
 70
    65
 10
0.0
 20
0.0
 30
0.0
  0
LINE
  5
E4
100
AcDbEntity
  8
MAIN0
  6
BYBLOCK
 62
0
100
AcDbLine
 10
226.4379262667721
 20
152.3325666844353
 30
0.0000000000000000
 11
226.4379262667721
 21
126.6174999413562
 31
0.0000000000000000
  0
LINE
  5
E5
100
AcDbEntity
  8
MAIN0
  6
BYBLOCK
 62
0
100
AcDbLine
 10
226.4379262667721
 20
128.6174999413562
 30
0.0000000000000000
 11
226.9379262667721
 21
128.6174999413562
 31
0.0000000000000000
  0
INSERT
  5
E6
100
AcDbEntity
  8
MAIN0
  6
BYBLOCK
 62
0
100
AcDbBlockReference
  2
_OPEN
 10
226.4379262667721
 20
128.6174999413562
 30
0.0000000000000000
 41
2.000000000000000
 42
2.000000000000000
 43
2.000000000000000
 50
0.0000000000000000
  0
INSERT
  5
E7
100
AcDbEntity
  8
MAIN0
  6
BYBLOCK
 62
0
100
AcDbBlockReference
  2
_OPEN
 10
226.9379262667721
 20
128.6174999413562
 30
0.0000000000000000
 41
2.000000000000000
 42
2.000000000000000
 43
2.000000000000000
 50
180.0000000000000
  0
LINE
  5
E8
100
AcDbEntity
  8
MAIN0
  6
BYBLOCK
 62
0
100
AcDbLine
 10
224.4379262667721
 20
128.6174999413562
 30
0.0000000000000000
 11
223.4379262667721
 21
128.6174999413562
 31
0.0000000000000000
  0
LINE
  5
E9
100
AcDbEntity
  8
MAIN0
  6
BYBLOCK
 62
0
100
AcDbLine
 10
228.9379262667721
 20
128.6174999413562
 30
0.0000000000000000
 11
237.4879264575070
 21
128.6174999413562
 31
0.0000000000000000
  0
LINE
  5
EA
100
AcDbEntity
  8
MAIN0
  6
BYBLOCK
 62
0
100
AcDbLine
 10
226.9379262667721
 20
175.9341840674352
 30
0.0000000000000000
 11
226.9379262667721
 21
126.6174999413562
 31
0.0000000000000000
  0
MTEXT
  5
EB
100
AcDbEntity
  8
MAIN0
  6
BYBLOCK
 62
0
100
AcDbMText
 10
234.8379262667722
 20
130.6674998936724
 30
0.0000000000000000
 40
3.099999904632568
 41
0.0000000000000000
 71
     5
 72
     1
  1
\A1;0.5
 11
1.000000000000000
 21
0.0000000000000000
 31
0.0000000000000000
  7
STANDARD
  0
ENDBLK
  5
EC
100
AcDbEntity
  8
MAIN0
  6
CONTINUOUS
 62
3
100
AcDbBlockEnd
  0
BLOCK
  5
F1
100
AcDbEntity
  8
MAIN0
  6
CONTINUOUS
 62
3
100
AcDbBlockBegin
  2
*D14
 70
    65
 10
0.0
 20
0.0
 30
0.0
  0
LINE
  5
F2
100
AcDbEntity
  8
MAIN0
  6
BYBLOCK
 62
0
100
AcDbLine
 10
328.9951695723477
 20
203.7558083574232
 30
0.0000000000000000
 11
318.6353204804619
 21
173.4791915254458
 31
0.0000000000000000
  0
INSERT
  5
F3
100
AcDbEntity
  8
MAIN0
  6
BYBLOCK
 62
0
100
AcDbBlockReference
  2
_OPEN
 10
329.6426601405915
 20
205.6480969094245
 30
0.0000000000000000
 41
2.000000000000000
 42
2.000000000000000
 43
2.000000000000000
 50
71.11042426972995
  0
INSERT
  5
F4
100
AcDbEntity
  8
MAIN0
  6
BYBLOCK
 62
0
100
AcDbBlockReference
  2
_OPEN
 10
317.9878299122182
 20
171.5869029734445
 30
0.0000000000000000
 41
2.000000000000000
 42
2.000000000000000
 43
2.000000000000000
 50
251.1104242697300
  0
MTEXT
  5
F5
100
AcDbEntity
  8
MAIN0
  6
BYBLOCK
 62
0
100
AcDbMText
 10
318.5432422856060
 20
179.5422317968520
 30
0.0000000000000000
 40
3.099999904632568
 41
0.0000000000000000
 71
     5
 72
     1
  1
\A1;\U+220536
 11
0.3237452841219005
 21
0.9461442760006689
 31
0.0000000000000000
  7
STANDARD
  0
ENDBLK
  5
F6
100
AcDbEntity
  8
MAIN0
  6
CONTINUOUS
 62
3
100
AcDbBlockEnd
  0
BLOCK
  5
F9
100
AcDbEntity
  8
MAIN0
  6
CONTINUOUS
 62
3
100
AcDbBlockBegin
  2
*D15
 70
    65
 10
0.0
 20
0.0
 30
0.0
  0
LINE
  5
FA
100
AcDbEntity
  8
MAIN0
  6
BYBLOCK
 62
0
100
AcDbLine
 10
326.2027573251902
 20
183.1983995439520
 30
0.0000000000000000
 11
302.8758959027716
 21
236.1449766445420
 31
0.0000000000000000
  0
INSERT
  5
FB
100
AcDbEntity
  8
MAIN0
  6
BYBLOCK
 62
0
100
AcDbBlockReference
  2
_OPEN
 10
302.0695392971670
 20
237.9752195313190
 30
0.0000000000000000
 41
2.000000000000000
 42
2.000000000000000
 43
2.000000000000000
 50
113.7770204925701
  0
LINE
  5
FC
100
AcDbEntity
  8
MAIN0
  6
BYBLOCK
 62
0
100
AcDbLine
 10
302.0695392971670
 20
237.9752195313190
 30
0.0000000000000000
 11
295.8588160406490
 21
252.0721240311086
 31
0.0000000000000000
  0
MTEXT
  5
FD
100
AcDbEntity
  8
MAIN0
  6
BYBLOCK
 62
0
100
AcDbMText
 10
296.4220457704025
 20
245.7091239943096
 30
0.0000000000000000
 40
3.099999904632568
 41
0.0000000000000000
 71
     5
 72
     1
  1
\A1;\U+2205108
 11
-0.4031783028023042
 21
0.9151214433885010
 31
0.0000000000000000
  7
STANDARD
  0
ENDBLK
  5
FE
100
AcDbEntity
  8
MAIN0
  6
CONTINUOUS
 62
3
100
AcDbBlockEnd
  0
BLOCK
  5
100
100
AcDbEntity
  8
MAIN0
  6
CONTINUOUS
 62
3
100
AcDbBlockBegin
  2
*D16
 70
    65
 10
0.0
 20
0.0
 30
0.0
  0
LINE
  5
101
100
AcDbEntity
  8
MAIN0
  6
BYBLOCK
 62
0
100
AcDbLine
 10
362.8995632979751
 20
211.1828416169938
 30
0.0000000000000000
 11
377.7291302361637
 21
219.7446960808656
 31
0.0000000000000000
  0
ARC
  5
102
100
AcDbEntity
  8
MAIN0
  6
BYBLOCK
 62
0
100
AcDbCircle
 10
323.8152450264067
 20
188.6174999414335
 30
0.0000000000000000
 40
60.25439227808364
100
AcDbArc
 50
31.90179594746047
 51
88.09820405308128
  0
INSERT
  5
103
100
AcDbEntity
  8
MAIN0
  6
BYBLOCK
 62
0
100
AcDbBlockReference
  2
_OPEN
 10
375.9970794286020
 20
218.7446960808530
 30
0.0000000000000000
 41
2.000000000000000
 42
2.000000000000000
 43
2.000000000000000
 50
300.0000000004147
  0
INSERT
  5
104
100
AcDbEntity
  8
MAIN0
  6
BYBLOCK
 62
0
100
AcDbBlockReference
  2
_OPEN
 10
323.8152450262732
 20
248.8718922195172
 30
0.0000000000000000
 41
2.000000000000000
 42
2.000000000000000
 43
2.000000000000000
 50
180.0000000001271
  0
MTEXT
  5
105
100
AcDbEntity
  8
MAIN0
  6
BYBLOCK
 62
0
100
AcDbMText
 10
354.9674411413516
 20
242.5746863804569
 30
0.0000000000000000
 40
3.099999904632568
 41
0.0000000000000000
 71
     5
 72
     1
  1
\A1;60\U+00B0
 11
0.8660254037868023
 21
-0.4999999999959061
 31
0.0000000000000000
  7
STANDARD
  0
ENDBLK
  5
106
100
AcDbEntity
  8
MAIN0
  6
CONTINUOUS
 62
3
100
AcDbBlockEnd
  0
BLOCK
  5
300
100
AcDbEntity
  8
MAIN0
  6
CONTINUOUS
 62
3
100
AcDbBlockBegin
  2
*D17
 70
    65
 10
0.0
 20
0.0
 30
0.0
  0
LINE
  5
301
100
AcDbEntity
  8
MAIN0
  6
BYBLOCK
 62
0
100
AcDbLine
 10
318.3152450262807
 20
242.7107471876356
 30
0.0000000000000000
 11
318.3152450262805
 21
254.9025835295800
 31
0.0000000000000000
  0
LINE
  5
302
100
AcDbEntity
  8
MAIN0
  6
BYBLOCK
 62
0
100
AcDbLine
 10
320.3152450262805
 20
252.9025835295800
 30
0.0000000000000000
 11
327.3152450262805
 21
252.9025835295800
 31
0.0000000000000000
  0
INSERT
  5
303
100
AcDbEntity
  8
MAIN0
  6
BYBLOCK
 62
0
100
AcDbBlockReference
  2
_OPEN
 10
318.3152450262805
 20
252.9025835295800
 30
0.0000000000000000
 41
2.000000000000000
 42
2.000000000000000
 43
2.000000000000000
 50
180.0000000000000
  0
INSERT
  5
304
100
AcDbEntity
  8
MAIN0
  6
BYBLOCK
 62
0
100
AcDbBlockReference
  2
_OPEN
 10
329.3152450262805
 20
252.9025835295800
 30
0.0000000000000000
 41
2.000000000000000
 42
2.000000000000000
 43
2.000000000000000
 50
0.0000000000000000
  0
LINE
  5
305
100
AcDbEntity
  8
MAIN0
  6
BYBLOCK
 62
0
100
AcDbLine
 10
318.3152450262805
 20
252.9025835295800
 30
0.0000000000000000
 11
311.4419854819080
 21
252.9025835295800
 31
0.0000000000000000
  0
LINE
  5
306
100
AcDbEntity
  8
MAIN0
  6
BYBLOCK
 62
0
100
AcDbLine
 10
329.3152450262805
 20
242.7107471876312
 30
0.0000000000000000
 11
329.3152450262805
 21
254.9025835295800
 31
0.0000000000000000
  0
MTEXT
  5
307
100
AcDbEntity
  8
MAIN0
  6
BYBLOCK
 62
0
100
AcDbMText
 10
313.5419852709018
 20
254.9525834818963
 30
0.0000000000000000
 40
3.099999904632568
 41
0.0000000000000000
 71
     5
 72
     1
  1
\A1;11
 11
1.000000000000000
 21
0.0000000000000000
 31
0.0000000000000000
  7
STANDARD
  0
ENDBLK
  5
308
100
AcDbEntity
  8
MAIN0
  6
CONTINUOUS
 62
3
100
AcDbBlockEnd
  0
ENDSEC
  0
SECTION
  2
ENTITIES
  0
ARC
  5
46
100
AcDbEntity
  8
MAIN0
  6
CONTINUOUS
 62
3
100
AcDbCircle
 10
313.4229401809391
 20
205.6174999414987
 30
0.0000000000000000
 40
3.500000000000000
100
AcDbArc
 50
90.00000000000000
 51
150.0000000000058
  0
ARC
  5
47
100
AcDbEntity
  8
MAIN0
  6
CONTINUOUS
 62
3
100
AcDbCircle
 10
313.7116153155337
 20
205.1174999414992
 30
0.0000000000000000
 40
4.000000000000000
100
AcDbArc
 50
90.00000000000000
 51
150.0000000000063
  0
ARC
  5
48
100
AcDbEntity
  8
MAIN0
  6
CONTINUOUS
 62
3
100
AcDbCircle
 10
333.9188747372722
 20
205.1174999415007
 30
0.0000000000000000
 40
4.000000000000000
100
AcDbArc
 50
30.00000000000688
 51
90.00000000000000
  0
ARC
  5
49
100
AcDbEntity
  8
MAIN0
  6
CONTINUOUS
 62
3
100
AcDbCircle
 10
334.4962250064618
 20
206.1174999415007
 30
0.0000000000000000
 40
3.000000000000000
100
AcDbArc
 50
30.00000000000680
 51
90.00000000000000
  0
ARC
  5
4A
100
AcDbEntity
  8
MAIN0
  6
CONTINUOUS
 62
3
100
AcDbCircle
 10
314.5776407193412
 20
171.6174999413565
 30
0.0000000000000000
 40
4.000000000000000
100
AcDbArc
 50
210.0000000000000
 51
270.0000000000062
  0
ARC
  5
4B
100
AcDbEntity
  8
MAIN0
  6
CONTINUOUS
 62
3
100
AcDbCircle
 10
314.2889655847466
 20
171.1174999413569
 30
0.0000000000000000
 40
3.500000000000000
100
AcDbArc
 50
210.0000000000000
 51
270.0000000000058
  0
ARC
  5
4C
100
AcDbEntity
  8
MAIN0
  6
CONTINUOUS
 62
3
100
AcDbCircle
 10
304.4740110084705
 20
189.1174999414438
 30
0.0000000000000000
 40
4.000000000000000
100
AcDbArc
 50
150.0000000000069
 51
210.0000000000000
  0
ARC
  5
4D
100
AcDbEntity
  8
MAIN0
  6
CONTINUOUS
 62
3
100
AcDbCircle
 10
303.3193104700913
 20
189.1174999414436
 30
0.0000000000000000
 40
3.000000000000000
100
AcDbArc
 50
150.0000000000068
 51
210.0000000000000
  0
ARC
  5
4E
100
AcDbEntity
  8
MAIN0
  6
CONTINUOUS
 62
3
100
AcDbCircle
 10
343.1564790443396
 20
189.1174999414478
 30
0.0000000000000000
 40
4.000000000000000
100
AcDbArc
 50
329.9999999999999
 51
390.0000000000062
  0
ARC
  5
4F
100
AcDbEntity
  8
MAIN0
  6
CONTINUOUS
 62
3
100
AcDbCircle
 10
343.7338293135288
 20
189.1174999414478
 30
0.0000000000000000
 40
3.500000000000000
100
AcDbArc
 50
329.9999999999999
 51
390.0000000000058
  0
ARC
  5
50
100
AcDbEntity
  8
MAIN0
  6
CONTINUOUS
 62
3
100
AcDbCircle
 10
333.0528493334717
 20
171.6174999413590
 30
0.0000000000000000
 40
4.000000000000000
100
AcDbArc
 50
270.0000000000069
 51
329.9999999999999
  0
ARC
  5
51
100
AcDbEntity
  8
MAIN0
  6
CONTINUOUS
 62
3
100
AcDbCircle
 10
333.6301996026614
 20
170.6174999413591
 30
0.0000000000000000
 40
3.000000000000000
100
AcDbArc
 50
270.0000000000068
 51
329.9999999999999
  0
ARC
  5
52
100
AcDbEntity
  8
MAIN0
  6
CONTINUOUS
 62
3
100
AcDbCircle
 10
301.8152450263384
 20
218.5123821748046
 30
0.0000000000000000
 40
10.00000000000000
100
AcDbArc
 50
330.0000000000899
 51
360.0000000000000
  0
ARC
  5
53
100
AcDbEntity
  8
MAIN0
  6
CONTINUOUS
 62
3
100
AcDbCircle
 10
298.8152450263366
 20
219.3162297520922
 30
0.0000000000000000
 40
10.00000000000000
100
AcDbArc
 50
330.0000000000898
 51
360.0000000000000
  0
ARC
  5
54
100
AcDbEntity
  8
MAIN0
  6
CONTINUOUS
 62
3
100
AcDbCircle
 10
284.7293651463668
 20
194.9187701305839
 30
0.0000000000000000
 40
10.00000000000000
100
AcDbArc
 50
300.0000000001273
 51
330.0000000000898
  0
ARC
  5
55
100
AcDbEntity
  8
MAIN0
  6
CONTINUOUS
 62
3
100
AcDbCircle
 10
286.9255175690769
 20
192.7226177078809
 30
0.0000000000000000
 40
10.00000000000000
100
AcDbArc
 50
300.0000000001270
 51
330.0000000000898
  0
ARC
  5
56
100
AcDbEntity
  8
MAIN0
  6
CONTINUOUS
 62
3
100
AcDbCircle
 10
337.9011249065108
 20
151.6174999414797
 30
0.0000000000000000
 40
10.00000000000000
100
AcDbArc
 50
60.00000000012726
 51
90.00000000008977
  0
ARC
  5
57
100
AcDbEntity
  8
MAIN0
  6
CONTINUOUS
 62
3
100
AcDbCircle
 10
338.7049724837993
 20
154.6174999414809
 30
0.0000000000000000
 40
10.00000000000000
100
AcDbArc
 50
60.00000000012695
 51
90.00000000008977
  0
ARC
  5
58
100
AcDbEntity
  8
MAIN0
  6
CONTINUOUS
 62
3
100
AcDbCircle
 10
309.7293651464947
 20
151.6174999414356
 30
0.0000000000000000
 40
10.00000000000000
100
AcDbArc
 50
90.00000000008977
 51
120.0000000000000
  0
ARC
  5
59
100
AcDbEntity
  8
MAIN0
  6
CONTINUOUS
 62
3
100
AcDbCircle
 10
308.9255175691955
 20
154.6174999414342
 30
0.0000000000000000
 40
10.00000000000000
100
AcDbArc
 50
90.00000000008987
 51
120.0000000000000
  0
ARC
  5
5A
100
AcDbEntity
  8
MAIN0
  6
CONTINUOUS
 62
3
100
AcDbCircle
 10
348.8152450263369
 20
219.3162297522397
 30
0.0000000000000000
 40
10.00000000000000
100
AcDbArc
 50
180.0000000001272
 51
210.0000000000897
  0
ARC
  5
5B
100
AcDbEntity
  8
MAIN0
  6
CONTINUOUS
 62
3
100
AcDbCircle
 10
345.8152450263382
 20
218.5123821749416
 30
0.0000000000000000
 40
10.00000000000000
100
AcDbArc
 50
180.0000000001270
 51
210.0000000000897
  0
ARC
  5
5C
100
AcDbEntity
  8
MAIN0
  6
CONTINUOUS
 62
3
100
AcDbCircle
 10
362.9011249063831
 20
194.9187701307756
 30
0.0000000000000000
 40
10.00000000000000
100
AcDbArc
 50
210.0000000000897
 51
239.9999999999999
  0
ARC
  5
5D
100
AcDbEntity
  8
MAIN0
  6
CONTINUOUS
 62
3
100
AcDbCircle
 10
360.7049724836807
 20
192.7226177080646
 30
0.0000000000000000
 40
10.00000000000000
100
AcDbArc
 50
210.0000000000898
 51
239.9999999999999
  0
CIRCLE
  5
5E
100
AcDbEntity
  8
MAIN0
  6
HIDDEN
 62
3
100
AcDbCircle
 10
64.92758981705401
 20
188.6174999422399
 30
0.0000000000000000
 40
2.000000000000000
  0
ARC
  5
5F
100
AcDbEntity
  8
MAIN0
  6
CONTINUOUS
 62
3
100
AcDbCircle
 10
83.42758981719663
 20
188.6174999422885
 30
0.0000000000000000
 40
8.499999999904659
100
AcDbArc
 50
130.8483852382894
 51
169.1516147648487
  0
ARC
  5
60
100
AcDbEntity
  8
MAIN0
  6
CONTINUOUS
 62
3
100
AcDbCircle
 10
83.42758981719663
 20
188.6174999422885
 30
0.0000000000000000
 40
8.499999999904659
100
AcDbArc
 50
10.84838524043824
 51
49.15161475988374
  0
ARC
  5
61
100
AcDbEntity
  8
MAIN0
  6
CONTINUOUS
 62
3
100
AcDbCircle
 10
83.42758981719663
 20
188.6174999422885
 30
0.0000000000000000
 40
8.499999999904659
100
AcDbArc
 50
250.8483852352487
 51
289.1516147612898
  0
SPLINE
  5
62
100
AcDbEntity
  8
MAIN0
  6
CONTINUOUS
 62
3
100
AcDbSpline
210
0.0000000000000000
220
0.0000000000000000
230
1.000000000000000
 70
     8
 71
     3
 72
    12
 73
     8
 74
     0
 42
1.000000000000000e-007
 43
1.000000000000000e-007
 12
-0.1722098345624801
 22
-1.028759089498877
 32
0.0000000000000000
 13
1.001200925674283
 23
0.05126445935681545
 33
0.0000000000000000
 40
0.0000000000000000
 40
0.0000000000000000
 40
0.0000000000000000
 40
0.0000000000000000
 40
6.335312754337521
 40
11.11411840836158
 40
17.60789233394485
 40
21.74046937178575
 40
33.71585248758434
 40
33.71585248758434
 40
33.71585248758434
 40
33.71585248758434
 10
210.9098366313792
 20
241.9104111070562
 30
0.0000000000000000
 10
210.5461689109371
 20
239.7379075801086
 30
0.0000000000000000
 10
209.9081820801331
 20
235.9266574686524
 30
0.0000000000000000
 10
213.9854438956331
 20
230.7777928659566
 30
0.0000000000000000
 10
209.8204118038188
 20
225.0052569824385
 30
0.0000000000000000
 10
217.0655698409756
 20
219.8556669481610
 30
0.0000000000000000
 10
222.4413380464916
 20
220.1309222377001
 30
0.0000000000000000
 10
226.4379262667721
 20
220.3355594180408
 30
0.0000000000000000
  0
LINE
  5
63
100
AcDbEntity
  8
MAIN0
  6
CONTINUOUS
 62
3
100
AcDbLine
 10
227.4379262667721
 20
222.1104111070096
 30
0.0000000000000000
 11
227.2379262667722
 21
221.9104111070096
 31
0.0000000000000000
  0
LINE
  5
64
100
AcDbEntity
  8
MAIN1
  6
CENTER
 62
3
100
AcDbLine
 10
241.4683536042020
 20
188.6174999413562
 30
0.0000000000000000
 11
169.0355711325374
 21
188.6174999413562
 31
0.0000000000000000
  0
DIMENSION
  5
6D
100
AcDbEntity
  8
MAIN0
  6
CONTINUOUS
 62
3
100
AcDbDimension
  2
*D0
 10
167.3379262667722
 20
202.1174999413562
 30
0.0000000000000000
 11
166.8379262667722
 21
181.5424998042655
 31
0.0000000000000000
 70
32
  1
\A1;\U+220527h7\H0.903226x;\S　0^ －0.021;
  3
MAIN001
100
AcDbAlignedDimension
 13
176.2235669128722
 23
175.1174999413562
 33
0.0000000000000000
 14
176.2235669128722
 24
202.1174999413562
 34
0.0000000000000000
 50
90.00000000000000
100
AcDbRotatedDimension
1001
ACAD
1000
DSTYLE
1002
{
1070
   173
1070
     1
1070
     6
1000
_OPEN
1070
     7
1000
_OPEN
1070
    41
1040
2.000000
1070
   272
1070
     3
1070
    47
1040
0.000000
1070
    48
1040
0.021000
1070
    71
1070
     1
1070
   340
1005
6E
1002
}
  0
INSERT
  5
76
100
AcDbEntity
  8
MAIN0
  6
CONTINUOUS
 62
3
100
AcDbBlockReference
  2
D1
 10
169.0355711325374
 20
188.6174999413562
 30
0.0000000000000000
 50
0.0000000000000000
  0
INSERT
  5
7E
100
AcDbEntity
  8
MAIN0
  6
CONTINUOUS
 62
3
100
AcDbBlockReference
  2
D2
 10
169.0355711325374
 20
188.6174999413562
 30
0.0000000000000000
 50
0.0000000000000000
  0
INSERT
  5
86
100
AcDbEntity
  8
MAIN0
  6
CONTINUOUS
 62
3
100
AcDbBlockReference
  2
D3
 10
169.0355711325374
 20
188.6174999413562
 30
0.0000000000000000
 50
0.0000000000000000
  0
DIMENSION
  5
91
100
AcDbEntity
  8
MAIN0
  6
CONTINUOUS
 62
3
100
AcDbDimension
  2
*D4
 10
179.8379262667722
 20
226.1174999413562
 30
0.0000000000000000
 11
181.8379262667722
 21
226.6174999413562
 31
0.0000000000000000
 70
32
  3
MAIN001
100
AcDbAlignedDimension
 13
183.8379262667722
 23
214.7174999413562
 33
0.0000000000000000
 14
179.8379262667722
 24
214.7174999413562
 34
0.0000000000000000
100
AcDbRotatedDimension
1001
ACAD
1000
DSTYLE
1002
{
1070
   173
1070
     1
1070
     6
1000
_OPEN
1070
     7
1000
_OPEN
1070
    41
1040
2.000000
1070
   287
1070
     0
1002
}
  0
DIMENSION
  5
9A
100
AcDbEntity
  8
MAIN0
  6
CONTINUOUS
 62
3
100
AcDbDimension
  2
*D5
 10
179.8379262667722
 20
256.1174999413561
 30
0.0000000000000000
 11
203.6379262667722
 21
256.6174999413561
 31
0.0000000000000000
 70
32
  3
MAIN001
100
AcDbAlignedDimension
 13
227.4379262667721
 23
241.7104111070562
 33
0.0000000000000000
 14
179.8379262667722
 24
214.7174999413562
 34
0.0000000000000000
100
AcDbRotatedDimension
1001
ACAD
1000
DSTYLE
1002
{
1070
   173
1070
     1
1070
     6
1000
_OPEN
1070
     7
1000
_OPEN
1070
    41
1040
2.000000
1002
}
  0
DIMENSION
  5
A5
100
AcDbEntity
  8
MAIN0
  6
CONTINUOUS
 62
3
100
AcDbDimension
  2
*D6
 10
224.4379262667721
 20
248.6174999413562
 30
0.0000000000000000
 11
225.9379262667721
 21
249.1174999413562
 31
0.0000000000000000
 70
32
  3
MAIN001
100
AcDbAlignedDimension
 13
227.4379262667721
 23
241.7104111070562
 33
0.0000000000000000
 14
224.4379262667721
 24
233.9104111070562
 34
0.0000000000000000
100
AcDbRotatedDimension
1001
ACAD
1000
DSTYLE
1002
{
1070
   173
1070
     1
1070
     6
1000
_OPEN
1070
     7
1000
_OPEN
1070
    41
1040
2.000000
1070
   287
1070
     0
1002
}
  0
DIMENSION
  5
AE
100
AcDbEntity
  8
MAIN0
  6
CONTINUOUS
 62
3
100
AcDbDimension
  2
*D7
 10
249.8379262667722
 20
188.6174999413562
 30
0.0000000000000000
 11
249.3379262667722
 21
210.0139555242276
 31
0.0000000000000000
 70
32
  1
\A1;MAX 42.8
  3
MAIN001
100
AcDbAlignedDimension
 13
229.2073686143167
 23
231.4104111070990
 33
0.0000000000000000
 14
241.4683536042020
 24
188.6174999413562
 34
0.0000000000000000
 50
90.00000000000000
100
AcDbRotatedDimension
1001
ACAD
1000
DSTYLE
1002
{
1070
   173
1070
     1
1070
     6
1000
_OPEN
1070
     7
1000
_OPEN
1070
    41
1040
2.000000
1002
}
  0
MTEXT
  5
AF
100
AcDbEntity
  8
MAIN0
  6
CONTINUOUS
 62
3
100
AcDbMText
 10
251.2215746913235
 20
202.5484181480639
 30
0.0000000000000000
 40
3.099999904632568
 41
0.0000000000000000
 71
     1
 72
     1
  1
{\H0.66x;{MIN 30.8}}
 11
6.123233995736766e-017
 21
1.000000000000000
 31
0.0000000000000000
  7
STANDARD
  0
DIMENSION
  5
B8
100
AcDbEntity
  8
MAIN0
  6
CONTINUOUS
 62
3
100
AcDbDimension
  2
*D8
 10
242.3379262667722
 20
224.9104111070765
 30
0.0000000000000000
 11
241.8379262667722
 21
234.0352498076974
 31
0.0000000000000000
 70
160
  3
MAIN001
100
AcDbAlignedDimension
 13
229.2477368930552
 23
237.9104111070961
 33
0.0000000000000000
 14
229.2477368930602
 24
224.9104111070976
 34
0.0000000000000000
 50
90.00000000000000
100
AcDbRotatedDimension
1001
ACAD
1000
DSTYLE
1002
{
1070
   173
1070
     1
1070
     6
1000
_OPEN
1070
     7
1000
_OPEN
1070
    41
1040
2.000000
1002
}
  0
DIMENSION
  5
C3
100
AcDbEntity
  8
MAIN0
  6
CONTINUOUS
 62
3
100
AcDbDimension
  2
*D9
 10
242.3379262667722
 20
237.9104111070942
 30
0.0000000000000000
 11
241.8379262667722
 21
239.9104111070752
 31
0.0000000000000000
 70
32
  3
MAIN001
100
AcDbAlignedDimension
 13
227.2379262667722
 23
241.9104111070562
 33
0.0000000000000000
 14
229.2477368930552
 24
237.9104111070961
 34
0.0000000000000000
 50
90.00000000000000
100
AcDbRotatedDimension
1001
ACAD
1000
DSTYLE
1002
{
1070
   173
1070
     1
1070
     6
1000
_OPEN
1070
     7
1000
_OPEN
1070
    41
1040
2.000000
1070
   287
1070
     0
1002
}
  0
DIMENSION
  5
CE
100
AcDbEntity
  8
MAIN0
  6
CONTINUOUS
 62
3
100
AcDbDimension
  2
*D10
 10
234.8379262667722
 20
228.9104111071362
 30
0.0000000000000000
 11
234.3379262667722
 21
248.6174999413562
 31
0.0000000000000000
 70
160
  1
\A1;5H8
  3
MAIN001
100
AcDbAlignedDimension
 13
227.2379262667721
 23
233.9104111070562
 33
0.0000000000000000
 14
227.2379262667745
 24
228.9104111071362
 34
0.0000000000000000
 50
90.00000000000000
100
AcDbRotatedDimension
1001
ACAD
1000
DSTYLE
1002
{
1070
   173
1070
     1
1070
     6
1000
_OPEN
1070
     7
1000
_OPEN
1070
    41
1040
2.000000
1070
   287
1070
     0
1002
}
  0
DIMENSION
  5
D9
100
AcDbEntity
  8
MAIN0
  6
CONTINUOUS
 62
3
100
AcDbDimension
  2
*D11
 10
174.8379262667722
 20
128.6174999413562
 30
0.0000000000000000
 11
177.3379262667722
 21
129.1174999413562
 31
0.0000000000000000
 70
32
  3
MAIN001
100
AcDbAlignedDimension
 13
179.8379262667722
 23
165.1174999413562
 33
0.0000000000000000
 14
174.8379262667722
 24
175.9174999413561
 34
0.0000000000000000
100
AcDbRotatedDimension
1001
ACAD
1000
DSTYLE
1002
{
1070
   173
1070
     1
1070
     6
1000
_OPEN
1070
     7
1000
_OPEN
1070
    41
1040
2.000000
1070
   287
1070
     0
1002
}
  0
DIMENSION
  5
E2
100
AcDbEntity
  8
MAIN0
  6
CONTINUOUS
 62
3
100
AcDbDimension
  2
*D12
 10
179.8379262667722
 20
128.6174999413562
 30
0.0000000000000000
 11
203.1379262667722
 21
129.1174999413562
 31
0.0000000000000000
 70
32
  3
MAIN001
100
AcDbAlignedDimension
 13
226.4379262667721
 23
153.1325666963562
 33
0.0000000000000000
 14
179.8379262667722
 24
165.1174999413562
 34
0.0000000000000000
100
AcDbRotatedDimension
1001
ACAD
1000
DSTYLE
1002
{
1070
   173
1070
     1
1070
     6
1000
_OPEN
1070
     7
1000
_OPEN
1070
    41
1040
2.000000
1002
}
  0
DIMENSION
  5
ED
100
AcDbEntity
  8
MAIN0
  6
CONTINUOUS
 62
3
100
AcDbDimension
  2
*D13
 10
226.4379262667721
 20
128.6174999413562
 30
0.0000000000000000
 11
234.8379262667722
 21
129.1174999413562
 31
0.0000000000000000
 70
160
  3
MAIN001
100
AcDbAlignedDimension
 13
226.9379262667721
 23
176.7341840793561
 33
0.0000000000000000
 14
226.4379262667721
 24
153.1325666963562
 34
0.0000000000000000
100
AcDbRotatedDimension
1001
ACAD
1000
DSTYLE
1002
{
1070
   173
1070
     1
1070
     6
1000
_OPEN
1070
     7
1000
_OPEN
1070
    41
1040
2.000000
1070
   287
1070
     0
1002
}
  0
LINE
  5
EE
100
AcDbEntity
  8
MAIN0
  6
CENTER
 62
3
100
AcDbLine
 10
323.8152450265131
 20
53.70622860870236
 30
0.0000000000000000
 11
323.8152450265131
 21
117.9685123421642
 31
0.0000000000000000
  0
LEADER
  5
EF
100
AcDbEntity
  8
MAIN0
  6
CONTINUOUS
 62
3
100
AcDbLeader
  3
MAIN001
 73
     0
 75
     1
 40
3.099999904632568
 41
62.89900004321339
 76
     3
 10
323.1526813362283
 20
168.3628360300254
 30
0.0000000000000000
 10
310.6477584828444
 20
125.8093446387462
 30
0.0000000000000000
 10
308.8607585355051
 20
125.8093446387462
 30
0.0000000000000000
340
F0
213
0.0000000000000000
223
-0.5000000000000000
233
0.0000000000000000
1001
ACAD
1000
DSTYLE
1002
{
1070
   147
1040
0.0
1070
    77
1070
     1
1070
   173
1070
     1
1070
     6
1000
_OPEN
1070
     7
1000
_OPEN
1002
}
  0
MTEXT
  5
F0
102
{ACAD_REACTORS
330
EF
102
}
100
AcDbEntity
  8
MAIN0
  6
CONTINUOUS
 62
3
100
AcDbMText
 10
245.9617584922917
 20
129.4093445433788
 30
0.0000000000000000
 40
3.099999904632568
 41
0.0000000000000000
 71
     1
 72
     1
  1
{\H0.71x;{十字穴付皿小ねじ 3-M2.5×6\PCross Recessed Flat Head Screw}}
 11
1.000000000000000
 21
0.0000000000000000
 31
0.0000000000000000
  7
KNJYOKO
  0
DIMENSION
  5
F7
100
AcDbEntity
  8
MAIN0
  6
CONTINUOUS
 62
3
100
AcDbDimension
  2
*D14
 10
329.6426601405915
 20
205.6480969094245
 30
0.0000000000000000
 11
320.0097658682914
 21
179.0404266219004
 31
0.0000000000000000
 70
163
  3
MAIN001
100
AcDbDiametricDimension
 15
317.9878299122182
 25
171.5869029734445
 35
0.0000000000000000
1001
ACAD
1000
DSTYLE
1002
{
1070
   287
1070
     2
1070
   173
1070
     1
1070
     6
1000
_OPEN
1070
     7
1000
_OPEN
1070
    41
1040
2.000000
1002
}
  0
ARC
  5
F8
100
AcDbEntity
  8
MAIN0
  6
CONTINUOUS
 62
3
100
AcDbCircle
 10
323.8152450264048
 20
188.6174999414345
 30
0.0000000000000000
 40
53.93570432261246
100
AcDbArc
 50
98.85224760464631
 51
117.8954134695898
  0
DIMENSION
  5
FF
100
AcDbEntity
  8
MAIN0
  6
CONTINUOUS
 62
3
100
AcDbDimension
  2
*D15
 10
323.8152450264048
 20
188.6174999414345
 30
0.0000000000000000
 11
297.8404839640183
 21
246.3340503444281
 31
0.0000000000000000
 70
164
  1
\A1;\U+2205108
  3
MAIN001
100
AcDbRadialDimension
 15
302.0695392971670
 25
237.9752195313190
 35
0.0000000000000000
1001
ACAD
1000
DSTYLE
1002
{
1070
   173
1070
     1
1070
     6
1000
_OPEN
1070
     7
1000
_OPEN
1070
    41
1040
2.000000
1002
}
  0
DIMENSION
  5
107
100
AcDbEntity
  8
MAIN0
  6
CONTINUOUS
 62
3
100
AcDbDimension
  2
*D16
 10
323.8152450262732
 20
248.8718922195172
 30
0.0000000000000000
 11
354.1924411651998
 21
241.2323470458827
 31
0.0000000000000000
 70
162
  3
MAIN001
100
AcDb2LineAngularDimension
 13
362.2067429646266
 23
210.7828416110283
 33
0.0000000000000000
 14
361.3407175608458
 24
210.2828416110220
 34
0.0000000000000000
 15
323.8152450264067
 25
188.6174999414335
 35
0.0000000000000000
 16
353.9424411652019
 26
240.7993343439893
 36
0.0000000000000000
1001
ACAD
1000
DSTYLE
1002
{
1070
   173
1070
     1
1070
     6
1000
_OPEN
1070
     7
1000
_OPEN
1070
    41
1040
2.000000
1002
}
  0
ARC
  5
108
100
AcDbEntity
  8
MAIN0
  6
CONTINUOUS
 62
3
100
AcDbCircle
 10
83.42758981705407
 20
188.6174999422062
 30
0.0000000000000000
 40
6.900000000000050
100
AcDbArc
 50
60.48058572530606
 51
119.5194142749299
  0
ARC
  5
109
100
AcDbEntity
  8
MAIN0
  6
CONTINUOUS
 62
3
100
AcDbCircle
 10
83.42758981705401
 20
188.6174999422062
 30
0.0000000000000000
 40
6.900000000000050
100
AcDbArc
 50
180.4805857253060
 51
239.5194142749299
  0
ARC
  5
10A
100
AcDbEntity
  8
MAIN0
  6
CONTINUOUS
 62
3
100
AcDbCircle
 10
83.42758981705410
 20
188.6174999422062
 30
0.0000000000000000
 40
6.900000000000050
100
AcDbArc
 50
300.4805857253061
 51
359.5194142749299
  0
LINE
  5
10B
100
AcDbEntity
  8
MAIN1
  6
CONTINUOUS
 62
7
100
AcDbLine
 10
189.4379262667721
 20
212.1174999413562
 30
0.0000000000000000
 11
184.2379262667722
 21
212.1174999413562
 31
0.0000000000000000
  0
LINE
  5
10C
100
AcDbEntity
  8
MAIN1
  6
CONTINUOUS
 62
7
100
AcDbLine
 10
179.8379262667722
 20
165.1174999413562
 30
0.0000000000000000
 11
189.4379262667721
 21
165.1174999413562
 31
0.0000000000000000
  0
LINE
  5
10D
100
AcDbEntity
  8
MAIN1
  6
CONTINUOUS
 62
7
100
AcDbLine
 10
189.4379262667722
 20
165.1174999413562
 30
0.0000000000000000
 11
189.8379262667722
 21
165.5174999413562
 31
0.0000000000000000
  0
LINE
  5
10E
100
AcDbEntity
  8
MAIN1
  6
CONTINUOUS
 62
7
100
AcDbLine
 10
189.8379262667723
 20
211.7174999413562
 30
0.0000000000000000
 11
189.4379262667723
 21
212.1174999413562
 31
0.0000000000000000
  0
ARC
  5
10F
100
AcDbEntity
  8
MAIN1
  6
CONTINUOUS
 62
7
100
AcDbCircle
 10
179.4379262667721
 20
174.7174999413562
 30
0.0000000000000000
 40
0.4000000000000341
100
AcDbArc
 50
0.0000000000000000
 51
90.00000000000000
  0
ARC
  5
110
100
AcDbEntity
  8
MAIN1
  6
CONTINUOUS
 62
7
100
AcDbCircle
 10
179.4379262667721
 20
202.5174999413563
 30
0.0000000000000000
 40
0.4000000000000341
100
AcDbArc
 50
270.0000000000000
 51
360.0000000000000
  0
LINE
  5
111
100
AcDbEntity
  8
MAIN1
  6
CONTINUOUS
 62
7
100
AcDbLine
 10
179.4379262667721
 20
202.1174999413562
 30
0.0000000000000000
 11
176.2235669128722
 21
202.1174999413562
 31
0.0000000000000000
  0
LINE
  5
112
100
AcDbEntity
  8
MAIN1
  6
CONTINUOUS
 62
7
100
AcDbLine
 10
176.2235669128722
 20
175.1174999413562
 30
0.0000000000000000
 11
179.4379262667721
 21
175.1174999413562
 31
0.0000000000000000
  0
LINE
  5
113
100
AcDbEntity
  8
MAIN1
  6
CONTINUOUS
 62
7
100
AcDbLine
 10
176.2235669128722
 20
202.1174999413562
 30
0.0000000000000000
 11
174.8379262667722
 21
201.3174999413563
 31
0.0000000000000000
  0
LINE
  5
114
100
AcDbEntity
  8
MAIN1
  6
CONTINUOUS
 62
7
100
AcDbLine
 10
174.8379262667722
 20
175.9174999413561
 30
0.0000000000000000
 11
176.2235669128721
 21
175.1174999413561
 31
0.0000000000000000
  0
ARC
  5
115
100
AcDbEntity
  8
MAIN1
  6
CONTINUOUS
 62
7
100
AcDbCircle
 10
184.2379262667722
 20
212.5174999413563
 30
0.0000000000000000
 40
0.4000000000000341
100
AcDbArc
 50
180.0000000000000
 51
270.0000000000000
  0
LINE
  5
116
100
AcDbEntity
  8
MAIN1
  6
CONTINUOUS
 62
7
100
AcDbLine
 10
183.8379262667722
 20
214.7174999413561
 30
0.0000000000000000
 11
183.4379262667723
 21
215.1174999413560
 31
0.0000000000000000
  0
LINE
  5
117
100
AcDbEntity
  8
MAIN1
  6
CONTINUOUS
 62
7
100
AcDbLine
 10
183.4379262667721
 20
215.1174999413562
 30
0.0000000000000000
 11
180.2379262667722
 21
215.1174999413562
 31
0.0000000000000000
  0
LINE
  5
118
100
AcDbEntity
  8
MAIN1
  6
CONTINUOUS
 62
7
100
AcDbLine
 10
180.2379262667721
 20
215.1174999413562
 30
0.0000000000000000
 11
179.8379262667721
 21
214.7174999413562
 31
0.0000000000000000
  0
LINE
  5
119
100
AcDbEntity
  8
MAIN1
  6
CONTINUOUS
 62
7
100
AcDbLine
 10
190.8379262667722
 20
212.1174999413562
 30
0.0000000000000000
 11
190.2379262667722
 21
212.1174999413562
 31
0.0000000000000000
  0
LINE
  5
11A
100
AcDbEntity
  8
MAIN1
  6
CONTINUOUS
 62
7
100
AcDbLine
 10
190.2379262667722
 20
165.1174999413562
 30
0.0000000000000000
 11
190.8379262667722
 21
165.1174999413562
 31
0.0000000000000000
  0
LINE
  5
11B
100
AcDbEntity
  8
MAIN1
  6
CONTINUOUS
 62
7
100
AcDbLine
 10
190.2379262667722
 20
212.1174999413561
 30
0.0000000000000000
 11
189.8379262667722
 21
211.7174999413562
 31
0.0000000000000000
  0
LINE
  5
11C
100
AcDbEntity
  8
MAIN1
  6
CONTINUOUS
 62
7
100
AcDbLine
 10
189.8379262667721
 20
165.5174999413562
 30
0.0000000000000000
 11
190.2379262667722
 21
165.1174999413562
 31
0.0000000000000000
  0
LINE
  5
11D
100
AcDbEntity
  8
MAIN1
  6
CONTINUOUS
 62
7
100
AcDbLine
 10
204.8379262667722
 20
240.6174999413562
 30
0.0000000000000000
 11
191.8379262667722
 21
240.6174999413562
 31
0.0000000000000000
  0
LINE
  5
11E
100
AcDbEntity
  8
MAIN1
  6
CONTINUOUS
 62
7
100
AcDbLine
 10
191.8379262667722
 20
240.6174999413561
 30
0.0000000000000000
 11
190.8379262667722
 21
239.6174999413561
 31
0.0000000000000000
  0
LINE
  5
11F
100
AcDbEntity
  8
MAIN1
  6
CONTINUOUS
 62
7
100
AcDbLine
 10
226.9379262667721
 20
209.1174999413562
 30
0.0000000000000000
 11
226.4379262667721
 21
209.1174999413562
 31
0.0000000000000000
  0
LINE
  5
120
100
AcDbEntity
  8
MAIN1
  6
CONTINUOUS
 62
7
100
AcDbLine
 10
213.9379262667721
 20
169.0291513993562
 30
0.0000000000000000
 11
213.6379262667720
 21
169.2889590205562
 31
0.0000000000000000
  0
LINE
  5
121
100
AcDbEntity
  8
MAIN1
  6
CONTINUOUS
 62
7
100
AcDbLine
 10
213.9379262667721
 20
166.9073891601562
 30
0.0000000000000000
 11
213.9379262667721
 21
169.0291513993562
 31
0.0000000000000000
  0
ARC
  5
122
100
AcDbEntity
  8
MAIN1
  6
CONTINUOUS
 62
7
100
AcDbCircle
 10
214.1254262667721
 20
166.9218229168563
 30
0.0000000000000000
 40
0.1880547349400051
100
AcDbArc
 50
184.4019496523000
 51
273.8112610495000
  0
LINE
  5
123
100
AcDbEntity
  8
MAIN1
  6
CONTINUOUS
 62
7
100
AcDbLine
 10
227.4379262667721
 20
166.7341840793561
 30
0.0000000000000000
 11
214.1379262667721
 21
166.7341840793561
 31
0.0000000000000000
  0
LINE
  5
124
100
AcDbEntity
  8
MAIN1
  6
CONTINUOUS
 62
7
100
AcDbLine
 10
214.1379262667721
 20
157.2079046377562
 30
0.0000000000000000
 11
227.4379262667721
 21
157.2079046377562
 31
0.0000000000000000
  0
ARC
  5
125
100
AcDbEntity
  8
MAIN1
  6
CONTINUOUS
 62
7
100
AcDbCircle
 10
214.1254262667721
 20
157.0202658002562
 30
0.0000000000000000
 40
0.1880547349399657
100
AcDbArc
 50
86.18873895050000
 51
175.5980503477000
  0
LINE
  5
126
100
AcDbEntity
  8
MAIN1
  6
CONTINUOUS
 62
7
100
AcDbLine
 10
213.9379262667721
 20
154.9129373177562
 30
0.0000000000000000
 11
213.9379262667721
 21
157.0346995569562
 31
0.0000000000000000
  0
LINE
  5
127
100
AcDbEntity
  8
MAIN1
  6
CONTINUOUS
 62
7
100
AcDbLine
 10
213.6379262667721
 20
154.6531296965562
 30
0.0000000000000000
 11
213.9379262667722
 21
154.9129373177562
 31
0.0000000000000000
  0
LINE
  5
128
100
AcDbEntity
  8
MAIN1
  6
CONTINUOUS
 62
7
100
AcDbLine
 10
213.6379262667721
 20
154.6531296965562
 30
0.0000000000000000
 11
205.2379262667722
 21
154.6531296965562
 31
0.0000000000000000
  0
LINE
  5
129
100
AcDbEntity
  8
MAIN1
  6
CONTINUOUS
 62
7
100
AcDbLine
 10
204.9379262667720
 20
154.9129373177561
 30
0.0000000000000000
 11
205.2379262667721
 21
154.6531296965561
 31
0.0000000000000000
  0
LINE
  5
12A
100
AcDbEntity
  8
MAIN1
  6
CONTINUOUS
 62
7
100
AcDbLine
 10
204.9379262667721
 20
169.0291513993562
 30
0.0000000000000000
 11
204.9379262667721
 21
154.9129373177562
 31
0.0000000000000000
  0
LINE
  5
12B
100
AcDbEntity
  8
MAIN1
  6
CONTINUOUS
 62
7
100
AcDbLine
 10
205.2379262667722
 20
169.2889590205562
 30
0.0000000000000000
 11
204.9379262667721
 21
169.0291513993562
 31
0.0000000000000000
  0
LINE
  5
12C
100
AcDbEntity
  8
MAIN1
  6
CONTINUOUS
 62
7
100
AcDbLine
 10
213.6379262667721
 20
169.2889590205562
 30
0.0000000000000000
 11
205.2379262667722
 21
169.2889590205562
 31
0.0000000000000000
  0
LINE
  5
12D
100
AcDbEntity
  8
MAIN1
  6
CONTINUOUS
 62
7
100
AcDbLine
 10
213.9379262667721
 20
169.9969314906562
 30
0.0000000000000000
 11
213.9379262667721
 21
169.0291513993562
 31
0.0000000000000000
  0
LINE
  5
12E
100
AcDbEntity
  8
MAIN1
  6
CONTINUOUS
 62
7
100
AcDbLine
 10
204.9379262667721
 20
169.0291513993562
 30
0.0000000000000000
 11
204.9379262667721
 21
169.9969314906562
 31
0.0000000000000000
  0
LINE
  5
12F
100
AcDbEntity
  8
MAIN1
  6
CONTINUOUS
 62
7
100
AcDbLine
 10
227.4379262667721
 20
176.7341840793561
 30
0.0000000000000000
 11
226.4379262667721
 21
176.7341840793561
 31
0.0000000000000000
  0
LINE
  5
130
100
AcDbEntity
  8
MAIN1
  6
CONTINUOUS
 62
7
100
AcDbLine
 10
226.4379262667721
 20
173.2341840793561
 30
0.0000000000000000
 11
227.4379262667721
 21
173.2341840793561
 31
0.0000000000000000
  0
LINE
  5
131
100
AcDbEntity
  8
MAIN1
  6
CONTINUOUS
 62
7
100
AcDbLine
 10
227.4379262667721
 20
170.7341840793561
 30
0.0000000000000000
 11
226.4379262667721
 21
170.7341840793561
 31
0.0000000000000000
  0
LINE
  5
132
100
AcDbEntity
  8
MAIN1
  6
CONTINUOUS
 62
7
100
AcDbLine
 10
204.9379262667721
 20
239.9748509244563
 30
0.0000000000000000
 11
204.9379262667721
 21
241.9104111070562
 31
0.0000000000000000
  0
LINE
  5
133
100
AcDbEntity
  8
MAIN1
  6
CONTINUOUS
 62
7
100
AcDbLine
 10
204.9379262667721
 20
241.9104111070562
 30
0.0000000000000000
 11
205.2379262667722
 21
241.9104111070562
 31
0.0000000000000000
  0
LINE
  5
134
100
AcDbEntity
  8
MAIN1
  6
CONTINUOUS
 62
7
100
AcDbLine
 10
227.4379262667721
 20
241.7104111070562
 30
0.0000000000000000
 11
227.4379262667721
 21
234.1104111070564
 31
0.0000000000000000
  0
LINE
  5
135
100
AcDbEntity
  8
MAIN1
  6
CONTINUOUS
 62
7
100
AcDbLine
 10
227.4379262667721
 20
228.7104111071362
 30
0.0000000000000000
 11
227.4379262667721
 21
222.1104111070096
 31
0.0000000000000000
  0
LINE
  5
136
100
AcDbEntity
  8
MAIN1
  6
CONTINUOUS
 62
7
100
AcDbLine
 10
179.8379262667722
 20
188.6174999413562
 30
0.0000000000000000
 11
183.8379262667722
 21
188.6174999413562
 31
0.0000000000000000
  0
LINE
  5
137
100
AcDbEntity
  8
MAIN1
  6
CONTINUOUS
 62
7
100
AcDbLine
 10
179.8379262667722
 20
184.2140261175562
 30
0.0000000000000000
 11
183.8379262667722
 21
184.2140261175562
 31
0.0000000000000000
  0
LINE
  5
138
100
AcDbEntity
  8
MAIN1
  6
CONTINUOUS
 62
7
100
AcDbLine
 10
179.8379262667722
 20
168.1886256439562
 30
0.0000000000000000
 11
183.8379262667722
 21
168.1886256439562
 31
0.0000000000000000
  0
LINE
  5
139
100
AcDbEntity
  8
MAIN1
  6
CONTINUOUS
 62
7
100
AcDbLine
 10
183.8379262667722
 20
168.1886256439562
 30
0.0000000000000000
 11
183.8379262667722
 21
188.6174999413562
 31
0.0000000000000000
  0
LINE
  5
13A
100
AcDbEntity
  8
MAIN1
  6
CONTINUOUS
 62
7
100
AcDbLine
 10
189.8379262667722
 20
211.7174999413562
 30
0.0000000000000000
 11
189.8379262667722
 21
165.5174999413563
 31
0.0000000000000000
  0
LINE
  5
13B
100
AcDbEntity
  8
MAIN1
  6
CONTINUOUS
 62
7
100
AcDbLine
 10
174.8379262667722
 20
201.3174999413562
 30
0.0000000000000000
 11
174.8379262667722
 21
175.9174999413561
 31
0.0000000000000000
  0
LINE
  5
13C
100
AcDbEntity
  8
MAIN1
  6
CONTINUOUS
 62
7
100
AcDbLine
 10
183.8379262667722
 20
214.7174999413562
 30
0.0000000000000000
 11
183.8379262667722
 21
205.9087335269256
 31
0.0000000000000000
  0
LINE
  5
13D
100
AcDbEntity
  8
MAIN1
  6
CONTINUOUS
 62
7
100
AcDbLine
 10
213.9379262667721
 20
170.1862055118562
 30
0.0000000000000000
 11
213.9379262667721
 21
170.0428411282562
 31
0.0000000000000000
  0
SPLINE
  5
13E
100
AcDbEntity
  8
MAIN1
  6
CONTINUOUS
 62
7
100
AcDbSpline
210
0.0000000000000000
220
0.0000000000000000
230
1.000000000000000
 70
     8
 71
     3
 72
    10
 73
     6
 74
     0
 42
1.000000000000000e-007
 43
1.000000000000000e-007
 12
0.3190865717024281
 22
0.0000000000000000
 32
0.0000000000000000
 13
4.547473508864641e-013
 23
-0.2989174657694775
 33
0.0000000000000000
 40
0.0000000000000000
 40
0.0000000000000000
 40
0.0000000000000000
 40
0.0000000000000000
 40
0.5000000000000000
 40
0.5011000000000000
 40
1.000000000000000
 40
1.000000000000000
 40
1.000000000000000
 40
1.000000000000000
 10
213.7379262667691
 20
170.3758795203258
 30
0.0000000000000000
 10
213.7911073620529
 20
170.3758795203258
 30
0.0000000000000000
 10
213.8430109492263
 20
170.3549642242029
 30
0.0000000000000000
 10
213.9165162381669
 20
170.2848117645636
 30
0.0000000000000000
 10
213.9379262667708
 20
170.2359154863916
 30
0.0000000000000000
 10
213.9379262667709
 20
170.1862055118341
 30
0.0000000000000000
  0
LINE
  5
13F
100
AcDbEntity
  8
MAIN1
  6
CONTINUOUS
 62
7
100
AcDbLine
 10
205.1379262667721
 20
170.3758795203562
 30
0.0000000000000000
 11
213.7379262667722
 21
170.3758795203562
 31
0.0000000000000000
  0
SPLINE
  5
140
100
AcDbEntity
  8
MAIN1
  6
CONTINUOUS
 62
7
100
AcDbSpline
210
0.0000000000000000
220
0.0000000000000000
230
1.000000000000000
 70
     8
 71
     3
 72
    10
 73
     6
 74
     0
 42
1.000000000000000e-007
 43
1.000000000000000e-007
 12
0.0000000000000000
 22
0.2983281691263073
 32
0.0000000000000000
 13
0.3198671634777384
 23
0.0000000000000000
 33
0.0000000000000000
 40
0.0000000000000000
 40
0.0000000000000000
 40
0.0000000000000000
 40
0.0000000000000000
 40
0.5000000000000000
 40
0.5011000000000000
 40
1.000000000000000
 40
1.000000000000000
 40
1.000000000000000
 40
1.000000000000000
 10
204.9379262667691
 20
170.1862055118337
 30
0.0000000000000000
 10
204.9379262667691
 20
170.2359268733547
 30
0.0000000000000000
 10
204.9592223752625
 20
170.2846530643345
 30
0.0000000000000000
 10
205.0327550190294
 20
170.3549314478439
 30
0.0000000000000000
 10
205.0847323574827
 20
170.3758795203263
 30
0.0000000000000000
 10
205.1379262667691
 20
170.3758795203263
 30
0.0000000000000000
  0
LINE
  5
141
100
AcDbEntity
  8
MAIN1
  6
CONTINUOUS
 62
7
100
AcDbLine
 10
204.9379262667721
 20
169.9969314906562
 30
0.0000000000000000
 11
204.9379262667721
 21
170.1862055118562
 31
0.0000000000000000
  0
LINE
  5
142
100
AcDbEntity
  8
MAIN1
  6
CONTINUOUS
 62
7
100
AcDbLine
 10
204.8379262667722
 20
167.0680983711562
 30
0.0000000000000000
 11
204.9379262667721
 21
167.0680983711562
 31
0.0000000000000000
  0
LINE
  5
143
100
AcDbEntity
  8
MAIN1
  6
CONTINUOUS
 62
7
100
AcDbLine
 10
204.8379262667722
 20
167.0680983711562
 30
0.0000000000000000
 11
204.8379262667722
 21
158.4078443332562
 31
0.0000000000000000
  0
LINE
  5
144
100
AcDbEntity
  8
MAIN1
  6
CONTINUOUS
 62
7
100
AcDbLine
 10
204.8379262667722
 20
158.4078443332562
 30
0.0000000000000000
 11
204.9379262667721
 21
158.4078443332562
 31
0.0000000000000000
  0
LINE
  5
145
100
AcDbEntity
  8
MAIN1
  6
CONTINUOUS
 62
7
100
AcDbLine
 10
226.0379262667722
 20
157.2051012734562
 30
0.0000000000000000
 11
214.1020885767721
 21
157.2051012734562
 31
0.0000000000000000
  0
ELLIPSE
  5
146
100
AcDbEntity
  8
MAIN1
  6
CONTINUOUS
 62
7
100
AcDbEllipse
 10
238.4379262667721
 20
188.6174999413562
 30
0.0000000000000000
 11
50.22814296703137
 21
50.22814296703167
 31
0.0000000000000000
210
0.0000000000000000
220
0.0000000000000000
230
1.000000000000000
 40
0.2679491924000000
 41
4.165632929122769
 42
4.209808211957366
  0
LINE
  5
147
100
AcDbEntity
  8
MAIN1
  6
CONTINUOUS
 62
7
100
AcDbLine
 10
200.8379262667722
 20
151.0063993229562
 30
0.0000000000000000
 11
223.8199014105721
 21
151.0063993229562
 31
0.0000000000000000
  0
LINE
  5
148
100
AcDbEntity
  8
MAIN1
  6
CONTINUOUS
 62
7
100
AcDbLine
 10
200.8379262667722
 20
149.6174999413562
 30
0.0000000000000000
 11
200.8379262667722
 21
151.0063993229562
 31
0.0000000000000000
  0
LINE
  5
149
100
AcDbEntity
  8
MAIN1
  6
CONTINUOUS
 62
7
100
AcDbLine
 10
199.8379262667721
 20
148.6174999413562
 30
0.0000000000000000
 11
200.8379262667721
 21
149.6174999413562
 31
0.0000000000000000
  0
LINE
  5
14A
100
AcDbEntity
  8
MAIN1
  6
CONTINUOUS
 62
7
100
AcDbLine
 10
199.8379262667722
 20
148.6174999413562
 30
0.0000000000000000
 11
191.8379262667722
 21
148.6174999413562
 31
0.0000000000000000
  0
LINE
  5
14B
100
AcDbEntity
  8
MAIN1
  6
CONTINUOUS
 62
7
100
AcDbLine
 10
190.8379262667722
 20
179.8425108015561
 30
0.0000000000000000
 11
200.8379262667722
 21
179.8425108015561
 31
0.0000000000000000
  0
ELLIPSE
  5
14C
100
AcDbEntity
  8
MAIN1
  6
CONTINUOUS
 62
7
100
AcDbEllipse
 10
238.4379262667721
 20
188.6174999413562
 30
0.0000000000000000
 11
-50.22814296703113
 21
50.22814296703162
 31
0.0000000000000000
210
0.0000000000000000
220
0.0000000000000000
230
1.000000000000000
 40
0.2679491924000000
 41
1.547639051131251
 42
1.591814333965850
  0
LINE
  5
14D
100
AcDbEntity
  8
MAIN1
  6
CONTINUOUS
 62
7
100
AcDbLine
 10
200.8379262667722
 20
237.3924890812562
 30
0.0000000000000000
 11
190.8379262667722
 21
237.3924890812562
 31
0.0000000000000000
  0
SPLINE
  5
14E
100
AcDbEntity
  8
MAIN1
  6
CONTINUOUS
 62
7
100
AcDbSpline
210
0.0000000000000000
220
0.0000000000000000
230
1.000000000000000
 70
     8
 71
     3
 72
     8
 73
     4
 74
     0
 42
1.000000000000000e-007
 43
1.000000000000000e-007
 12
684.6531968814670
 22
-684.6531968814088
 32
0.0000000000000000
 13
685.1187890447909
 23
-685.1187890445581
 33
0.0000000000000000
 40
0.0000000000000000
 40
0.0000000000000000
 40
0.0000000000000000
 40
0.0000000000000000
 40
0.001460093186462300
 40
0.001460093186462300
 40
0.001460093186462300
 40
0.001460093186462300
 10
190.8379262667692
 20
149.6174999414005
 30
0.0000000000000000
 10
191.1711454227212
 20
149.2842807854484
 30
0.0000000000000000
 10
191.5044805081686
 20
148.9509457000009
 30
0.0000000000000000
 10
191.8379262667692
 20
148.6174999414005
 30
0.0000000000000000
  0
LINE
  5
14F
100
AcDbEntity
  8
MAIN1
  6
CONTINUOUS
 62
7
100
AcDbLine
 10
190.8379262667722
 20
179.6570009998562
 30
0.0000000000000000
 11
190.8379262667722
 21
149.6174999413562
 31
0.0000000000000000
  0
LINE
  5
150
100
AcDbEntity
  8
MAIN1
  6
CONTINUOUS
 62
7
100
AcDbLine
 10
190.8379262667722
 20
179.6570009998562
 30
0.0000000000000000
 11
190.8379262667722
 21
236.5779988829562
 31
0.0000000000000000
  0
LINE
  5
151
100
AcDbEntity
  8
MAIN1
  6
CONTINUOUS
 62
7
100
AcDbLine
 10
223.8199014105722
 20
176.3255610801560
 30
0.0000000000000000
 11
223.4379262667721
 21
177.0120427105561
 31
0.0000000000000000
  0
LINE
  5
152
100
AcDbEntity
  8
MAIN1
  6
CONTINUOUS
 62
7
100
AcDbLine
 10
223.4379262667721
 20
186.2585160927561
 30
0.0000000000000000
 11
226.4379262667721
 21
183.6604398814561
 31
0.0000000000000000
  0
SPLINE
  5
153
100
AcDbEntity
  8
MAIN1
  6
CONTINUOUS
 62
7
100
AcDbSpline
210
0.0000000000000000
220
0.0000000000000000
230
1.000000000000000
 70
     8
 71
     3
 72
     8
 73
     4
 74
     0
 42
1.000000000000000e-007
 43
1.000000000000000e-007
 12
-0.9034044996994908
 22
0.4259436773643301
 32
0.0000000000000000
 13
-0.9047396108651356
 23
0.4287972013344188
 33
0.0000000000000000
 40
0.0000000000000000
 40
0.0000000000000000
 40
0.0000000000000000
 40
0.0000000000000000
 40
0.4424414407060791
 40
0.4424414407060791
 40
0.4424414407060791
 40
0.4424414407060791
 10
226.4379262667691
 20
173.9171763872222
 30
0.0000000000000000
 10
226.3046917373067
 20
173.9799947653131
 30
0.0000000000000000
 10
226.1713576990675
 20
174.0430252361503
 30
0.0000000000000000
 10
226.0379262667692
 20
174.1062644533267
 30
0.0000000000000000
  0
LINE
  5
154
100
AcDbEntity
  8
MAIN1
  6
CONTINUOUS
 62
7
100
AcDbLine
 10
200.8379262667722
 20
177.0120427105562
 30
0.0000000000000000
 11
223.4379262667721
 21
177.0120427105562
 31
0.0000000000000000
  0
LINE
  5
155
100
AcDbEntity
  8
MAIN1
  6
CONTINUOUS
 62
7
100
AcDbLine
 10
201.8379262667722
 20
186.2585160927561
 30
0.0000000000000000
 11
223.4379262667721
 21
186.2585160927561
 31
0.0000000000000000
  0
LINE
  5
156
100
AcDbEntity
  8
MAIN1
  6
CONTINUOUS
 62
7
100
AcDbLine
 10
226.4379262667721
 20
168.0264813893562
 30
0.0000000000000000
 11
214.3379262667722
 21
168.0264813893562
 31
0.0000000000000000
  0
LINE
  5
157
100
AcDbEntity
  8
MAIN1
  6
CONTINUOUS
 62
7
100
AcDbLine
 10
214.3379262667722
 20
168.0264813893563
 30
0.0000000000000000
 11
213.9379262667721
 21
168.1728915508563
 31
0.0000000000000000
  0
LINE
  5
158
100
AcDbEntity
  8
MAIN1
  6
CONTINUOUS
 62
7
100
AcDbLine
 10
226.0399633497721
 20
157.2079046377561
 30
0.0000000000000000
 11
226.0379262667722
 21
157.2051012734562
 31
0.0000000000000000
  0
LINE
  5
159
100
AcDbEntity
  8
MAIN1
  6
CONTINUOUS
 62
7
100
AcDbLine
 10
226.4379262667721
 20
153.1325666963562
 30
0.0000000000000000
 11
226.4379262667721
 21
157.2079046377562
 31
0.0000000000000000
  0
SPLINE
  5
15A
100
AcDbEntity
  8
MAIN1
  6
CONTINUOUS
 62
7
100
AcDbSpline
210
0.0000000000000000
220
0.0000000000000000
230
1.000000000000000
 70
     8
 71
     3
 72
     8
 73
     4
 74
     0
 42
1.000000000000000e-007
 43
1.000000000000000e-007
 12
0.6223180073607182
 22
0.7829416333900099
 32
0.0000000000000000
 13
0.6213996616727400
 23
0.7833137859621502
 33
0.0000000000000000
 40
0.0000000000000000
 40
0.0000000000000000
 40
0.0000000000000000
 40
0.0000000000000000
 40
0.6432311007562390
 40
0.6432311007562390
 40
0.6432311007562390
 40
0.6432311007562390
 10
226.0379262667692
 20
152.6288344394725
 30
0.0000000000000000
 10
226.1713576990675
 20
152.7967052423636
 30
0.0000000000000000
 10
226.3046917373067
 20
152.9646161001348
 30
0.0000000000000000
 10
226.4379262667691
 20
153.1325666963954
 30
0.0000000000000000
  0
LINE
  5
15B
100
AcDbEntity
  8
MAIN1
  6
CONTINUOUS
 62
7
100
AcDbLine
 10
223.4379262667721
 20
189.9187701306562
 30
0.0000000000000000
 11
226.4379262667721
 21
188.4187701306562
 31
0.0000000000000000
  0
LINE
  5
15C
100
AcDbEntity
  8
MAIN1
  6
CONTINUOUS
 62
7
100
AcDbLine
 10
201.8379262667722
 20
189.9187701306562
 30
0.0000000000000000
 11
223.4379262667721
 21
189.9187701306562
 31
0.0000000000000000
  0
LINE
  5
15D
100
AcDbEntity
  8
MAIN1
  6
CONTINUOUS
 62
7
100
AcDbLine
 10
223.4379262667722
 20
214.3162297521563
 30
0.0000000000000000
 11
226.4379262667722
 21
212.8162297521563
 31
0.0000000000000000
  0
LINE
  5
15E
100
AcDbEntity
  8
MAIN1
  6
CONTINUOUS
 62
7
100
AcDbLine
 10
201.8379262667722
 20
214.3162297521562
 30
0.0000000000000000
 11
223.4379262667721
 21
214.3162297521562
 31
0.0000000000000000
  0
LINE
  5
15F
100
AcDbEntity
  8
MAIN1
  6
CONTINUOUS
 62
7
100
AcDbLine
 10
204.8379262667722
 20
240.3765571198562
 30
0.0000000000000000
 11
204.8379262667722
 21
240.6174999413562
 31
0.0000000000000000
  0
LINE
  5
160
100
AcDbEntity
  8
MAIN1
  6
CONTINUOUS
 62
7
100
AcDbLine
 10
204.8379262667722
 20
240.3765571198562
 30
0.0000000000000000
 11
204.9379262667721
 21
240.3765571198562
 31
0.0000000000000000
  0
LINE
  5
161
100
AcDbEntity
  8
MAIN1
  6
CONTINUOUS
 62
7
100
AcDbLine
 10
204.9379262667721
 20
239.9748509244563
 30
0.0000000000000000
 11
204.9379262667721
 21
239.9427130437562
 31
0.0000000000000000
  0
SPLINE
  5
162
100
AcDbEntity
  8
MAIN1
  6
CONTINUOUS
 62
7
100
AcDbSpline
210
0.0000000000000000
220
0.0000000000000000
230
1.000000000000000
 70
     8
 71
     3
 72
    10
 73
     6
 74
     0
 42
1.000000000000000e-007
 43
1.000000000000000e-007
 12
0.0000000000000000
 22
-0.05123073724826099
 32
0.0000000000000000
 13
0.3198671634777384
 23
0.0000000000000000
 33
0.0000000000000000
 40
0.0000000000000000
 40
0.0000000000000000
 40
0.0000000000000000
 40
0.0000000000000000
 40
0.5000000000000000
 40
0.5011000000000000
 40
1.000000000000000
 40
1.000000000000000
 40
1.000000000000000
 40
1.000000000000000
 10
204.9379262667691
 20
239.9427130437343
 30
0.0000000000000000
 10
204.9379262667691
 20
239.9341745875263
 30
0.0000000000000000
 10
204.9592223752625
 20
239.9257209326939
 30
0.0000000000000000
 10
205.0327550190294
 20
239.9134613594193
 30
0.0000000000000000
 10
205.0847323574827
 20
239.9097751882638
 30
0.0000000000000000
 10
205.1379262667691
 20
239.9097751882638
 30
0.0000000000000000
  0
LINE
  5
163
100
AcDbEntity
  8
MAIN1
  6
CONTINUOUS
 62
7
100
AcDbLine
 10
205.1379262667721
 20
239.9097751882563
 30
0.0000000000000000
 11
210.6044729175482
 21
239.9097751882563
 31
0.0000000000000000
  0
LINE
  5
164
100
AcDbEntity
  8
MAIN1
  6
CONTINUOUS
 62
7
100
AcDbLine
 10
200.8379262667722
 20
238.5205394210562
 30
0.0000000000000000
 11
210.4882567666467
 21
238.5205394210562
 31
0.0000000000000000
  0
LINE
  5
165
100
AcDbEntity
  8
MAIN1
  6
CONTINUOUS
 62
7
100
AcDbLine
 10
190.8379262667722
 20
239.6174999413562
 30
0.0000000000000000
 11
190.8379262667722
 21
236.5779988829562
 31
0.0000000000000000
  0
LINE
  5
166
100
AcDbEntity
  8
MAIN1
  6
CONTINUOUS
 62
7
100
AcDbLine
 10
223.4379262667721
 20
219.3162297521562
 30
0.0000000000000000
 11
226.4379262667721
 21
219.3162297521562
 31
0.0000000000000000
  0
LINE
  5
167
100
AcDbEntity
  8
MAIN1
  6
CONTINUOUS
 62
7
100
AcDbLine
 10
201.8379262667722
 20
219.3162297521562
 30
0.0000000000000000
 11
223.4379262667721
 21
219.3162297521562
 31
0.0000000000000000
  0
LINE
  5
168
100
AcDbEntity
  8
MAIN1
  6
CONTINUOUS
 62
7
100
AcDbLine
 10
210.4844991262056
 20
237.8091765166563
 30
0.0000000000000000
 11
201.8379262667722
 21
237.8091765166563
 31
0.0000000000000000
  0
LINE
  5
169
100
AcDbEntity
  8
MAIN1
  6
CONTINUOUS
 62
8
100
AcDbLine
 10
226.9379262667721
 20
191.1174999413562
 30
0.0000000000000000
 11
226.4379262667721
 21
191.1174999413562
 31
0.0000000000000000
  0
LINE
  5
16A
100
AcDbEntity
  8
MAIN1
  6
CONTINUOUS
 62
8
100
AcDbLine
 10
226.9379262667721
 20
187.1174999413562
 30
0.0000000000000000
 11
226.4379262667721
 21
187.1174999413562
 31
0.0000000000000000
  0
LINE
  5
16B
100
AcDbEntity
  8
MAIN1
  6
CONTINUOUS
 62
8
100
AcDbLine
 10
226.9379262667721
 20
207.1174999413562
 30
0.0000000000000000
 11
226.4379262667721
 21
207.1174999413562
 31
0.0000000000000000
  0
LINE
  5
16C
100
AcDbEntity
  8
MAIN1
  6
CONTINUOUS
 62
7
100
AcDbLine
 10
300.4740110087132
 20
109.8164539119696
 30
0.0000000000000000
 11
300.4740110087132
 21
109.3164539119696
 31
0.0000000000000000
  0
LINE
  5
16D
100
AcDbEntity
  8
MAIN1
  6
CONTINUOUS
 62
7
100
AcDbLine
 10
347.1564790444131
 20
109.3164539119696
 30
0.0000000000000000
 11
347.1564790444131
 21
109.8164539119696
 31
0.0000000000000000
  0
LINE
  5
16E
100
AcDbEntity
  8
MAIN1
  6
CONTINUOUS
 62
7
100
AcDbLine
 10
300.3152450265131
 20
72.31645391196958
 30
0.0000000000000000
 11
300.3152450265131
 21
67.11645391196953
 31
0.0000000000000000
  0
LINE
  5
16F
100
AcDbEntity
  8
MAIN1
  6
CONTINUOUS
 62
7
100
AcDbLine
 10
347.3152450265131
 20
67.11645391196953
 30
0.0000000000000000
 11
347.3152450265131
 21
72.31645391196958
 31
0.0000000000000000
  0
LINE
  5
170
100
AcDbEntity
  8
MAIN1
  6
CONTINUOUS
 62
7
100
AcDbLine
 10
347.3152450265133
 20
72.31645391196959
 30
0.0000000000000000
 11
346.9152450265133
 21
72.71645391196954
 31
0.0000000000000000
  0
LINE
  5
171
100
AcDbEntity
  8
MAIN1
  6
CONTINUOUS
 62
7
100
AcDbLine
 10
300.7152450265131
 20
72.71645391196971
 30
0.0000000000000000
 11
300.3152450265131
 21
72.31645391196959
 31
0.0000000000000000
  0
ARC
  5
172
100
AcDbEntity
  8
MAIN1
  6
CONTINUOUS
 62
7
100
AcDbCircle
 10
337.7152450265131
 20
62.31645391196958
 30
0.0000000000000000
 40
0.3999999999999773
100
AcDbArc
 50
90.00000000000000
 51
180.0000000000000
  0
ARC
  5
173
100
AcDbEntity
  8
MAIN1
  6
CONTINUOUS
 62
7
100
AcDbCircle
 10
309.9152450265132
 20
62.31645391196958
 30
0.0000000000000000
 40
0.3999999999999773
100
AcDbArc
 50
0.0000000000000000
 51
90.00000000000000
  0
LINE
  5
174
100
AcDbEntity
  8
MAIN1
  6
CONTINUOUS
 62
7
100
AcDbLine
 10
310.3152450265133
 20
59.10209455806952
 30
0.0000000000000000
 11
311.1152450265132
 21
57.71645391196958
 31
0.0000000000000000
  0
LINE
  5
175
100
AcDbEntity
  8
MAIN1
  6
CONTINUOUS
 62
7
100
AcDbLine
 10
336.5152450265132
 20
57.71645391196961
 30
0.0000000000000000
 11
337.3152450265132
 21
59.10209455806972
 31
0.0000000000000000
  0
LINE
  5
176
100
AcDbEntity
  8
MAIN1
  6
CONTINUOUS
 62
7
100
AcDbLine
 10
310.3152450265131
 20
62.31645391196958
 30
0.0000000000000000
 11
310.3152450265131
 21
59.10209455806955
 31
0.0000000000000000
  0
LINE
  5
177
100
AcDbEntity
  8
MAIN1
  6
CONTINUOUS
 62
7
100
AcDbLine
 10
337.3152450265131
 20
59.10209455806955
 30
0.0000000000000000
 11
337.3152450265131
 21
62.31645391196958
 31
0.0000000000000000
  0
LINE
  5
178
100
AcDbEntity
  8
MAIN1
  6
CONTINUOUS
 62
7
100
AcDbLine
 10
300.3152450265131
 20
73.71645391196955
 30
0.0000000000000000
 11
300.3152450265131
 21
73.11645391196953
 31
0.0000000000000000
  0
LINE
  5
179
100
AcDbEntity
  8
MAIN1
  6
CONTINUOUS
 62
7
100
AcDbLine
 10
347.3152450265131
 20
73.11645391196953
 30
0.0000000000000000
 11
347.3152450265131
 21
73.71645391196955
 31
0.0000000000000000
  0
LINE
  5
17A
100
AcDbEntity
  8
MAIN1
  6
CONTINUOUS
 62
7
100
AcDbLine
 10
300.3152450265131
 20
73.11645391196964
 30
0.0000000000000000
 11
300.7152450265132
 21
72.71645391196954
 31
0.0000000000000000
  0
LINE
  5
17B
100
AcDbEntity
  8
MAIN1
  6
CONTINUOUS
 62
7
100
AcDbLine
 10
346.9152450265132
 20
72.71645391196947
 30
0.0000000000000000
 11
347.3152450265132
 21
73.11645391196947
 31
0.0000000000000000
  0
LINE
  5
17C
100
AcDbEntity
  8
MAIN1
  6
CONTINUOUS
 62
7
100
AcDbLine
 10
281.8872301154131
 20
96.51645391196962
 30
0.0000000000000000
 11
281.8872301154131
 21
88.11645391196953
 31
0.0000000000000000
  0
LINE
  5
17D
100
AcDbEntity
  8
MAIN1
  6
CONTINUOUS
 62
7
100
AcDbLine
 10
273.5872301154131
 20
96.81645391196950
 30
0.0000000000000000
 11
273.4372301154131
 21
96.51645391196955
 31
0.0000000000000000
  0
LINE
  5
17E
100
AcDbEntity
  8
MAIN1
  6
CONTINUOUS
 62
7
100
AcDbLine
 10
274.8122301154131
 20
96.81645391196958
 30
0.0000000000000000
 11
273.5872301154132
 21
96.81645391196958
 31
0.0000000000000000
  0
LINE
  5
17F
100
AcDbEntity
  8
MAIN1
  6
CONTINUOUS
 62
7
100
AcDbLine
 10
274.9122301154131
 20
97.01645391196949
 30
0.0000000000000000
 11
274.9103086435132
 21
96.97743584756951
 31
0.0000000000000000
  0
LINE
  5
180
100
AcDbEntity
  8
MAIN1
  6
CONTINUOUS
 62
7
100
AcDbLine
 10
274.9103086435132
 20
96.97743584756960
 30
0.0000000000000000
 11
274.9046180687132
 21
96.93991722556952
 31
0.0000000000000000
  0
LINE
  5
181
100
AcDbEntity
  8
MAIN1
  6
CONTINUOUS
 62
7
100
AcDbLine
 10
274.9046180687132
 20
96.93991722556962
 30
0.0000000000000000
 11
274.8953770767132
 21
96.90533986536963
 31
0.0000000000000000
  0
LINE
  5
182
100
AcDbEntity
  8
MAIN1
  6
CONTINUOUS
 62
7
100
AcDbLine
 10
274.8953770767133
 20
96.90533986536953
 30
0.0000000000000000
 11
274.8829407936132
 21
96.87503255576957
 31
0.0000000000000000
  0
LINE
  5
183
100
AcDbEntity
  8
MAIN1
  6
CONTINUOUS
 62
7
100
AcDbLine
 10
274.8829407936131
 20
96.87503255576954
 30
0.0000000000000000
 11
274.8677871387131
 21
96.85015998956946
 31
0.0000000000000000
  0
LINE
  5
184
100
AcDbEntity
  8
MAIN1
  6
CONTINUOUS
 62
7
100
AcDbLine
 10
274.8677871387133
 20
96.85015998956949
 30
0.0000000000000000
 11
274.8504984587132
 21
96.83167800546950
 31
0.0000000000000000
  0
LINE
  5
185
100
AcDbEntity
  8
MAIN1
  6
CONTINUOUS
 62
7
100
AcDbLine
 10
274.8504984587131
 20
96.83167800546956
 30
0.0000000000000000
 11
274.8317391476131
 21
96.82029685596956
 31
0.0000000000000000
  0
LINE
  5
186
100
AcDbEntity
  8
MAIN1
  6
CONTINUOUS
 62
7
100
AcDbLine
 10
274.8317391476131
 20
96.82029685596955
 30
0.0000000000000000
 11
274.8122301154131
 21
96.81645391196952
 31
0.0000000000000000
  0
LINE
  5
187
100
AcDbEntity
  8
MAIN1
  6
CONTINUOUS
 62
7
100
AcDbLine
 10
274.9122301154131
 20
110.3164539119696
 30
0.0000000000000000
 11
274.9122301154131
 21
97.01645391196962
 31
0.0000000000000000
  0
LINE
  5
188
100
AcDbEntity
  8
MAIN1
  6
CONTINUOUS
 62
7
100
AcDbLine
 10
280.4122301154131
 20
97.01645391196962
 30
0.0000000000000000
 11
280.4122301154131
 21
110.3164539119696
 31
0.0000000000000000
  0
LINE
  5
189
100
AcDbEntity
  8
MAIN1
  6
CONTINUOUS
 62
7
100
AcDbLine
 10
280.5122301154131
 20
96.81645391196942
 30
0.0000000000000000
 11
280.4927210832132
 21
96.82029685596946
 31
0.0000000000000000
  0
LINE
  5
18A
100
AcDbEntity
  8
MAIN1
  6
CONTINUOUS
 62
7
100
AcDbLine
 10
280.4927210832132
 20
96.82029685596967
 30
0.0000000000000000
 11
280.4739617722132
 21
96.83167800546958
 31
0.0000000000000000
  0
LINE
  5
18B
100
AcDbEntity
  8
MAIN1
  6
CONTINUOUS
 62
7
100
AcDbLine
 10
280.4739617722131
 20
96.83167800546963
 30
0.0000000000000000
 11
280.4566730921132
 21
96.85015998956956
 31
0.0000000000000000
  0
LINE
  5
18C
100
AcDbEntity
  8
MAIN1
  6
CONTINUOUS
 62
7
100
AcDbLine
 10
280.4566730921132
 20
96.85015998956945
 30
0.0000000000000000
 11
280.4415194373131
 21
96.87503255576957
 31
0.0000000000000000
  0
LINE
  5
18D
100
AcDbEntity
  8
MAIN1
  6
CONTINUOUS
 62
7
100
AcDbLine
 10
280.4415194373131
 20
96.87503255576958
 30
0.0000000000000000
 11
280.4290831542131
 21
96.90533986536957
 31
0.0000000000000000
  0
LINE
  5
18E
100
AcDbEntity
  8
MAIN1
  6
CONTINUOUS
 62
7
100
AcDbLine
 10
280.4290831542131
 20
96.90533986536960
 30
0.0000000000000000
 11
280.4198421622131
 21
96.93991722556959
 31
0.0000000000000000
  0
LINE
  5
18F
100
AcDbEntity
  8
MAIN1
  6
CONTINUOUS
 62
7
100
AcDbLine
 10
280.4198421622131
 20
96.93991722556949
 30
0.0000000000000000
 11
280.4141515874131
 21
96.97743584756955
 31
0.0000000000000000
  0
LINE
  5
190
100
AcDbEntity
  8
MAIN1
  6
CONTINUOUS
 62
7
100
AcDbLine
 10
280.4141515874132
 20
96.97743584756942
 30
0.0000000000000000
 11
280.4122301154132
 21
97.01645391196948
 31
0.0000000000000000
  0
LINE
  5
191
100
AcDbEntity
  8
MAIN1
  6
CONTINUOUS
 62
7
100
AcDbLine
 10
281.7372301154131
 20
96.81645391196958
 30
0.0000000000000000
 11
280.5122301154131
 21
96.81645391196958
 31
0.0000000000000000
  0
LINE
  5
192
100
AcDbEntity
  8
MAIN1
  6
CONTINUOUS
 62
7
100
AcDbLine
 10
281.8872301154132
 20
96.51645391196962
 30
0.0000000000000000
 11
281.7372301154132
 21
96.81645391196958
 31
0.0000000000000000
  0
LINE
  5
193
100
AcDbEntity
  8
MAIN1
  6
CONTINUOUS
 62
7
100
AcDbLine
 10
281.7372301154130
 20
87.81645391196945
 30
0.0000000000000000
 11
281.8872301154131
 21
88.11645391196963
 31
0.0000000000000000
  0
LINE
  5
194
100
AcDbEntity
  8
MAIN1
  6
CONTINUOUS
 62
7
100
AcDbLine
 10
273.5872301154132
 20
87.81645391196958
 30
0.0000000000000000
 11
281.7372301154131
 21
87.81645391196958
 31
0.0000000000000000
  0
LINE
  5
195
100
AcDbEntity
  8
MAIN1
  6
CONTINUOUS
 62
7
100
AcDbLine
 10
273.4372301154132
 20
88.11645391196953
 30
0.0000000000000000
 11
273.5872301154132
 21
87.81645391196958
 31
0.0000000000000000
  0
LINE
  5
196
100
AcDbEntity
  8
MAIN1
  6
CONTINUOUS
 62
7
100
AcDbLine
 10
273.4372301154131
 20
96.51645391196962
 30
0.0000000000000000
 11
273.4372301154131
 21
88.11645391196953
 31
0.0000000000000000
  0
LINE
  5
197
100
AcDbEntity
  8
MAIN1
  6
CONTINUOUS
 62
7
100
AcDbLine
 10
283.4134744041131
 20
87.81645391196958
 30
0.0000000000000000
 11
281.7372301154131
 21
87.81645391196958
 31
0.0000000000000000
  0
LINE
  5
198
100
AcDbEntity
  8
MAIN1
  6
CONTINUOUS
 62
7
100
AcDbLine
 10
281.7372301154131
 20
96.81645391196958
 30
0.0000000000000000
 11
283.4134744041131
 21
96.81645391196958
 31
0.0000000000000000
  0
LINE
  5
199
100
AcDbEntity
  8
MAIN1
  6
CONTINUOUS
 62
7
100
AcDbLine
 10
287.3404333457131
 20
109.3164539119696
 30
0.0000000000000000
 11
287.3404333457131
 21
110.3164539119696
 31
0.0000000000000000
  0
LINE
  5
19A
100
AcDbEntity
  8
MAIN1
  6
CONTINUOUS
 62
7
100
AcDbLine
 10
291.6705603646132
 20
110.3164539119696
 30
0.0000000000000000
 11
291.6705603646132
 21
109.3164539119696
 31
0.0000000000000000
  0
LINE
  5
19B
100
AcDbEntity
  8
MAIN1
  6
CONTINUOUS
 62
7
100
AcDbLine
 10
297.7327381911131
 20
109.3164539119696
 30
0.0000000000000000
 11
297.7327381911131
 21
110.3164539119696
 31
0.0000000000000000
  0
LINE
  5
19C
100
AcDbEntity
  8
MAIN1
  6
CONTINUOUS
 62
7
100
AcDbLine
 10
365.8932599376132
 20
87.81645391196958
 30
0.0000000000000000
 11
364.2170156490131
 21
87.81645391196958
 31
0.0000000000000000
  0
LINE
  5
19D
100
AcDbEntity
  8
MAIN1
  6
CONTINUOUS
 62
7
100
AcDbLine
 10
365.7432599376132
 20
88.11645391196953
 30
0.0000000000000000
 11
365.8932599376131
 21
87.81645391196955
 31
0.0000000000000000
  0
LINE
  5
19E
100
AcDbEntity
  8
MAIN1
  6
CONTINUOUS
 62
7
100
AcDbLine
 10
365.8932599376132
 20
96.81645391196960
 30
0.0000000000000000
 11
365.7432599376132
 21
96.51645391196962
 31
0.0000000000000000
  0
LINE
  5
19F
100
AcDbEntity
  8
MAIN1
  6
CONTINUOUS
 62
7
100
AcDbLine
 10
367.1182599376132
 20
96.81645391196958
 30
0.0000000000000000
 11
365.8932599376132
 21
96.81645391196958
 31
0.0000000000000000
  0
LINE
  5
1A0
100
AcDbEntity
  8
MAIN1
  6
CONTINUOUS
 62
7
100
AcDbLine
 10
367.2182599376131
 20
97.01645391196951
 30
0.0000000000000000
 11
367.2163384657131
 21
96.97743584756942
 31
0.0000000000000000
  0
LINE
  5
1A1
100
AcDbEntity
  8
MAIN1
  6
CONTINUOUS
 62
7
100
AcDbLine
 10
367.2163384657131
 20
96.97743584756969
 30
0.0000000000000000
 11
367.2106478909132
 21
96.93991722556962
 31
0.0000000000000000
  0
LINE
  5
1A2
100
AcDbEntity
  8
MAIN1
  6
CONTINUOUS
 62
7
100
AcDbLine
 10
367.2106478909131
 20
96.93991722556969
 30
0.0000000000000000
 11
367.2014068989130
 21
96.90533986536960
 31
0.0000000000000000
  0
LINE
  5
1A3
100
AcDbEntity
  8
MAIN1
  6
CONTINUOUS
 62
7
100
AcDbLine
 10
367.2014068989132
 20
96.90533986536951
 30
0.0000000000000000
 11
367.1889706158132
 21
96.87503255576954
 31
0.0000000000000000
  0
LINE
  5
1A4
100
AcDbEntity
  8
MAIN1
  6
CONTINUOUS
 62
7
100
AcDbLine
 10
367.1889706158131
 20
96.87503255576961
 30
0.0000000000000000
 11
367.1738169609130
 21
96.85015998956955
 31
0.0000000000000000
  0
LINE
  5
1A5
100
AcDbEntity
  8
MAIN1
  6
CONTINUOUS
 62
7
100
AcDbLine
 10
367.1738169609130
 20
96.85015998956958
 30
0.0000000000000000
 11
367.1565282809131
 21
96.83167800546966
 31
0.0000000000000000
  0
LINE
  5
1A6
100
AcDbEntity
  8
MAIN1
  6
CONTINUOUS
 62
7
100
AcDbLine
 10
367.1565282809130
 20
96.83167800546967
 30
0.0000000000000000
 11
367.1377689698130
 21
96.82029685596967
 31
0.0000000000000000
  0
LINE
  5
1A7
100
AcDbEntity
  8
MAIN1
  6
CONTINUOUS
 62
7
100
AcDbLine
 10
367.1377689698132
 20
96.82029685596947
 30
0.0000000000000000
 11
367.1182599376132
 21
96.81645391196943
 31
0.0000000000000000
  0
LINE
  5
1A8
100
AcDbEntity
  8
MAIN1
  6
CONTINUOUS
 62
7
100
AcDbLine
 10
367.2182599376131
 20
110.3164539119696
 30
0.0000000000000000
 11
367.2182599376131
 21
97.01645391196962
 31
0.0000000000000000
  0
LINE
  5
1A9
100
AcDbEntity
  8
MAIN1
  6
CONTINUOUS
 62
7
100
AcDbLine
 10
367.2182599376131
 20
110.3164539119696
 30
0.0000000000000000
 11
372.7182599376131
 21
110.3164539119696
 31
0.0000000000000000
  0
LINE
  5
1AA
100
AcDbEntity
  8
MAIN1
  6
CONTINUOUS
 62
7
100
AcDbLine
 10
372.7182599376131
 20
97.01645391196962
 30
0.0000000000000000
 11
372.7182599376131
 21
110.3164539119696
 31
0.0000000000000000
  0
LINE
  5
1AB
100
AcDbEntity
  8
MAIN1
  6
CONTINUOUS
 62
7
100
AcDbLine
 10
372.8182599376132
 20
96.81645391196938
 30
0.0000000000000000
 11
372.7987509054131
 21
96.82029685596943
 31
0.0000000000000000
  0
LINE
  5
1AC
100
AcDbEntity
  8
MAIN1
  6
CONTINUOUS
 62
7
100
AcDbLine
 10
372.7987509054132
 20
96.82029685596959
 30
0.0000000000000000
 11
372.7799915944130
 21
96.83167800546963
 31
0.0000000000000000
  0
LINE
  5
1AD
100
AcDbEntity
  8
MAIN1
  6
CONTINUOUS
 62
7
100
AcDbLine
 10
372.7799915944132
 20
96.83167800546949
 30
0.0000000000000000
 11
372.7627029143132
 21
96.85015998956948
 31
0.0000000000000000
  0
LINE
  5
1AE
100
AcDbEntity
  8
MAIN1
  6
CONTINUOUS
 62
7
100
AcDbLine
 10
372.7627029143130
 20
96.85015998956956
 30
0.0000000000000000
 11
372.7475492595131
 21
96.87503255576951
 31
0.0000000000000000
  0
LINE
  5
1AF
100
AcDbEntity
  8
MAIN1
  6
CONTINUOUS
 62
7
100
AcDbLine
 10
372.7475492595131
 20
96.87503255576948
 30
0.0000000000000000
 11
372.7351129764130
 21
96.90533986536946
 31
0.0000000000000000
  0
LINE
  5
1B0
100
AcDbEntity
  8
MAIN1
  6
CONTINUOUS
 62
7
100
AcDbLine
 10
372.7351129764131
 20
96.90533986536936
 30
0.0000000000000000
 11
372.7258719844132
 21
96.93991722556947
 31
0.0000000000000000
  0
LINE
  5
1B1
100
AcDbEntity
  8
MAIN1
  6
CONTINUOUS
 62
7
100
AcDbLine
 10
372.7258719844132
 20
96.93991722556957
 30
0.0000000000000000
 11
372.7201814096131
 21
96.97743584756964
 31
0.0000000000000000
  0
LINE
  5
1B2
100
AcDbEntity
  8
MAIN1
  6
CONTINUOUS
 62
7
100
AcDbLine
 10
372.7201814096130
 20
96.97743584756961
 30
0.0000000000000000
 11
372.7182599376129
 21
97.01645391196966
 31
0.0000000000000000
  0
LINE
  5
1B3
100
AcDbEntity
  8
MAIN1
  6
CONTINUOUS
 62
7
100
AcDbLine
 10
374.0432599376131
 20
96.81645391196958
 30
0.0000000000000000
 11
372.8182599376131
 21
96.81645391196958
 31
0.0000000000000000
  0
LINE
  5
1B4
100
AcDbEntity
  8
MAIN1
  6
CONTINUOUS
 62
7
100
AcDbLine
 10
374.1932599376131
 20
96.51645391196962
 30
0.0000000000000000
 11
374.0432599376131
 21
96.81645391196959
 31
0.0000000000000000
  0
LINE
  5
1B5
100
AcDbEntity
  8
MAIN1
  6
CONTINUOUS
 62
7
100
AcDbLine
 10
374.1932599376131
 20
96.51645391196962
 30
0.0000000000000000
 11
374.1932599376131
 21
88.11645391196953
 31
0.0000000000000000
  0
LINE
  5
1B6
100
AcDbEntity
  8
MAIN1
  6
CONTINUOUS
 62
7
100
AcDbLine
 10
374.0432599376130
 20
87.81645391196960
 30
0.0000000000000000
 11
374.1932599376130
 21
88.11645391196959
 31
0.0000000000000000
  0
LINE
  5
1B7
100
AcDbEntity
  8
MAIN1
  6
CONTINUOUS
 62
7
100
AcDbLine
 10
365.8932599376132
 20
87.81645391196958
 30
0.0000000000000000
 11
374.0432599376131
 21
87.81645391196958
 31
0.0000000000000000
  0
LINE
  5
1B8
100
AcDbEntity
  8
MAIN1
  6
CONTINUOUS
 62
7
100
AcDbLine
 10
365.7432599376132
 20
96.51645391196962
 30
0.0000000000000000
 11
365.7432599376132
 21
88.11645391196953
 31
0.0000000000000000
  0
LINE
  5
1B9
100
AcDbEntity
  8
MAIN1
  6
CONTINUOUS
 62
7
100
AcDbLine
 10
364.2170156490131
 20
96.81645391196958
 30
0.0000000000000000
 11
365.8932599376132
 21
96.81645391196958
 31
0.0000000000000000
  0
LINE
  5
1BA
100
AcDbEntity
  8
MAIN1
  6
CONTINUOUS
 62
7
100
AcDbLine
 10
349.8977518620131
 20
110.3164539119696
 30
0.0000000000000000
 11
349.8977518620131
 21
109.3164539119696
 31
0.0000000000000000
  0
LINE
  5
1BB
100
AcDbEntity
  8
MAIN1
  6
CONTINUOUS
 62
7
100
AcDbLine
 10
355.9599296884131
 20
109.3164539119696
 30
0.0000000000000000
 11
355.9599296884131
 21
110.3164539119696
 31
0.0000000000000000
  0
LINE
  5
1BC
100
AcDbEntity
  8
MAIN1
  6
CONTINUOUS
 62
7
100
AcDbLine
 10
360.2900567074131
 20
110.3164539119696
 30
0.0000000000000000
 11
360.2900567074131
 21
109.3164539119696
 31
0.0000000000000000
  0
LINE
  5
1BD
100
AcDbEntity
  8
MAIN1
  6
CONTINUOUS
 62
7
100
AcDbLine
 10
300.7152450265131
 20
72.71645391196955
 30
0.0000000000000000
 11
346.9152450265132
 21
72.71645391196955
 31
0.0000000000000000
  0
LINE
  5
1BE
100
AcDbEntity
  8
MAIN1
  6
CONTINUOUS
 62
7
100
AcDbLine
 10
340.6945546966132
 20
62.71645391196955
 30
0.0000000000000000
 11
340.6945546966132
 21
66.71645391196955
 31
0.0000000000000000
  0
SPLINE
  5
1BF
100
AcDbEntity
  8
MAIN1
  6
CONTINUOUS
 62
7
100
AcDbSpline
210
0.0000000000000000
220
0.0000000000000000
230
1.000000000000000
 70
     8
 71
     3
 72
    11
 73
     7
 74
     0
 42
1.000000000000000e-007
 43
1.000000000000000e-007
 12
-0.6680527065327624
 22
0.01580281772567105
 32
0.0000000000000000
 13
-0.001470020884880796
 23
0.5590321596428112
 33
0.0000000000000000
 40
0.0000000000000000
 40
0.0000000000000000
 40
0.0000000000000000
 40
0.0000000000000000
 40
0.02867071252444200
 40
0.5185202577423622
 40
0.9931683332526226
 40
1.000000000000000
 40
1.000000000000000
 40
1.000000000000000
 40
1.000000000000000
 10
347.6478766055089
 20
66.71645391201901
 30
0.0000000000000000
 10
347.6414920898089
 20
66.71660493803370
 30
0.0000000000000000
 10
347.5260258026189
 20
66.71933629840908
 30
0.0000000000000000
 10
347.3659636777230
 20
66.84580389208736
 30
0.0000000000000000
 10
347.3154843025428
 20
67.02545998482913
 30
0.0000000000000000
 10
347.3152483741197
 20
67.11518087154695
 30
0.0000000000000000
 10
347.3152450265555
 20
67.11645391201887
 30
0.0000000000000000
  0
LINE
  5
1C0
100
AcDbEntity
  8
MAIN1
  6
CONTINUOUS
 62
7
100
AcDbLine
 10
306.9359353565131
 20
62.71645391196955
 30
0.0000000000000000
 11
306.9359353565131
 21
66.71645391196955
 31
0.0000000000000000
  0
LINE
  5
1C1
100
AcDbEntity
  8
MAIN1
  6
CONTINUOUS
 62
7
100
AcDbLine
 10
307.3105669136131
 20
66.71645391196955
 30
0.0000000000000000
 11
310.3459469395132
 21
66.71645391196955
 31
0.0000000000000000
  0
SPLINE
  5
1C2
100
AcDbEntity
  8
MAIN1
  6
CONTINUOUS
 62
7
100
AcDbSpline
210
0.0000000000000000
220
0.0000000000000000
230
1.000000000000000
 70
     8
 71
     3
 72
    10
 73
     6
 74
     0
 42
1.000000000000000e-007
 43
1.000000000000000e-007
 12
0.5013753522689513
 22
0.2147290771075063
 32
0.0000000000000000
 13
0.001473144846386276
 23
0.5057495191213093
 33
0.0000000000000000
 40
0.0000000000000000
 40
0.0000000000000000
 40
0.0000000000000000
 40
0.0000000000000000
 40
0.4680473457298943
 40
0.9924521782737587
 40
0.9999999999999999
 40
0.9999999999999999
 40
0.9999999999999999
 40
0.9999999999999999
 10
300.0338583415298
 20
66.73669631006487
 30
0.0000000000000000
 10
300.1120808091444
 20
66.77019743492861
 30
0.0000000000000000
 10
300.2779444959749
 20
66.84123354836652
 30
0.0000000000000000
 10
300.3149801057724
 20
67.02550320991406
 30
0.0000000000000000
 10
300.3152413202107
 20
67.11518147628271
 30
0.0000000000000000
 10
300.3152450265555
 20
67.11645391201887
 30
0.0000000000000000
  0
LINE
  5
1C3
100
AcDbEntity
  8
MAIN1
  6
CONTINUOUS
 62
7
100
AcDbLine
 10
297.6836660792131
 20
63.11645391196953
 30
0.0000000000000000
 11
297.6836660792131
 21
66.31645391196958
 31
0.0000000000000000
  0
LINE
  5
1C4
100
AcDbEntity
  8
MAIN1
  6
CONTINUOUS
 62
7
100
AcDbLine
 10
349.9468239739132
 20
63.71645391196955
 30
0.0000000000000000
 11
349.9468239739132
 21
66.31645391196958
 31
0.0000000000000000
  0
LINE
  5
1C5
100
AcDbEntity
  8
MAIN1
  6
CONTINUOUS
 62
7
100
AcDbLine
 10
349.9468203914130
 20
63.71645391196944
 30
0.0000000000000000
 11
349.8352411026131
 21
63.11645391196944
 31
0.0000000000000000
  0
LINE
  5
1C6
100
AcDbEntity
  8
MAIN1
  6
CONTINUOUS
 62
7
100
AcDbLine
 10
349.8352411026133
 20
63.11645391196942
 30
0.0000000000000000
 11
349.3847143677132
 21
62.71645391196941
 31
0.0000000000000000
  0
LINE
  5
1C7
100
AcDbEntity
  8
MAIN1
  6
CONTINUOUS
 62
7
100
AcDbLine
 10
349.9468239739133
 20
66.31645391196963
 30
0.0000000000000000
 11
349.5777011669133
 21
66.71645391196958
 31
0.0000000000000000
  0
LINE
  5
1C8
100
AcDbEntity
  8
MAIN1
  6
CONTINUOUS
 62
7
100
AcDbLine
 10
297.6836660792130
 20
66.31645391196958
 30
0.0000000000000000
 11
298.0527888862130
 21
66.71645391196955
 31
0.0000000000000000
  0
LINE
  5
1C9
100
AcDbEntity
  8
MAIN1
  6
CONTINUOUS
 62
7
100
AcDbLine
 10
307.3105669136131
 20
66.71645391196955
 30
0.0000000000000000
 11
298.0527888862131
 21
66.71645391196955
 31
0.0000000000000000
  0
LINE
  5
1CA
100
AcDbEntity
  8
MAIN1
  6
CONTINUOUS
 62
7
100
AcDbLine
 10
298.0527888862131
 20
62.71645391196967
 30
0.0000000000000000
 11
297.6836660792131
 21
63.11645391196964
 31
0.0000000000000000
  0
LINE
  5
1CB
100
AcDbEntity
  8
MAIN1
  6
CONTINUOUS
 62
7
100
AcDbLine
 10
310.3152450265131
 20
59.10209455806955
 30
0.0000000000000000
 11
337.3152450265131
 21
59.10209455806955
 31
0.0000000000000000
  0
LINE
  5
1CC
100
AcDbEntity
  8
MAIN1
  6
CONTINUOUS
 62
7
100
AcDbLine
 10
311.1152450265131
 20
57.71645391196955
 30
0.0000000000000000
 11
336.5152450265132
 21
57.71645391196955
 31
0.0000000000000000
  0
LINE
  5
1CD
100
AcDbEntity
  8
MAIN1
  6
CONTINUOUS
 62
7
100
AcDbLine
 10
365.3081645054132
 20
96.81645391196958
 30
0.0000000000000000
 11
365.3081645054132
 21
108.9164539119695
 31
0.0000000000000000
  0
LINE
  5
1CE
100
AcDbEntity
  8
MAIN1
  6
CONTINUOUS
 62
7
100
AcDbLine
 10
364.0891834278132
 20
96.81645391196958
 30
0.0000000000000000
 11
364.2170156490131
 21
96.81645391196958
 31
0.0000000000000000
  0
SPLINE
  5
1CF
100
AcDbEntity
  8
MAIN1
  6
CONTINUOUS
 62
7
100
AcDbSpline
210
0.0000000000000000
220
0.0000000000000000
230
1.000000000000000
 70
     8
 71
     3
 72
    10
 73
     6
 74
     0
 42
1.000000000000000e-007
 43
1.000000000000000e-007
 12
0.0000000000000000
 22
0.3190865717019733
 32
0.0000000000000000
 13
0.2022165857429172
 23
6.821210263296962e-013
 33
0.0000000000000000
 40
0.0000000000000000
 40
0.0000000000000000
 40
0.0000000000000000
 40
0.0000000000000000
 40
0.5000000000000000
 40
0.5011000000000000
 40
1.000000000000000
 40
1.000000000000000
 40
1.000000000000000
 40
1.000000000000000
 10
363.9606584082429
 20
96.61645391201887
 30
0.0000000000000000
 10
363.9606584082429
 20
96.66963500730253
 30
0.0000000000000000
 10
363.9748587315121
 20
96.72153859447599
 30
0.0000000000000000
 10
364.0224267372533
 20
96.79504388341672
 30
0.0000000000000000
 10
364.0555548096172
 20
96.81645391202062
 30
0.0000000000000000
 10
364.0891834278262
 20
96.81645391202073
 30
0.0000000000000000
  0
LINE
  5
1D0
100
AcDbEntity
  8
MAIN1
  6
CONTINUOUS
 62
7
100
AcDbLine
 10
363.9606584082131
 20
88.01645391196962
 30
0.0000000000000000
 11
363.9606584082131
 21
96.61645391196953
 31
0.0000000000000000
  0
SPLINE
  5
1D1
100
AcDbEntity
  8
MAIN1
  6
CONTINUOUS
 62
7
100
AcDbSpline
210
0.0000000000000000
220
0.0000000000000000
230
1.000000000000000
 70
     8
 71
     3
 72
    10
 73
     6
 74
     0
 42
1.000000000000000e-007
 43
1.000000000000000e-007
 12
-0.2018179286928898
 22
0.0000000000000000
 32
0.0000000000000000
 13
0.0000000000000000
 23
0.3198671634772836
 33
0.0000000000000000
 40
0.0000000000000000
 40
0.0000000000000000
 40
0.0000000000000000
 40
0.0000000000000000
 40
0.5000000000000000
 40
0.5011000000000000
 40
1.000000000000000
 40
1.000000000000000
 40
1.000000000000000
 40
1.000000000000000
 10
364.0891834278266
 20
87.81645391201892
 30
0.0000000000000000
 10
364.0555471063777
 20
87.81645391201892
 30
0.0000000000000000
 10
364.0225343070060
 20
87.83775002051220
 30
0.0000000000000000
 10
363.9748809954383
 20
87.91128266427916
 30
0.0000000000000000
 10
363.9606584082426
 20
87.96326000273257
 30
0.0000000000000000
 10
363.9606584082426
 20
88.01645391201885
 30
0.0000000000000000
  0
LINE
  5
1D2
100
AcDbEntity
  8
MAIN1
  6
CONTINUOUS
 62
7
100
AcDbLine
 10
364.2170156490131
 20
87.81645391196958
 30
0.0000000000000000
 11
364.0891834278132
 21
87.81645391196958
 31
0.0000000000000000
  0
LINE
  5
1D3
100
AcDbEntity
  8
MAIN1
  6
CONTINUOUS
 62
7
100
AcDbLine
 10
366.1399034190131
 20
87.71645391196955
 30
0.0000000000000000
 11
366.1399034190131
 21
87.81645391196958
 31
0.0000000000000000
  0
LINE
  5
1D4
100
AcDbEntity
  8
MAIN1
  6
CONTINUOUS
 62
7
100
AcDbLine
 10
366.1399034190131
 20
87.71645391196955
 30
0.0000000000000000
 11
371.1399034190131
 21
87.71645391196955
 31
0.0000000000000000
  0
LINE
  5
1D5
100
AcDbEntity
  8
MAIN1
  6
CONTINUOUS
 62
7
100
AcDbLine
 10
371.1399034190131
 20
87.71645391196955
 30
0.0000000000000000
 11
371.1399034190131
 21
87.81645391196958
 31
0.0000000000000000
  0
LINE
  5
1D6
100
AcDbEntity
  8
MAIN1
  6
CONTINUOUS
 62
7
100
AcDbLine
 10
372.7182599376131
 20
108.9164539119695
 30
0.0000000000000000
 11
373.5385605610131
 21
108.9164539119695
 31
0.0000000000000000
  0
SPLINE
  5
1D7
100
AcDbEntity
  8
MAIN1
  6
CONTINUOUS
 62
7
100
AcDbSpline
210
0.0000000000000000
220
0.0000000000000000
230
1.000000000000000
 70
     8
 71
     3
 72
    11
 73
     7
 74
     0
 42
1.000000000000000e-007
 43
1.000000000000000e-007
 12
-0.7317199095869000
 22
2.897065480641459
 32
0.0000000000000000
 13
-0.8731054965019212
 23
2.916892969855098
 33
0.0000000000000000
 40
0.0000000000000000
 40
0.0000000000000000
 40
0.0000000000000000
 40
0.0000000000000000
 40
0.2423433547767842
 40
0.4897905274831648
 40
0.7423424503432774
 40
1.000000000000000
 40
1.000000000000000
 40
1.000000000000000
 40
1.000000000000000
 10
374.3415573556664
 20
106.0091526188816
 30
0.0000000000000000
 10
374.2824482031177
 20
106.2431808080771
 30
0.0000000000000000
 10
374.1629850429556
 20
106.7161658847163
 30
0.0000000000000000
 10
373.9689767651751
 20
107.4349737791790
 30
0.0000000000000000
 10
373.7620367831378
 20
108.1698585693252
 30
0.0000000000000000
 10
373.6135478848643
 20
108.6659340438382
 30
0.0000000000000000
 10
373.5385604772575
 20
108.9164538755795
 30
0.0000000000000000
  0
LINE
  5
1D8
100
AcDbEntity
  8
MAIN1
  6
CONTINUOUS
 62
7
100
AcDbLine
 10
374.3415573700131
 20
83.71645391196955
 30
0.0000000000000000
 11
374.3415573700131
 21
106.0091526828695
 31
0.0000000000000000
  0
LINE
  5
1D9
100
AcDbEntity
  8
MAIN1
  6
CONTINUOUS
 62
7
100
AcDbLine
 10
374.7876192961131
 20
83.71645391196955
 30
0.0000000000000000
 11
374.3415573700131
 21
83.71645391196955
 31
0.0000000000000000
  0
ELLIPSE
  5
1DA
100
AcDbEntity
  8
MAIN1
  6
CONTINUOUS
 62
7
100
AcDbEllipse
 10
323.8152450265131
 20
122.7164539119696
 30
0.0000000000000000
 11
50.22814296703159
 21
-50.22814296703081
 31
0.0000000000000000
210
0.0000000000000000
220
0.0000000000000000
230
1.000000000000000
 40
0.2679491924000002
 41
0.4313605197775980
 42
0.4609348600142665
  0
LINE
  5
1DB
100
AcDbEntity
  8
MAIN1
  6
CONTINUOUS
 62
7
100
AcDbLine
 10
375.0695089038131
 20
82.71645391196955
 30
0.0000000000000000
 11
375.0695089038131
 21
74.71645391196955
 31
0.0000000000000000
  0
LINE
  5
1DC
100
AcDbEntity
  8
MAIN1
  6
CONTINUOUS
 62
7
100
AcDbLine
 10
357.0417404782131
 20
73.71645391196955
 30
0.0000000000000000
 11
357.0417404782131
 21
82.71645391196955
 31
0.0000000000000000
  0
LINE
  5
1DD
100
AcDbEntity
  8
MAIN1
  6
CONTINUOUS
 62
7
100
AcDbLine
 10
359.7235325139131
 20
106.6984290558696
 30
0.0000000000000000
 11
359.7235325139131
 21
83.71645391196958
 31
0.0000000000000000
  0
ELLIPSE
  5
1DE
100
AcDbEntity
  8
MAIN1
  6
CONTINUOUS
 62
7
100
AcDbEllipse
 10
323.8152450265131
 20
121.3164539119696
 30
0.0000000000000000
 11
45.03332099679109
 21
45.03332099679050
 31
0.0000000000000000
210
0.0000000000000000
220
0.0000000000000000
230
1.000000000000000
 40
0.5773502692000001
 41
4.951031092520206
 42
5.003119577733758
  0
LINE
  5
1DF
100
AcDbEntity
  8
MAIN1
  6
CONTINUOUS
 62
7
100
AcDbLine
 10
357.0417404782131
 20
82.71645391196955
 30
0.0000000000000000
 11
290.5887495749132
 21
82.71645391196955
 31
0.0000000000000000
  0
LINE
  5
1E0
100
AcDbEntity
  8
MAIN1
  6
CONTINUOUS
 62
7
100
AcDbLine
 10
290.5887495749132
 20
82.71645391196955
 30
0.0000000000000000
 11
290.5887495749132
 21
73.71645391196955
 31
0.0000000000000000
  0
SPLINE
  5
1E1
100
AcDbEntity
  8
MAIN1
  6
CONTINUOUS
 62
7
100
AcDbSpline
210
0.0000000000000000
220
0.0000000000000000
230
1.000000000000000
 70
     8
 71
     3
 72
     8
 73
     4
 74
     0
 42
1.000000000000000e-007
 43
1.000000000000000e-007
 12
717.9270612816326
 22
684.6531968814670
 32
0.0000000000000000
 13
717.0481907492504
 23
685.1187890448200
 33
0.0000000000000000
 40
0.0000000000000000
 40
0.0000000000000000
 40
0.0000000000000000
 40
0.0000000000000000
 40
0.001460093186462200
 40
0.001460093186462200
 40
0.001460093186462200
 40
0.001460093186462200
 10
374.0219124993037
 20
73.71645391201901
 30
0.0000000000000000
 10
374.3713259694883
 20
74.04967306797107
 30
0.0000000000000000
 10
374.7205231778765
 20
74.38300815341847
 30
0.0000000000000000
 10
375.0695089037691
 20
74.71645391201901
 30
0.0000000000000000
  0
ARC
  5
1E2
100
AcDbEntity
  8
MAIN1
  6
CONTINUOUS
 62
7
100
AcDbCircle
 10
323.8152450265131
 20
122.7164539119696
 30
0.0000000000000000
 40
52.00000000000036
100
AcDbArc
 50
228.5903778907000
 51
230.2848627681999
  0
LINE
  5
1E3
100
AcDbEntity
  8
MAIN1
  6
CONTINUOUS
 62
7
100
AcDbLine
 10
276.4905866341131
 20
87.71645391196955
 30
0.0000000000000000
 11
276.4905866341131
 21
87.81645391196958
 31
0.0000000000000000
  0
LINE
  5
1E4
100
AcDbEntity
  8
MAIN1
  6
CONTINUOUS
 62
7
100
AcDbLine
 10
276.4905866341131
 20
87.71645391196955
 30
0.0000000000000000
 11
281.4905866341131
 21
87.71645391196955
 31
0.0000000000000000
  0
LINE
  5
1E5
100
AcDbEntity
  8
MAIN1
  6
CONTINUOUS
 62
7
100
AcDbLine
 10
281.4905866341131
 20
87.71645391196955
 30
0.0000000000000000
 11
281.4905866341131
 21
87.81645391196958
 31
0.0000000000000000
  0
LINE
  5
1E6
100
AcDbEntity
  8
MAIN1
  6
CONTINUOUS
 62
7
100
AcDbLine
 10
283.4134744041131
 20
87.81645391196958
 30
0.0000000000000000
 11
283.5413066253132
 21
87.81645391196958
 31
0.0000000000000000
  0
SPLINE
  5
1E7
100
AcDbEntity
  8
MAIN1
  6
CONTINUOUS
 62
7
100
AcDbSpline
210
0.0000000000000000
220
0.0000000000000000
230
1.000000000000000
 70
     8
 71
     3
 72
    10
 73
     6
 74
     0
 42
1.000000000000000e-007
 43
1.000000000000000e-007
 12
0.2018179286928898
 22
0.0000000000000000
 32
0.0000000000000000
 13
0.0000000000000000
 23
0.3198671634772836
 33
0.0000000000000000
 40
0.0000000000000000
 40
0.0000000000000000
 40
0.0000000000000000
 40
0.0000000000000000
 40
0.5000000000000000
 40
0.5011000000000000
 40
1.000000000000000
 40
1.000000000000000
 40
1.000000000000000
 40
1.000000000000000
 10
283.5413066252841
 20
87.81645391201892
 30
0.0000000000000000
 10
283.5749429467329
 20
87.81645391201892
 30
0.0000000000000000
 10
283.6079557461046
 20
87.83775002051220
 30
0.0000000000000000
 10
283.6556090576723
 20
87.91128266427916
 30
0.0000000000000000
 10
283.6698316448681
 20
87.96326000273257
 30
0.0000000000000000
 10
283.6698316448681
 20
88.01645391201885
 30
0.0000000000000000
  0
LINE
  5
1E8
100
AcDbEntity
  8
MAIN1
  6
CONTINUOUS
 62
7
100
AcDbLine
 10
283.6698316449131
 20
88.01645391196962
 30
0.0000000000000000
 11
283.6698316449131
 21
96.61645391196953
 31
0.0000000000000000
  0
SPLINE
  5
1E9
100
AcDbEntity
  8
MAIN1
  6
CONTINUOUS
 62
7
100
AcDbSpline
210
0.0000000000000000
220
0.0000000000000000
230
1.000000000000000
 70
     8
 71
     3
 72
    10
 73
     6
 74
     0
 42
1.000000000000000e-007
 43
1.000000000000000e-007
 12
0.0000000000000000
 22
0.3190865717019733
 32
0.0000000000000000
 13
-0.2022165857435994
 23
6.821210263296962e-013
 33
0.0000000000000000
 40
0.0000000000000000
 40
0.0000000000000000
 40
0.0000000000000000
 40
0.0000000000000000
 40
0.5000000000000000
 40
0.5011000000000000
 40
1.000000000000000
 40
1.000000000000000
 40
1.000000000000000
 40
1.000000000000000
 10
283.6698316448677
 20
96.61645391201887
 30
0.0000000000000000
 10
283.6698316448677
 20
96.66963500730253
 30
0.0000000000000000
 10
283.6556313215986
 20
96.72153859447599
 30
0.0000000000000000
 10
283.6080633158572
 20
96.79504388341672
 30
0.0000000000000000
 10
283.5749352434935
 20
96.81645391202062
 30
0.0000000000000000
 10
283.5413066252843
 20
96.81645391202073
 30
0.0000000000000000
  0
LINE
  5
1EA
100
AcDbEntity
  8
MAIN1
  6
CONTINUOUS
 62
7
100
AcDbLine
 10
283.5413066253132
 20
96.81645391196958
 30
0.0000000000000000
 11
283.4134744041131
 21
96.81645391196958
 31
0.0000000000000000
  0
LINE
  5
1EB
100
AcDbEntity
  8
MAIN1
  6
CONTINUOUS
 62
7
100
AcDbLine
 10
282.3753945209131
 20
108.9164539119695
 30
0.0000000000000000
 11
282.3753945209131
 21
96.81645391196958
 31
0.0000000000000000
  0
ELLIPSE
  5
1EC
100
AcDbEntity
  8
MAIN1
  6
CONTINUOUS
 62
7
100
AcDbEllipse
 10
323.8152450265131
 20
121.3164539119696
 30
0.0000000000000000
 11
45.03332099679084
 21
-45.03332099679029
 31
0.0000000000000000
210
0.0000000000000000
220
0.0000000000000000
230
1.000000000000000
 40
0.5773502691999999
 41
4.421658383035624
 42
4.473746868249181
  0
LINE
  5
1ED
100
AcDbEntity
  8
MAIN1
  6
CONTINUOUS
 62
7
100
AcDbLine
 10
287.9069575392131
 20
83.71645391196955
 30
0.0000000000000000
 11
287.9069575392131
 21
106.6984290558696
 31
0.0000000000000000
  0
LINE
  5
1EE
100
AcDbEntity
  8
MAIN1
  6
CONTINUOUS
 62
7
100
AcDbLine
 10
272.5609811493131
 20
74.71645391196955
 30
0.0000000000000000
 11
272.5609811493131
 21
82.71645391196955
 31
0.0000000000000000
  0
ELLIPSE
  5
1EF
100
AcDbEntity
  8
MAIN1
  6
CONTINUOUS
 62
7
100
AcDbEllipse
 10
323.8152450265131
 20
122.7164539119696
 30
0.0000000000000000
 11
50.22814296703142
 21
50.22814296703172
 31
0.0000000000000000
210
0.0000000000000000
220
0.0000000000000000
230
1.000000000000000
 40
0.2679491924000000
 41
2.692365447143073
 42
2.710232133812196
  0
LINE
  5
1F0
100
AcDbEntity
  8
MAIN1
  6
CONTINUOUS
 62
7
100
AcDbLine
 10
273.2889326831131
 20
83.31645391196958
 30
0.0000000000000000
 11
272.7259332266131
 21
83.31645391196958
 31
0.0000000000000000
  0
LINE
  5
1F1
100
AcDbEntity
  8
MAIN1
  6
CONTINUOUS
 62
7
100
AcDbLine
 10
273.2889326831131
 20
106.6984290558696
 30
0.0000000000000000
 11
273.2889326831131
 21
83.31645391196958
 31
0.0000000000000000
  0
ELLIPSE
  5
1F2
100
AcDbEntity
  8
MAIN1
  6
CONTINUOUS
 62
7
100
AcDbEllipse
 10
323.8152450265131
 20
121.3164539119696
 30
0.0000000000000000
 11
45.03332099679085
 21
45.03332099679016
 31
0.0000000000000000
210
0.0000000000000000
220
0.0000000000000000
230
1.000000000000000
 40
0.5773502692000001
 41
2.335176483021400
 42
2.379351765856001
  0
SPLINE
  5
1F3
100
AcDbEntity
  8
MAIN1
  6
CONTINUOUS
 62
7
100
AcDbSpline
210
0.0000000000000000
220
0.0000000000000000
230
1.000000000000000
 70
     8
 71
     3
 72
     8
 73
     4
 74
     0
 42
1.000000000000000e-007
 43
1.000000000000000e-007
 12
717.0481907490175
 22
-685.1187890448200
 32
0.0000000000000000
 13
717.9270612815162
 23
-684.6531968814670
 33
0.0000000000000000
 40
0.0000000000000000
 40
0.0000000000000000
 40
0.0000000000000000
 40
0.0000000000000000
 40
0.001460093186462200
 40
0.001460093186462200
 40
0.001460093186462200
 40
0.001460093186462200
 10
272.5609811493416
 20
74.71645391201901
 30
0.0000000000000000
 10
272.9099668752342
 20
74.38300815341847
 30
0.0000000000000000
 10
273.2591640836226
 20
74.04967306797107
 30
0.0000000000000000
 10
273.6085775538073
 20
73.71645391201901
 30
0.0000000000000000
  0
LINE
  5
1F4
100
AcDbEntity
  8
MAIN1
  6
CONTINUOUS
 62
7
100
AcDbLine
 10
358.9164865955131
 20
84.71645391196955
 30
0.0000000000000000
 11
358.9164865955131
 21
106.3164539119696
 31
0.0000000000000000
  0
LINE
  5
1F5
100
AcDbEntity
  8
MAIN1
  6
CONTINUOUS
 62
7
100
AcDbLine
 10
359.7235325139131
 20
106.6984290558695
 30
0.0000000000000000
 11
358.9164865955130
 21
106.3164539119695
 31
0.0000000000000000
  0
LINE
  5
1F6
100
AcDbEntity
  8
MAIN1
  6
CONTINUOUS
 62
7
100
AcDbLine
 10
358.9164865955131
 20
106.3164539119696
 30
0.0000000000000000
 11
342.9011249066132
 21
106.3164539119696
 31
0.0000000000000000
  0
LINE
  5
1F7
100
AcDbEntity
  8
MAIN1
  6
CONTINUOUS
 62
7
100
AcDbLine
 10
342.9011249066133
 20
106.3164539119696
 30
0.0000000000000000
 11
344.4011249066133
 21
109.3164539119696
 31
0.0000000000000000
  0
LINE
  5
1F8
100
AcDbEntity
  8
MAIN1
  6
CONTINUOUS
 62
7
100
AcDbLine
 10
288.7140034576131
 20
106.3164539119694
 30
0.0000000000000000
 11
287.9069575392131
 21
106.6984290558694
 31
0.0000000000000000
  0
LINE
  5
1F9
100
AcDbEntity
  8
MAIN1
  6
CONTINUOUS
 62
7
100
AcDbLine
 10
288.7140034576131
 20
106.3164539119696
 30
0.0000000000000000
 11
288.7140034576131
 21
84.71645391196955
 31
0.0000000000000000
  0
LINE
  5
1FA
100
AcDbEntity
  8
MAIN1
  6
CONTINUOUS
 62
7
100
AcDbLine
 10
304.7293651465132
 20
106.3164539119696
 30
0.0000000000000000
 11
288.7140034576131
 21
106.3164539119696
 31
0.0000000000000000
  0
LINE
  5
1FB
100
AcDbEntity
  8
MAIN1
  6
CONTINUOUS
 62
7
100
AcDbLine
 10
304.7293651465132
 20
106.3164539119695
 30
0.0000000000000000
 11
303.2293651465132
 21
109.3164539119695
 31
0.0000000000000000
  0
LINE
  5
1FC
100
AcDbEntity
  8
MAIN1
  6
CONTINUOUS
 62
7
100
AcDbLine
 10
342.9011249066132
 20
84.71645391196955
 30
0.0000000000000000
 11
358.9164865955131
 21
84.71645391196955
 31
0.0000000000000000
  0
LINE
  5
1FD
100
AcDbEntity
  8
MAIN1
  6
CONTINUOUS
 62
7
100
AcDbLine
 10
342.9011249066132
 20
84.71645391196955
 30
0.0000000000000000
 11
342.9011249066132
 21
106.3164539119696
 31
0.0000000000000000
  0
LINE
  5
1FE
100
AcDbEntity
  8
MAIN1
  6
CONTINUOUS
 62
7
100
AcDbLine
 10
304.7293651465132
 20
84.71645391196955
 30
0.0000000000000000
 11
304.7293651465132
 21
106.3164539119696
 31
0.0000000000000000
  0
LINE
  5
1FF
100
AcDbEntity
  8
MAIN1
  6
CONTINUOUS
 62
7
100
AcDbLine
 10
288.7140034576131
 20
84.71645391196955
 30
0.0000000000000000
 11
304.7293651465132
 21
84.71645391196955
 31
0.0000000000000000
  0
SPLINE
  5
200
100
AcDbEntity
  8
MAIN1
  6
CONTINUOUS
 62
7
100
AcDbSpline
210
0.0000000000000000
220
0.0000000000000000
230
1.000000000000000
 70
     8
 71
     3
 72
     8
 73
     4
 74
     0
 42
1.000000000000000e-007
 43
1.000000000000000e-007
 12
-0.3121753799573526
 22
0.9513175396153883
 32
0.0000000000000000
 13
-0.3127429243372717
 23
0.9485307017623654
 33
0.0000000000000000
 40
0.0000000000000000
 40
0.0000000000000000
 40
0.0000000000000000
 40
0.0000000000000000
 40
0.4210830387013703
 40
0.4210830387013703
 40
0.4210830387013703
 40
0.4210830387013703
 10
365.3081645054594
 20
108.9164539120189
 30
0.0000000000000000
 10
365.2643472529261
 20
109.0499818054693
 30
0.0000000000000000
 10
365.2204906520802
 20
109.1833171819524
 30
0.0000000000000000
 10
365.1765937384429
 20
109.3164539120189
 30
0.0000000000000000
  0
SPLINE
  5
201
100
AcDbEntity
  8
MAIN1
  6
CONTINUOUS
 62
7
100
AcDbSpline
210
0.0000000000000000
220
0.0000000000000000
230
1.000000000000000
 70
     8
 71
     3
 72
     8
 73
     4
 74
     0
 42
1.000000000000000e-007
 43
1.000000000000000e-007
 12
-0.2115829035569732
 22
-0.9750606263337431
 32
0.0000000000000000
 13
-0.2110609405490322
 23
-0.9797456932366231
 33
0.0000000000000000
 40
0.0000000000000000
 40
0.0000000000000000
 40
0.0000000000000000
 40
0.0000000000000000
 40
0.4092421010800367
 40
0.4092421010800367
 40
0.4092421010800367
 40
0.4092421010800367
 10
282.4618759320379
 20
109.3164539120189
 30
0.0000000000000000
 10
282.4330130547031
 20
109.1834419588852
 30
0.0000000000000000
 10
282.4041861951969
 20
109.0501049740270
 30
0.0000000000000000
 10
282.3753945209415
 20
108.9164539120189
 30
0.0000000000000000
  0
LINE
  5
202
100
AcDbEntity
  8
MAIN1
  6
CONTINUOUS
 62
7
100
AcDbLine
 10
337.9011249066132
 20
84.71645391196955
 30
0.0000000000000000
 11
342.9011249066132
 21
84.71645391196955
 31
0.0000000000000000
  0
LINE
  5
203
100
AcDbEntity
  8
MAIN1
  6
CONTINUOUS
 62
7
100
AcDbLine
 10
304.7293651465132
 20
84.71645391196955
 30
0.0000000000000000
 11
309.7293651465132
 21
84.71645391196955
 31
0.0000000000000000
  0
LINE
  5
204
100
AcDbEntity
  8
MAIN1
  6
CONTINUOUS
 62
7
100
AcDbLine
 10
342.9011249066132
 20
106.3164539119696
 30
0.0000000000000000
 11
337.9011249066132
 21
106.3164539119696
 31
0.0000000000000000
  0
LINE
  5
205
100
AcDbEntity
  8
MAIN1
  6
CONTINUOUS
 62
7
100
AcDbLine
 10
337.9011249066132
 20
84.71645391196955
 30
0.0000000000000000
 11
337.9011249066132
 21
106.3164539119696
 31
0.0000000000000000
  0
LINE
  5
206
100
AcDbEntity
  8
MAIN1
  6
CONTINUOUS
 62
7
100
AcDbLine
 10
337.9011249066132
 20
106.3164539119696
 30
0.0000000000000000
 11
337.9011249066132
 21
109.3164539119696
 31
0.0000000000000000
  0
LINE
  5
207
100
AcDbEntity
  8
MAIN1
  6
CONTINUOUS
 62
7
100
AcDbLine
 10
309.7293651465132
 20
106.3164539119696
 30
0.0000000000000000
 11
304.7293651465132
 21
106.3164539119696
 31
0.0000000000000000
  0
LINE
  5
208
100
AcDbEntity
  8
MAIN1
  6
CONTINUOUS
 62
7
100
AcDbLine
 10
309.7293651465132
 20
84.71645391196955
 30
0.0000000000000000
 11
309.7293651465132
 21
106.3164539119696
 31
0.0000000000000000
  0
LINE
  5
209
100
AcDbEntity
  8
MAIN1
  6
CONTINUOUS
 62
7
100
AcDbLine
 10
309.7293651465132
 20
106.3164539119696
 30
0.0000000000000000
 11
309.7293651465132
 21
109.3164539119696
 31
0.0000000000000000
  0
LINE
  5
20A
100
AcDbEntity
  8
MAIN1
  6
CONTINUOUS
 62
7
100
AcDbLine
 10
309.7293651465132
 20
84.71645391196955
 30
0.0000000000000000
 11
337.9011249066132
 21
84.71645391196955
 31
0.0000000000000000
  0
LINE
  5
20B
100
AcDbEntity
  8
MAIN1
  6
CONTINUOUS
 62
7
100
AcDbLine
 10
337.9011249066132
 20
106.3164539119696
 30
0.0000000000000000
 11
309.7293651465132
 21
106.3164539119696
 31
0.0000000000000000
  0
SPLINE
  5
20C
100
AcDbEntity
  8
MAIN1
  6
CONTINUOUS
 62
7
100
AcDbSpline
210
0.0000000000000000
220
0.0000000000000000
230
1.000000000000000
 70
     8
 71
     3
 72
     8
 73
     4
 74
     0
 42
1.000000000000000e-007
 43
1.000000000000000e-007
 12
-0.7640392825035178
 22
-0.6456523525865805
 32
0.0000000000000000
 13
-0.7624153497361021
 23
-0.6466065405112431
 33
0.0000000000000000
 40
0.0000000000000000
 40
0.0000000000000000
 40
0.0000000000000000
 40
0.0000000000000000
 40
0.6190693595191279
 40
0.6190693595191279
 40
0.6190693595191279
 40
0.6190693595191279
 10
274.3535377430166
 20
109.3164539120189
 30
0.0000000000000000
 10
274.1958733065943
 20
109.1832193825563
 30
0.0000000000000000
 10
274.0383772080310
 20
109.0498853443173
 30
0.0000000000000000
 10
273.8810478806148
 20
108.9164539120189
 30
0.0000000000000000
  0
LINE
  5
20D
100
AcDbEntity
  8
MAIN1
  6
CONTINUOUS
 62
7
100
AcDbLine
 10
274.3535377430131
 20
109.3164539119696
 30
0.0000000000000000
 11
274.9122301154131
 21
109.3164539119696
 31
0.0000000000000000
  0
SPLINE
  5
20E
100
AcDbEntity
  8
MAIN1
  6
CONTINUOUS
 62
7
100
AcDbSpline
210
0.0000000000000000
220
0.0000000000000000
230
1.000000000000000
 70
     8
 71
     3
 72
     9
 73
     5
 74
     0
 42
1.000000000000000e-007
 43
1.000000000000000e-007
 12
-0.2658349640923916
 22
0.4011989192193823
 32
0.0000000000000000
 13
-0.2651452830509697
 23
0.3987997500212259
 33
0.0000000000000000
 40
0.0000000000000000
 40
0.0000000000000000
 40
0.0000000000000000
 40
0.0000000000000000
 40
0.5012322905245795
 40
1.000000000000000
 40
1.000000000000000
 40
1.000000000000000
 40
1.000000000000000
 10
373.5385608671069
 20
108.9164535919092
 30
0.0000000000000000
 10
373.4941458444557
 20
108.9834848763213
 30
0.0000000000000000
 10
373.4055341897582
 20
109.1172178493946
 30
0.0000000000000000
 10
373.3171524287416
 20
109.2501510994014
 30
0.0000000000000000
 10
373.2730704602398
 20
109.3164539120205
 30
0.0000000000000000
  0
LINE
  5
20F
100
AcDbEntity
  8
MAIN1
  6
CONTINUOUS
 62
7
100
AcDbLine
 10
372.7182599376131
 20
109.3164539119696
 30
0.0000000000000000
 11
373.2730704602132
 21
109.3164539119696
 31
0.0000000000000000
  0
SPLINE
  5
210
100
AcDbEntity
  8
MAIN1
  6
CONTINUOUS
 62
7
100
AcDbSpline
210
0.0000000000000000
220
0.0000000000000000
230
1.000000000000000
 70
     8
 71
     3
 72
     8
 73
     4
 74
     0
 42
1.000000000000000e-007
 43
1.000000000000000e-007
 12
-0.7249972955726207
 22
-0.6888415429676229
 32
0.0000000000000000
 13
-0.7246401586724005
 23
-0.6890376238725935
 33
0.0000000000000000
 40
0.0000000000000000
 40
0.0000000000000000
 40
0.0000000000000000
 40
0.0000000000000000
 40
0.5806021806843449
 40
0.5806021806843449
 40
0.5806021806843449
 40
0.5806021806843449
 10
273.1467644086009
 20
83.71645391201901
 30
0.0000000000000000
 10
273.0064527383343
 20
83.58313961135468
 30
0.0000000000000000
 10
272.8661757787056
 20
83.44980616101691
 30
0.0000000000000000
 10
272.7259332265933
 20
83.31645391201892
 30
0.0000000000000000
  0
LINE
  5
211
100
AcDbEntity
  8
MAIN1
  6
CONTINUOUS
 62
7
100
AcDbLine
 10
273.1467644086131
 20
83.71645391196955
 30
0.0000000000000000
 11
273.2889326831131
 21
83.71645391196955
 31
0.0000000000000000
  0
LINE
  5
212
100
AcDbEntity
  8
MAIN1
  6
CONTINUOUS
 62
8
100
AcDbLine
 10
311.1135391044131
 20
109.8164539119696
 30
0.0000000000000000
 11
311.1135391044131
 21
109.3164539119696
 31
0.0000000000000000
  0
LINE
  5
213
100
AcDbEntity
  8
MAIN1
  6
CONTINUOUS
 62
8
100
AcDbLine
 10
314.5776407195132
 20
109.8164539119696
 30
0.0000000000000000
 11
314.5776407195132
 21
109.3164539119696
 31
0.0000000000000000
  0
LINE
  5
214
100
AcDbEntity
  8
MAIN1
  6
CONTINUOUS
 62
8
100
AcDbLine
 10
333.0528493336132
 20
109.8164539119696
 30
0.0000000000000000
 11
333.0528493336132
 21
109.3164539119696
 31
0.0000000000000000
  0
LINE
  5
215
100
AcDbEntity
  8
MAIN1
  6
CONTINUOUS
 62
8
100
AcDbLine
 10
336.5169509487131
 20
109.8164539119696
 30
0.0000000000000000
 11
336.5169509487131
 21
109.3164539119696
 31
0.0000000000000000
  0
LINE
  5
216
100
AcDbEntity
  8
MAIN1
  6
CONTINUOUS
 62
8
100
AcDbLine
 10
301.0099093936132
 20
109.8164539119696
 30
0.0000000000000000
 11
301.0099093936132
 21
109.3164539119696
 31
0.0000000000000000
  0
LINE
  5
217
100
AcDbEntity
  8
MAIN1
  6
CONTINUOUS
 62
8
100
AcDbLine
 10
346.6205806595132
 20
109.8164539119696
 30
0.0000000000000000
 11
346.6205806595132
 21
109.3164539119696
 31
0.0000000000000000
  0
LINE
  5
218
100
AcDbEntity
  8
MAIN1
  6
CONTINUOUS
 62
7
100
AcDbLine
 10
201.8379262667722
 20
177.0120427105562
 30
0.0000000000000000
 11
201.8379262667722
 21
237.8091765166563
 31
0.0000000000000000
  0
LINE
  5
219
100
AcDbEntity
  8
MAIN1
  6
CONTINUOUS
 62
7
100
AcDbLine
 10
200.8379262667722
 20
177.0120427105562
 30
0.0000000000000000
 11
200.8379262667722
 21
238.5205394210562
 31
0.0000000000000000
  0
LINE
  5
21A
100
AcDbEntity
  8
MAIN1
  6
CONTINUOUS
 62
7
100
AcDbLine
 10
226.9379262667721
 20
176.7341840793561
 30
0.0000000000000000
 11
226.9379262667721
 21
209.1174999413562
 31
0.0000000000000000
  0
LINE
  5
21B
100
AcDbEntity
  8
MAIN1
  6
CONTINUOUS
 62
7
100
AcDbLine
 10
227.2379262667722
 20
241.9104111070562
 30
0.0000000000000000
 11
227.4379262667721
 21
241.7104111070562
 31
0.0000000000000000
  0
LINE
  5
21C
100
AcDbEntity
  8
MAIN1
  6
CONTINUOUS
 62
7
100
AcDbLine
 10
226.4379262667721
 20
168.0264813893562
 30
0.0000000000000000
 11
226.4379262667721
 21
221.9104111070562
 31
0.0000000000000000
  0
LINE
  5
21D
100
AcDbEntity
  8
MAIN1
  6
CONTINUOUS
 62
7
100
AcDbLine
 10
223.4379262667721
 20
177.0120427105562
 30
0.0000000000000000
 11
223.4379262667721
 21
220.2160785283323
 31
0.0000000000000000
  0
LINE
  5
21E
100
AcDbEntity
  8
MAIN1
  6
CONTINUOUS
 62
7
100
AcDbLine
 10
227.4379262667721
 20
157.2079046377562
 30
0.0000000000000000
 11
227.4379262667721
 21
176.7341840793561
 31
0.0000000000000000
  0
LINE
  5
21F
100
AcDbEntity
  8
MAIN1
  6
CONTINUOUS
 62
7
100
AcDbLine
 10
205.2379262667722
 20
241.9104111070562
 30
0.0000000000000000
 11
227.2379262667722
 21
241.9104111070562
 31
0.0000000000000000
  0
LINE
  5
220
100
AcDbEntity
  8
MAIN1
  6
CONTINUOUS
 62
7
100
AcDbLine
 10
179.8379262667722
 20
165.1174999413562
 30
0.0000000000000000
 11
179.8379262667722
 21
214.7174999413562
 31
0.0000000000000000
  0
LINE
  5
221
100
AcDbEntity
  8
MAIN1
  6
CONTINUOUS
 62
7
100
AcDbLine
 10
287.9069575392131
 20
83.71645391196955
 30
0.0000000000000000
 11
359.7235325139131
 21
83.71645391196955
 31
0.0000000000000000
  0
LINE
  5
222
100
AcDbEntity
  8
MAIN1
  6
CONTINUOUS
 62
7
100
AcDbLine
 10
273.6085775538131
 20
73.71645391196955
 30
0.0000000000000000
 11
374.0219124993131
 21
73.71645391196955
 31
0.0000000000000000
  0
LINE
  5
223
100
AcDbEntity
  8
MAIN1
  6
CONTINUOUS
 62
7
100
AcDbLine
 10
337.2845431136132
 20
66.71645391196955
 30
0.0000000000000000
 11
349.5777011669131
 21
66.71645391196955
 31
0.0000000000000000
  0
LINE
  5
224
100
AcDbEntity
  8
MAIN1
  6
CONTINUOUS
 62
7
100
AcDbLine
 10
298.0527888862131
 20
62.71645391196955
 30
0.0000000000000000
 11
349.3847143677132
 21
62.71645391196955
 31
0.0000000000000000
  0
LINE
  5
225
100
AcDbEntity
  8
MAIN1
  6
CONTINUOUS
 62
8
100
AcDbLine
 10
310.3152450265131
 20
62.31645391196958
 30
0.0000000000000000
 11
337.3152450265131
 21
62.31645391196958
 31
0.0000000000000000
  0
LINE
  5
226
100
AcDbEntity
  8
MAIN1
  6
CONTINUOUS
 62
7
100
AcDbLine
 10
282.4618759320131
 20
109.3164539119696
 30
0.0000000000000000
 11
365.1765937384131
 21
109.3164539119696
 31
0.0000000000000000
  0
LINE
  5
227
100
AcDbEntity
  8
MAIN1
  6
CONTINUOUS
 62
7
100
AcDbLine
 10
349.8977518620131
 20
110.3164539119696
 30
0.0000000000000000
 11
367.2182599376131
 21
110.3164539119696
 31
0.0000000000000000
  0
LINE
  5
228
100
AcDbEntity
  8
MAIN1
  6
CONTINUOUS
 62
7
100
AcDbLine
 10
300.4740110087132
 20
109.8164539119696
 30
0.0000000000000000
 11
347.1564790444131
 21
109.8164539119696
 31
0.0000000000000000
  0
LINE
  5
229
100
AcDbEntity
  8
MAIN1
  6
CONTINUOUS
 62
7
100
AcDbLine
 10
274.9122301154131
 20
110.3164539119696
 30
0.0000000000000000
 11
297.7327381911131
 21
110.3164539119696
 31
0.0000000000000000
  0
ARC
  5
22A
100
AcDbEntity
  8
MAIN1
  6
CONTINUOUS
 62
7
100
AcDbCircle
 10
323.8152450265131
 20
122.7164539119696
 30
0.0000000000000000
 40
52.00000000000036
100
AcDbArc
 50
309.7151372318000
 51
311.4096221093000
  0
CIRCLE
  5
22B
100
AcDbEntity
  8
MAIN1
  6
CONTINUOUS
 62
7
100
AcDbCircle
 10
83.42758981705407
 20
188.6174999422062
 30
0.0000000000000000
 40
1.499999999999992
  0
CIRCLE
  5
22C
100
AcDbEntity
  8
MAIN1
  6
CONTINUOUS
 62
7
100
AcDbCircle
 10
83.42758981705407
 20
188.6174999422062
 30
0.0000000000000000
 40
10.00000000000000
  0
CIRCLE
  5
22D
100
AcDbEntity
  8
MAIN1
  6
CONTINUOUS
 62
7
100
AcDbCircle
 10
83.42758981705407
 20
188.6174999422062
 30
0.0000000000000000
 40
9.000000000000000
  0
LINE
  5
22E
100
AcDbEntity
  8
MAIN1
  6
CONTINUOUS
 62
7
100
AcDbLine
 10
86.92758981705700
 20
183.7441027698083
 30
0.0000000000000000
 11
86.92758981705799
 21
182.1174999422083
 31
0.0000000000000000
  0
ARC
  5
22F
100
AcDbEntity
  8
MAIN1
  6
CONTINUOUS
 62
7
100
AcDbCircle
 10
84.92758981705805
 20
182.1174999422071
 30
0.0000000000000000
 40
2.000000000000000
100
AcDbArc
 50
270.0000000000350
 51
360.0000000000350
  0
LINE
  5
230
100
AcDbEntity
  8
MAIN1
  6
CONTINUOUS
 62
7
100
AcDbLine
 10
84.92758981705921
 20
180.1174999422071
 30
0.0000000000000000
 11
81.92758981705921
 21
180.1174999422052
 31
0.0000000000000000
  0
ARC
  5
231
100
AcDbEntity
  8
MAIN1
  6
CONTINUOUS
 62
7
100
AcDbCircle
 10
81.92758981705805
 20
182.1174999422053
 30
0.0000000000000000
 40
2.000000000000000
100
AcDbArc
 50
180.0000000000349
 51
270.0000000000350
  0
LINE
  5
232
100
AcDbEntity
  8
MAIN1
  6
CONTINUOUS
 62
7
100
AcDbLine
 10
79.92758981705700
 20
183.7441027698040
 30
0.0000000000000000
 11
79.92758981705799
 21
182.1174999422040
 31
0.0000000000000000
  0
LINE
  5
233
100
AcDbEntity
  8
MAIN1
  6
CONTINUOUS
 62
7
100
AcDbLine
 10
77.45710406295447
 20
188.0231096151025
 30
0.0000000000000000
 11
76.04842469245401
 21
188.8364110289017
 31
0.0000000000000000
  0
ARC
  5
234
100
AcDbEntity
  8
MAIN1
  6
CONTINUOUS
 62
7
100
AcDbCircle
 10
77.04842469245278
 20
190.5684618365023
 30
0.0000000000000000
 40
2.000000000000045
100
AcDbArc
 50
150.0000000000349
 51
240.0000000000349
  0
LINE
  5
235
100
AcDbEntity
  8
MAIN1
  6
CONTINUOUS
 62
7
100
AcDbLine
 10
75.31637388485228
 20
191.5684618365013
 30
0.0000000000000000
 11
76.81637388485063
 21
194.1665380478022
 31
0.0000000000000000
  0
ARC
  5
236
100
AcDbEntity
  8
MAIN1
  6
CONTINUOUS
 62
7
100
AcDbCircle
 10
78.54842469245119
 20
193.1665380478033
 30
0.0000000000000000
 40
2.000000000000016
100
AcDbArc
 50
60.00000000003494
 51
150.0000000000349
  0
LINE
  5
237
100
AcDbEntity
  8
MAIN1
  6
CONTINUOUS
 62
7
100
AcDbLine
 10
80.95710406295063
 20
194.0852874416046
 30
0.0000000000000000
 11
79.54842469245025
 21
194.8985888554037
 31
0.0000000000000000
  0
LINE
  5
238
100
AcDbEntity
  8
MAIN1
  6
CONTINUOUS
 62
7
100
AcDbLine
 10
85.89807557105075
 20
194.0852874416079
 30
0.0000000000000000
 11
87.30675494165018
 21
194.8985888554087
 31
0.0000000000000000
  0
ARC
  5
239
100
AcDbEntity
  8
MAIN1
  6
CONTINUOUS
 62
7
100
AcDbCircle
 10
88.30675494165126
 20
193.1665380478092
 30
0.0000000000000000
 40
2.000000000000016
100
AcDbArc
 50
30.00000000003498
 51
120.0000000000350
  0
LINE
  5
23A
100
AcDbEntity
  8
MAIN1
  6
CONTINUOUS
 62
7
100
AcDbLine
 10
90.03880574915067
 20
194.1665380478103
 30
0.0000000000000000
 11
91.53880574915226
 21
191.5684618365112
 31
0.0000000000000000
  0
ARC
  5
23B
100
AcDbEntity
  8
MAIN1
  6
CONTINUOUS
 62
7
100
AcDbCircle
 10
89.80675494165286
 20
190.5684618365100
 30
0.0000000000000000
 40
1.999999999999988
100
AcDbArc
 50
300.0000000000349
 51
390.0000000000350
  0
LINE
  5
23C
100
AcDbEntity
  8
MAIN1
  6
CONTINUOUS
 62
7
100
AcDbLine
 10
89.39807557105436
 20
188.0231096151097
 30
0.0000000000000000
 11
90.80675494165388
 21
188.8364110289106
 31
0.0000000000000000
  0
LINE
  5
23D
100
AcDbEntity
  8
MAIN1
  6
CONTINUOUS
 62
7
100
AcDbLine
 10
79.92758981705660
 20
184.3748592550041
 30
0.0000000000000000
 11
79.92758981705700
 21
183.7441027698040
 31
0.0000000000000000
  0
ARC
  5
23E
100
AcDbEntity
  8
MAIN1
  6
CONTINUOUS
 62
7
100
AcDbCircle
 10
83.42758981705407
 20
188.6174999422062
 30
0.0000000000000000
 40
5.499999999999982
100
AcDbArc
 50
189.5211963586349
 51
230.4788036414349
  0
LINE
  5
23F
100
AcDbEntity
  8
MAIN1
  6
CONTINUOUS
 62
7
100
AcDbLine
 10
78.00335520285464
 20
187.7077313725030
 30
0.0000000000000000
 11
77.45710406295447
 21
188.0231096151026
 31
0.0000000000000000
  0
LINE
  5
240
100
AcDbEntity
  8
MAIN1
  6
CONTINUOUS
 62
7
100
AcDbLine
 10
85.35182443115087
 20
193.7699091990074
 30
0.0000000000000000
 11
85.89807557105064
 21
194.0852874416078
 31
0.0000000000000000
  0
LINE
  5
241
100
AcDbEntity
  8
MAIN1
  6
CONTINUOUS
 62
7
100
AcDbLine
 10
81.50335520285086
 20
193.7699091990050
 30
0.0000000000000000
 11
80.95710406295061
 21
194.0852874416048
 31
0.0000000000000000
  0
ARC
  5
242
100
AcDbEntity
  8
MAIN1
  6
CONTINUOUS
 62
7
100
AcDbCircle
 10
83.42758981705407
 20
188.6174999422062
 30
0.0000000000000000
 40
5.500000000000050
100
AcDbArc
 50
69.52119635863492
 51
110.4788036414350
  0
LINE
  5
243
100
AcDbEntity
  8
MAIN1
  6
CONTINUOUS
 62
7
100
AcDbLine
 10
86.92758981705660
 20
184.3748592550084
 30
0.0000000000000000
 11
86.92758981705700
 21
183.7441027698083
 31
0.0000000000000000
  0
LINE
  5
244
100
AcDbEntity
  8
MAIN1
  6
CONTINUOUS
 62
7
100
AcDbLine
 10
88.85182443115446
 20
187.7077313725095
 30
0.0000000000000000
 11
89.39807557105422
 21
188.0231096151098
 31
0.0000000000000000
  0
ARC
  5
245
100
AcDbEntity
  8
MAIN1
  6
CONTINUOUS
 62
7
100
AcDbCircle
 10
83.42758981705407
 20
188.6174999422062
 30
0.0000000000000000
 40
5.500000000000031
100
AcDbArc
 50
309.5211963586349
 51
350.4788036414349
  0
ARC
  5
246
100
AcDbEntity
  8
MAIN1
  6
CONTINUOUS
 62
7
100
AcDbCircle
 10
83.42758981705407
 20
188.6174999422062
 30
0.0000000000000000
 40
5.500000000000050
100
AcDbArc
 50
110.4788036414350
 51
189.5211963586349
  0
ARC
  5
247
100
AcDbEntity
  8
MAIN1
  6
CONTINUOUS
 62
7
100
AcDbCircle
 10
83.42758981705407
 20
188.6174999422062
 30
0.0000000000000000
 40
5.499999999999982
100
AcDbArc
 50
230.4788036414349
 51
309.5211963586349
  0
ARC
  5
248
100
AcDbEntity
  8
MAIN1
  6
CONTINUOUS
 62
7
100
AcDbCircle
 10
83.42758981705407
 20
188.6174999422062
 30
0.0000000000000000
 40
5.500000000000036
100
AcDbArc
 50
350.4788036414350
 51
429.5211963586349
  0
LINE
  5
249
100
AcDbEntity
  8
MAIN1
  6
CONTINUOUS
 62
7
100
AcDbLine
 10
34.76782985176510
 20
170.2809939767766
 30
0.0000000000000000
 11
33.04957490596576
 21
169.2889590212756
 31
0.0000000000000000
  0
LINE
  5
24A
100
AcDbEntity
  8
MAIN1
  6
CONTINUOUS
 62
7
100
AcDbLine
 10
33.04957490596581
 20
169.2889590212755
 30
0.0000000000000000
 11
33.19957490596602
 21
169.0291514001755
 31
0.0000000000000000
  0
LINE
  5
24B
100
AcDbEntity
  8
MAIN1
  6
CONTINUOUS
 62
7
100
AcDbLine
 10
33.19957490596602
 20
169.0291514001756
 30
0.0000000000000000
 11
41.34957490597463
 21
154.9129373184806
 31
0.0000000000000000
  0
LINE
  5
24C
100
AcDbEntity
  8
MAIN1
  6
CONTINUOUS
 62
7
100
AcDbLine
 10
41.49957490597490
 20
154.6531296972807
 30
0.0000000000000000
 11
43.21782985167425
 21
155.6451646527817
 31
0.0000000000000000
  0
LINE
  5
24D
100
AcDbEntity
  8
MAIN1
  6
CONTINUOUS
 62
7
100
AcDbLine
 10
41.34957490597446
 20
154.9129373184807
 30
0.0000000000000000
 11
41.49957490597461
 21
154.6531296972808
 31
0.0000000000000000
  0
LINE
  5
24E
100
AcDbEntity
  8
MAIN1
  6
CONTINUOUS
 62
7
100
AcDbLine
 10
123.6373497823743
 20
155.6451646528307
 30
0.0000000000000000
 11
125.3556047281749
 21
154.6531296973318
 31
0.0000000000000000
  0
LINE
  5
24F
100
AcDbEntity
  8
MAIN1
  6
CONTINUOUS
 62
7
100
AcDbLine
 10
125.3556047281749
 20
154.6531296973317
 30
0.0000000000000000
 11
125.5056047281747
 21
154.9129373185318
 31
0.0000000000000000
  0
LINE
  5
250
100
AcDbEntity
  8
MAIN1
  6
CONTINUOUS
 62
7
100
AcDbLine
 10
125.5056047281746
 20
154.9129373185317
 30
0.0000000000000000
 11
133.6556047281661
 21
169.0291514002368
 31
0.0000000000000000
  0
LINE
  5
251
100
AcDbEntity
  8
MAIN1
  6
CONTINUOUS
 62
7
100
AcDbLine
 10
133.8056047281659
 20
169.2889590213367
 30
0.0000000000000000
 11
132.0873497823652
 21
170.2809939768357
 31
0.0000000000000000
  0
LINE
  5
252
100
AcDbEntity
  8
MAIN1
  6
CONTINUOUS
 62
7
100
AcDbLine
 10
133.6556047281658
 20
169.0291514002367
 30
0.0000000000000000
 11
133.8056047281657
 21
169.2889590213369
 31
0.0000000000000000
  0
LINE
  5
253
100
AcDbEntity
  8
MAIN1
  6
CONTINUOUS
 62
7
100
AcDbLine
 10
91.57758981702139
 20
241.9104111078112
 30
0.0000000000000000
 11
75.27758981702144
 21
241.9104111078013
 31
0.0000000000000000
  0
LINE
  5
254
100
AcDbEntity
  8
MAIN1
  6
CONTINUOUS
 62
7
100
AcDbLine
 10
74.97758981702148
 20
241.9104111078011
 30
0.0000000000000000
 11
74.97758981702268
 21
239.9263411969010
 31
0.0000000000000000
  0
LINE
  5
255
100
AcDbEntity
  8
MAIN1
  6
CONTINUOUS
 62
7
100
AcDbLine
 10
75.27758981702144
 20
241.9104111078013
 30
0.0000000000000000
 11
74.97758981702148
 21
241.9104111078011
 31
0.0000000000000000
  0
LINE
  5
256
100
AcDbEntity
  8
MAIN1
  6
CONTINUOUS
 62
7
100
AcDbLine
 10
91.87758981702265
 20
239.9263411969113
 30
0.0000000000000000
 11
91.87758981702146
 21
241.9104111078114
 31
0.0000000000000000
  0
LINE
  5
257
100
AcDbEntity
  8
MAIN1
  6
CONTINUOUS
 62
7
100
AcDbLine
 10
91.87758981702146
 20
241.9104111078114
 30
0.0000000000000000
 11
91.57758981702139
 21
241.9104111078112
 31
0.0000000000000000
  0
ARC
  5
258
100
AcDbEntity
  8
MAIN1
  6
CONTINUOUS
 62
7
100
AcDbCircle
 10
83.42758981705407
 20
188.6174999422062
 30
0.0000000000000000
 40
52.00000000000006
100
AcDbArc
 50
189.7151372318349
 51
230.2848627682349
  0
LINE
  5
259
100
AcDbEntity
  8
MAIN1
  6
CONTINUOUS
 62
7
100
AcDbLine
 10
65.39982139142433
 20
237.3924890819951
 30
0.0000000000000000
 11
32.17332593985941
 21
179.8425108022748
 31
0.0000000000000000
  0
CIRCLE
  5
25A
100
AcDbEntity
  8
MAIN1
  6
CONTINUOUS
 62
7
100
AcDbCircle
 10
83.42758981705407
 20
188.6174999422062
 30
0.0000000000000000
 40
37.10000000000002
  0
LINE
  5
25B
100
AcDbEntity
  8
MAIN1
  6
CONTINUOUS
 62
7
100
AcDbLine
 10
50.20109436537837
 20
148.6174999421859
 30
0.0000000000000000
 11
116.6540852686784
 21
148.6174999422264
 31
0.0000000000000000
  0
ARC
  5
25C
100
AcDbEntity
  8
MAIN1
  6
CONTINUOUS
 62
7
100
AcDbCircle
 10
83.42758981705407
 20
188.6174999422062
 30
0.0000000000000000
 40
52.00000000000001
100
AcDbArc
 50
69.71513723183493
 51
110.2848627682349
  0
LINE
  5
25D
100
AcDbEntity
  8
MAIN1
  6
CONTINUOUS
 62
7
100
AcDbLine
 10
134.6818536942594
 20
179.8425108023374
 30
0.0000000000000000
 11
101.4553582425243
 21
237.3924890820172
 31
0.0000000000000000
  0
ARC
  5
25E
100
AcDbEntity
  8
MAIN1
  6
CONTINUOUS
 62
7
100
AcDbCircle
 10
83.42758981705407
 20
188.6174999422062
 30
0.0000000000000000
 40
52.00000000000001
100
AcDbArc
 50
309.7151372318349
 51
350.2848627682350
  0
LINE
  5
25F
100
AcDbEntity
  8
MAIN0
  6
CONTINUOUS
 62
3
100
AcDbLine
 10
290.5887495747675
 20
148.6174999414055
 30
0.0000000000000000
 11
357.0417404781678
 21
148.6174999415097
 31
0.0000000000000000
  0
LINE
  5
260
100
AcDbEntity
  8
MAIN0
  6
CONTINUOUS
 62
3
100
AcDbLine
 10
375.0695089036265
 20
179.8425108016029
 30
0.0000000000000000
 11
341.8430134518362
 21
237.3924890813518
 31
0.0000000000000000
  0
LINE
  5
261
100
AcDbEntity
  8
MAIN0
  6
CONTINUOUS
 62
3
100
AcDbLine
 10
305.7874766008215
 20
237.3924890812955
 30
0.0000000000000000
 11
272.5609811492112
 21
179.8425108014421
 31
0.0000000000000000
  0
LINE
  5
262
100
AcDbEntity
  8
MAIN0
  6
CONTINUOUS
 62
3
100
AcDbLine
 10
308.8152450262943
 20
238.4070570794196
 30
0.0000000000000000
 11
308.8152450263366
 21
219.3162297521144
 31
0.0000000000000000
  0
LINE
  5
263
100
AcDbEntity
  8
MAIN0
  6
CONTINUOUS
 62
3
100
AcDbLine
 10
338.8152450262943
 20
238.4070570794863
 30
0.0000000000000000
 11
338.8152450263367
 21
219.3162297522175
 31
0.0000000000000000
  0
LINE
  5
264
100
AcDbEntity
  8
MAIN0
  6
CONTINUOUS
 62
3
100
AcDbLine
 10
335.8152450262925
 20
239.2139425041551
 30
0.0000000000000000
 11
335.8152450263385
 21
218.5123821749193
 31
0.0000000000000000
  0
LINE
  5
265
100
AcDbEntity
  8
MAIN0
  6
CONTINUOUS
 62
3
100
AcDbLine
 10
311.8152450262925
 20
239.2139425041019
 30
0.0000000000000000
 11
311.8152450263384
 21
218.5123821748267
 31
0.0000000000000000
  0
LINE
  5
266
100
AcDbEntity
  8
MAIN0
  6
CONTINUOUS
 62
3
100
AcDbLine
 10
273.1962237017301
 20
176.7131024290794
 30
0.0000000000000000
 11
289.7293651463860
 21
186.2585160927506
 31
0.0000000000000000
  0
ARC
  5
267
100
AcDbEntity
  8
MAIN0
  6
CONTINUOUS
 62
3
100
AcDbCircle
 10
323.8152450264049
 20
188.6174999414345
 30
0.0000000000000000
 40
52.00000000000000
100
AcDbArc
 50
189.7151372319559
 51
230.2848627682231
  0
LINE
  5
268
100
AcDbEntity
  8
MAIN0
  6
CONTINUOUS
 62
3
100
AcDbLine
 10
273.9974404260251
 20
173.7115835053903
 30
0.0000000000000000
 11
291.9255175690960
 21
184.0623636700476
 31
0.0000000000000000
  0
LINE
  5
269
100
AcDbEntity
  8
MAIN0
  6
CONTINUOUS
 62
3
100
AcDbLine
 10
285.9974404260710
 20
152.9269738145906
 30
0.0000000000000000
 11
303.9255175691761
 21
163.2777539792677
 31
0.0000000000000000
  0
LINE
  5
26A
100
AcDbEntity
  8
MAIN0
  6
CONTINUOUS
 62
3
100
AcDbLine
 10
288.1962237017881
 20
150.7323403155798
 30
0.0000000000000000
 11
304.7293651464754
 21
160.2777539792691
 31
0.0000000000000000
  0
LINE
  5
26B
100
AcDbEntity
  8
MAIN0
  6
CONTINUOUS
 62
3
100
AcDbLine
 10
359.4342663511895
 20
150.7323403157375
 30
0.0000000000000000
 11
342.9011249064916
 21
160.2777539793351
 31
0.0000000000000000
  0
ARC
  5
26C
100
AcDbEntity
  8
MAIN0
  6
CONTINUOUS
 62
3
100
AcDbCircle
 10
323.8152450264048
 20
188.6174999414346
 30
0.0000000000000000
 40
52.00000000000000
100
AcDbArc
 50
309.7151372319560
 51
350.2848627682231
  0
LINE
  5
26D
100
AcDbEntity
  8
MAIN0
  6
CONTINUOUS
 62
3
100
AcDbLine
 10
373.6330496268510
 20
173.7115835056114
 30
0.0000000000000000
 11
355.7049724836999
 21
184.0623636702090
 31
0.0000000000000000
  0
LINE
  5
26E
100
AcDbEntity
  8
MAIN0
  6
CONTINUOUS
 62
3
100
AcDbLine
 10
374.4342663511321
 20
176.7131024293039
 30
0.0000000000000000
 11
357.9011249063830
 21
186.2585160929312
 31
0.0000000000000000
  0
ARC
  5
26F
100
AcDbEntity
  8
MAIN0
  6
CONTINUOUS
 62
3
100
AcDbCircle
 10
323.8152450264048
 20
188.6174999414345
 30
0.0000000000000000
 40
52.00000000000000
100
AcDbArc
 50
69.71513723195594
 51
83.92851296542284
  0
ARC
  5
270
100
AcDbEntity
  8
MAIN0
  6
CONTINUOUS
 62
3
100
AcDbCircle
 10
323.8152450264048
 20
188.6174999414345
 30
0.0000000000000000
 40
52.00000000000000
100
AcDbArc
 50
96.07148703485224
 51
110.2848627682231
  0
LINE
  5
271
100
AcDbEntity
  8
MAIN0
  6
CONTINUOUS
 62
3
100
AcDbLine
 10
361.6330496269009
 20
152.9269738147584
 30
0.0000000000000000
 11
343.7049724837498
 21
163.2777539793560
 31
0.0000000000000000
  0
LINE
  5
272
100
AcDbEntity
  8
MAIN0
  6
CENTER
 62
3
100
AcDbLine
 10
288.2923825313481
 20
164.5584081443787
 30
0.0000000000000000
 11
285.0027998895762
 21
170.2561324156242
 31
0.0000000000000000
  0
LINE
  5
273
100
AcDbEntity
  8
MAIN0
  6
CONTINUOUS
 62
3
100
AcDbLine
 10
281.8119390714182
 20
154.7828654727695
 30
0.0000000000000000
 11
273.5119390714239
 21
169.1588871755944
 31
0.0000000000000000
  0
LINE
  5
274
100
AcDbEntity
  8
MAIN0
  6
CONTINUOUS
 62
3
100
AcDbLine
 10
282.0851441521753
 20
154.7096603920123
 30
0.0000000000000000
 11
281.8119390714185
 21
154.7828654727693
 31
0.0000000000000000
  0
LINE
  5
275
100
AcDbEntity
  8
MAIN0
  6
CONTINUOUS
 62
3
100
AcDbLine
 10
297.7324471471148
 20
167.2077366033704
 30
0.0000000000000000
 11
292.2324471471148
 21
176.7340160449992
 31
0.0000000000000000
  0
LINE
  5
276
100
AcDbEntity
  8
MAIN0
  6
CONTINUOUS
 62
3
100
AcDbLine
 10
291.6702693204766
 20
163.7077366032852
 30
0.0000000000000000
 11
286.1702693204747
 21
173.2340160449129
 31
0.0000000000000000
  0
LINE
  5
277
100
AcDbEntity
  8
MAIN0
  6
CONTINUOUS
 62
3
100
AcDbLine
 10
287.3401423016007
 20
161.2077366033122
 30
0.0000000000000000
 11
281.8401423016007
 21
170.7340160449411
 31
0.0000000000000000
  0
LINE
  5
278
100
AcDbEntity
  8
MAIN0
  6
CENTER
 62
3
100
AcDbLine
 10
282.8125430518679
 20
161.0497685401606
 30
0.0000000000000000
 11
279.2342334891085
 21
167.2475825080695
 31
0.0000000000000000
  0
CIRCLE
  5
279
100
AcDbEntity
  8
MAIN0
  6
CONTINUOUS
 62
3
100
AcDbCircle
 10
281.1260406864632
 20
163.9708763241267
 30
0.0000000000000000
 40
2.000000000000000
  0
CIRCLE
  5
27A
100
AcDbEntity
  8
MAIN0
  6
CONTINUOUS
 62
3
100
AcDbCircle
 10
281.1260406864632
 20
163.9708763241267
 30
0.0000000000000000
 40
1.650000000000000
  0
LINE
  5
27B
100
AcDbEntity
  8
MAIN0
  6
CENTER
 62
3
100
AcDbLine
 10
294.0708733010672
 20
167.5497685401616
 30
0.0000000000000000
 11
290.4925637383078
 21
173.7475825080704
 31
0.0000000000000000
  0
CIRCLE
  5
27C
100
AcDbEntity
  8
MAIN0
  6
CONTINUOUS
 62
3
100
AcDbCircle
 10
286.7552058110621
 20
167.2208763241267
 30
0.0000000000000000
 40
1.999999999970200
  0
LINE
  5
27D
100
AcDbEntity
  8
MAIN0
  6
CONTINUOUS
 62
3
100
AcDbLine
 10
273.5851441521748
 20
169.4320922563477
 30
0.0000000000000000
 11
273.5119390714179
 21
169.1588871755909
 31
0.0000000000000000
  0
LINE
  5
27E
100
AcDbEntity
  8
MAIN0
  6
CONTINUOUS
 62
3
100
AcDbLine
 10
275.1376353675921
 20
170.3284234774834
 30
0.0000000000000000
 11
273.5851441521746
 21
169.4320922563475
 31
0.0000000000000000
  0
LINE
  5
27F
100
AcDbEntity
  8
MAIN0
  6
CONTINUOUS
 62
3
100
AcDbLine
 10
283.6376353676296
 20
155.6059916131697
 30
0.0000000000000000
 11
282.0851441521749
 21
154.7096603920123
 31
0.0000000000000000
  0
LINE
  5
280
100
AcDbEntity
  8
MAIN0
  6
CONTINUOUS
 62
3
100
AcDbLine
 10
304.2276376754599
 20
170.9577366033564
 30
0.0000000000000000
 11
281.7845293108939
 21
158.0002019476223
 31
0.0000000000000000
  0
LINE
  5
281
100
AcDbEntity
  8
MAIN0
  6
CONTINUOUS
 62
3
100
AcDbLine
 10
298.7276376754600
 20
180.4840160449852
 30
0.0000000000000000
 11
276.2845293108711
 21
167.5264813892379
 31
0.0000000000000000
  0
LINE
  5
282
100
AcDbEntity
  8
MAIN0
  6
CENTER
 62
3
100
AcDbLine
 10
362.4124609621606
 20
169.8833445040933
 30
0.0000000000000000
 11
359.1228783203887
 21
164.1856202328478
 31
0.0000000000000000
  0
LINE
  5
283
100
AcDbEntity
  8
MAIN0
  6
CONTINUOUS
 62
3
100
AcDbLine
 10
374.1185509815175
 20
169.1588871758099
 30
0.0000000000000000
 11
365.8185509815119
 21
154.7828654729916
 31
0.0000000000000000
  0
LINE
  5
284
100
AcDbEntity
  8
MAIN0
  6
CONTINUOUS
 62
3
100
AcDbLine
 10
374.0453459007607
 20
169.4320922565669
 30
0.0000000000000000
 11
374.1185509815175
 21
169.1588871758100
 31
0.0000000000000000
  0
LINE
  5
285
100
AcDbEntity
  8
MAIN0
  6
CONTINUOUS
 62
3
100
AcDbLine
 10
355.3980429058213
 20
176.7340160452179
 30
0.0000000000000000
 11
349.8980429058212
 21
167.2077366035889
 31
0.0000000000000000
  0
LINE
  5
286
100
AcDbEntity
  8
MAIN0
  6
CONTINUOUS
 62
3
100
AcDbLine
 10
361.4602207324597
 20
173.2340160451329
 30
0.0000000000000000
 11
355.9602207324615
 21
163.7077366035030
 31
0.0000000000000000
  0
LINE
  5
287
100
AcDbEntity
  8
MAIN0
  6
CONTINUOUS
 62
3
100
AcDbLine
 10
365.7903477513356
 20
170.7340160451596
 30
0.0000000000000000
 11
360.2903477513355
 21
161.2077366035306
 31
0.0000000000000000
  0
LINE
  5
288
100
AcDbEntity
  8
MAIN0
  6
CENTER
 62
3
100
AcDbLine
 10
368.1909517318780
 20
166.8919841083113
 30
0.0000000000000000
 11
364.6126421691187
 21
160.6941701404025
 31
0.0000000000000000
  0
CIRCLE
  5
289
100
AcDbEntity
  8
MAIN0
  6
CONTINUOUS
 62
3
100
AcDbCircle
 10
366.5044493664727
 20
163.9708763243455
 30
0.0000000000000000
 40
2.000000000000000
  0
CIRCLE
  5
28A
100
AcDbEntity
  8
MAIN0
  6
CONTINUOUS
 62
3
100
AcDbCircle
 10
366.5044493664727
 20
163.9708763243455
 30
0.0000000000000000
 40
1.650000000000000
  0
LINE
  5
28B
100
AcDbEntity
  8
MAIN0
  6
CENTER
 62
3
100
AcDbLine
 10
356.9326214826784
 20
173.3919841083124
 30
0.0000000000000000
 11
353.3543119199190
 21
167.1941701404036
 31
0.0000000000000000
  0
CIRCLE
  5
28C
100
AcDbEntity
  8
MAIN0
  6
CONTINUOUS
 62
3
100
AcDbCircle
 10
360.8752842418739
 20
167.2208763243455
 30
0.0000000000000000
 40
1.999999999970200
  0
LINE
  5
28D
100
AcDbEntity
  8
MAIN0
  6
CONTINUOUS
 62
3
100
AcDbLine
 10
365.5453459007613
 20
154.7096603922312
 30
0.0000000000000000
 11
365.8185509815181
 21
154.7828654729881
 31
0.0000000000000000
  0
LINE
  5
28E
100
AcDbEntity
  8
MAIN0
  6
CONTINUOUS
 62
3
100
AcDbLine
 10
363.9928546853424
 20
155.6059916133675
 30
0.0000000000000000
 11
365.5453459007611
 21
154.7096603922310
 31
0.0000000000000000
  0
LINE
  5
28F
100
AcDbEntity
  8
MAIN0
  6
CONTINUOUS
 62
3
100
AcDbLine
 10
372.4928546853076
 20
170.3284234777231
 30
0.0000000000000000
 11
374.0453459007606
 21
169.4320922565668
 31
0.0000000000000000
  0
LINE
  5
290
100
AcDbEntity
  8
MAIN0
  6
CONTINUOUS
 62
3
100
AcDbLine
 10
348.9028523774734
 20
180.4840160452006
 30
0.0000000000000000
 11
371.3459607420400
 21
167.5264813894661
 31
0.0000000000000000
  0
LINE
  5
291
100
AcDbEntity
  8
MAIN0
  6
CONTINUOUS
 62
3
100
AcDbLine
 10
343.4028523774734
 20
170.9577366035718
 30
0.0000000000000000
 11
365.8459607420627
 21
158.0002019478241
 31
0.0000000000000000
  0
LINE
  5
292
100
AcDbEntity
  8
MAIN0
  6
CENTER
 62
3
100
AcDbLine
 10
67.86162049996329
 20
206.2116276798306
 30
0.0000000000000000
 11
71.68918207418790
 21
201.8853563190289
 31
0.0000000000000000
  0
CIRCLE
  5
293
100
AcDbEntity
  8
MAIN0
  6
CONTINUOUS
 62
3
100
AcDbCircle
 10
69.91014083357496
 20
203.8961966464009
 30
0.0000000000000000
 40
2.000000000000000
  0
CIRCLE
  5
294
100
AcDbEntity
  8
MAIN0
  6
CONTINUOUS
 62
3
100
AcDbCircle
 10
83.42758981705165
 20
170.1174999418598
 30
0.0000000000000000
 40
3.500000000000000
  0
LINE
  5
295
100
AcDbEntity
  8
MAIN0
  6
CONTINUOUS
 62
3
100
AcDbLine
 10
83.42758981705168
 20
171.8495507494286
 30
0.0000000000000000
 11
81.92758981705168
 21
170.9835253456442
 31
0.0000000000000000
  0
LINE
  5
296
100
AcDbEntity
  8
MAIN0
  6
CONTINUOUS
 62
3
100
AcDbLine
 10
81.92758981705165
 20
170.9835253456443
 30
0.0000000000000000
 11
81.92758981705165
 21
169.2514745380754
 31
0.0000000000000000
  0
LINE
  5
297
100
AcDbEntity
  8
MAIN0
  6
CONTINUOUS
 62
3
100
AcDbLine
 10
81.92758981705174
 20
169.2514745380755
 30
0.0000000000000000
 11
83.42758981705168
 21
168.3854491342910
 31
0.0000000000000000
  0
LINE
  5
298
100
AcDbEntity
  8
MAIN0
  6
CONTINUOUS
 62
3
100
AcDbLine
 10
83.42758981705165
 20
168.3854491342910
 30
0.0000000000000000
 11
84.92758981705163
 21
169.2514745380754
 31
0.0000000000000000
  0
LINE
  5
299
100
AcDbEntity
  8
MAIN0
  6
CONTINUOUS
 62
3
100
AcDbLine
 10
84.92758981705165
 20
169.2514745380754
 30
0.0000000000000000
 11
84.92758981705165
 21
170.9835253456443
 31
0.0000000000000000
  0
LINE
  5
29A
100
AcDbEntity
  8
MAIN0
  6
CONTINUOUS
 62
3
100
AcDbLine
 10
84.92758981705168
 20
170.9835253456444
 30
0.0000000000000000
 11
83.42758981705174
 21
171.8495507494288
 31
0.0000000000000000
  0
CIRCLE
  5
29B
100
AcDbEntity
  8
MAIN0
  6
CONTINUOUS
 62
3
100
AcDbCircle
 10
99.44905978736730
 20
197.8674999423773
 30
0.0000000000000000
 40
3.500000000000000
  0
LINE
  5
29C
100
AcDbEntity
  8
MAIN0
  6
CONTINUOUS
 62
3
100
AcDbLine
 10
97.94905978736742
 20
197.0014745385929
 30
0.0000000000000000
 11
99.44905978736742
 21
196.1354491348084
 31
0.0000000000000000
  0
LINE
  5
29D
100
AcDbEntity
  8
MAIN0
  6
CONTINUOUS
 62
3
100
AcDbLine
 10
99.44905978736730
 20
196.1354491348084
 30
0.0000000000000000
 11
100.9490597873673
 21
197.0014745385928
 31
0.0000000000000000
  0
LINE
  5
29E
100
AcDbEntity
  8
MAIN0
  6
CONTINUOUS
 62
3
100
AcDbLine
 10
100.9490597873673
 20
197.0014745385928
 30
0.0000000000000000
 11
100.9490597873673
 21
198.7335253461617
 31
0.0000000000000000
  0
LINE
  5
29F
100
AcDbEntity
  8
MAIN0
  6
CONTINUOUS
 62
3
100
AcDbLine
 10
100.9490597873673
 20
198.7335253461616
 30
0.0000000000000000
 11
99.44905978736733
 21
199.5995507499461
 31
0.0000000000000000
  0
LINE
  5
2A0
100
AcDbEntity
  8
MAIN0
  6
CONTINUOUS
 62
3
100
AcDbLine
 10
99.44905978736728
 20
199.5995507499461
 30
0.0000000000000000
 11
97.94905978736730
 21
198.7335253461617
 31
0.0000000000000000
  0
LINE
  5
2A1
100
AcDbEntity
  8
MAIN0
  6
CONTINUOUS
 62
3
100
AcDbLine
 10
97.94905978736730
 20
198.7335253461617
 30
0.0000000000000000
 11
97.94905978736730
 21
197.0014745385928
 31
0.0000000000000000
  0
CIRCLE
  5
2A2
100
AcDbEntity
  8
MAIN0
  6
CONTINUOUS
 62
3
100
AcDbCircle
 10
67.40611984674320
 20
197.8674999423814
 30
0.0000000000000000
 40
3.500000000000000
  0
LINE
  5
2A3
100
AcDbEntity
  8
MAIN0
  6
CONTINUOUS
 62
3
100
AcDbLine
 10
68.90611984674328
 20
197.0014745385970
 30
0.0000000000000000
 11
68.90611984674328
 21
198.7335253461659
 31
0.0000000000000000
  0
LINE
  5
2A4
100
AcDbEntity
  8
MAIN0
  6
CONTINUOUS
 62
3
100
AcDbLine
 10
68.90611984674337
 20
198.7335253461658
 30
0.0000000000000000
 11
67.40611984674337
 21
199.5995507499503
 31
0.0000000000000000
  0
LINE
  5
2A5
100
AcDbEntity
  8
MAIN0
  6
CONTINUOUS
 62
3
100
AcDbLine
 10
67.40611984674328
 20
199.5995507499504
 30
0.0000000000000000
 11
65.90611984674322
 21
198.7335253461659
 31
0.0000000000000000
  0
LINE
  5
2A6
100
AcDbEntity
  8
MAIN0
  6
CONTINUOUS
 62
3
100
AcDbLine
 10
65.90611984674334
 20
198.7335253461658
 30
0.0000000000000000
 11
65.90611984674334
 21
197.0014745385970
 31
0.0000000000000000
  0
LINE
  5
2A7
100
AcDbEntity
  8
MAIN0
  6
CONTINUOUS
 62
3
100
AcDbLine
 10
65.90611984674337
 20
197.0014745385970
 30
0.0000000000000000
 11
67.40611984674337
 21
196.1354491348125
 31
0.0000000000000000
  0
LINE
  5
2A8
100
AcDbEntity
  8
MAIN0
  6
CONTINUOUS
 62
3
100
AcDbLine
 10
67.40611984674322
 20
196.1354491348126
 30
0.0000000000000000
 11
68.90611984674328
 21
197.0014745385971
 31
0.0000000000000000
  0
LINE
  5
2A9
100
AcDbEntity
  8
MAIN0
  6
CONTINUOUS
 62
3
100
AcDbLine
 10
226.8379262667723
 20
239.5604111070959
 30
0.0000000000000000
 11
227.4379262667723
 21
240.1604111070958
 31
0.0000000000000000
  0
LINE
  5
2AA
100
AcDbEntity
  8
MAIN0
  6
CONTINUOUS
 62
3
100
AcDbLine
 10
226.8379262667721
 20
236.2604111070952
 30
0.0000000000000000
 11
226.8379262667721
 21
239.5604111070954
 31
0.0000000000000000
  0
LINE
  5
2AB
100
AcDbEntity
  8
MAIN0
  6
CONTINUOUS
 62
3
100
AcDbLine
 10
216.4379262667788
 20
239.5604111070951
 30
0.0000000000000000
 11
226.8379262667721
 21
239.5604111070954
 31
0.0000000000000000
  0
LINE
  5
2AC
100
AcDbEntity
  8
MAIN0
  6
CONTINUOUS
 62
3
100
AcDbLine
 10
219.4379262667721
 20
239.9104111070952
 30
0.0000000000000000
 11
227.1879262667721
 21
239.9104111070953
 31
0.0000000000000000
  0
LINE
  5
2AD
100
AcDbEntity
  8
MAIN0
  6
CENTER
 62
3
100
AcDbLine
 10
213.9623915119774
 20
237.9104111070942
 30
0.0000000000000000
 11
229.2477368930552
 21
237.9104111070961
 31
0.0000000000000000
  0
LINE
  5
2AE
100
AcDbEntity
  8
MAIN0
  6
CONTINUOUS
 62
3
100
AcDbLine
 10
219.4379262667721
 20
235.9104111070952
 30
0.0000000000000000
 11
219.4379262667721
 21
239.9104111070952
 31
0.0000000000000000
  0
LINE
  5
2AF
100
AcDbEntity
  8
MAIN0
  6
CONTINUOUS
 62
3
100
AcDbLine
 10
216.4379262667790
 20
239.5604111070813
 30
0.0000000000000000
 11
216.4379262667827
 21
236.2604111070814
 31
0.0000000000000000
  0
LINE
  5
2B0
100
AcDbEntity
  8
MAIN0
  6
CONTINUOUS
 62
3
100
AcDbLine
 10
216.4379262667787
 20
239.5604111070812
 30
0.0000000000000000
 11
215.4852983226253
 21
237.9104111070935
 31
0.0000000000000000
  0
LINE
  5
2B1
100
AcDbEntity
  8
MAIN0
  6
CONTINUOUS
 62
3
100
AcDbLine
 10
215.4852983226095
 20
237.9104111070945
 30
0.0000000000000000
 11
216.4379262667823
 21
236.2604111070816
 31
0.0000000000000000
  0
LINE
  5
2B2
100
AcDbEntity
  8
MAIN0
  6
CONTINUOUS
 62
3
100
AcDbLine
 10
226.8379262667721
 20
236.2604111070953
 30
0.0000000000000000
 11
216.4379262667825
 21
236.2604111070949
 31
0.0000000000000000
  0
LINE
  5
2B3
100
AcDbEntity
  8
MAIN0
  6
CONTINUOUS
 62
3
100
AcDbLine
 10
227.1879262667722
 20
235.9104111070953
 30
0.0000000000000000
 11
219.4379262667722
 21
235.9104111070952
 31
0.0000000000000000
  0
LINE
  5
2B4
100
AcDbEntity
  8
MAIN0
  6
CONTINUOUS
 62
3
100
AcDbLine
 10
227.4379262667720
 20
235.6604111070953
 30
0.0000000000000000
 11
226.8379262667719
 21
236.2604111070955
 31
0.0000000000000000
  0
LINE
  5
2B5
100
AcDbEntity
  8
MAIN1
  6
CONTINUOUS
 62
7
100
AcDbLine
 10
227.2379262667721
 20
233.9104111070562
 30
0.0000000000000000
 11
224.4379262667721
 21
233.9104111070562
 31
0.0000000000000000
  0
LINE
  5
2B6
100
AcDbEntity
  8
MAIN0
  6
CONTINUOUS
 62
3
100
AcDbLine
 10
224.4379262667721
 20
233.9104111070562
 30
0.0000000000000000
 11
224.4379262667721
 21
228.9104111071326
 31
0.0000000000000000
  0
LINE
  5
2B7
100
AcDbEntity
  8
MAIN0
  6
CONTINUOUS
 62
3
100
AcDbLine
 10
224.2379262667714
 20
233.4104111070658
 30
0.0000000000000000
 11
224.4379262667716
 21
233.6104111070661
 31
0.0000000000000000
  0
LINE
  5
2B8
100
AcDbEntity
  8
MAIN0
  6
CONTINUOUS
 62
3
100
AcDbLine
 10
219.4379262667721
 20
233.4104111070662
 30
0.0000000000000000
 11
224.2379262667722
 21
233.4104111070662
 31
0.0000000000000000
  0
LINE
  5
2B9
100
AcDbEntity
  8
MAIN0
  6
CONTINUOUS
 62
3
100
AcDbLine
 10
219.4379262667724
 20
233.4104111070662
 30
0.0000000000000000
 11
219.4379262667725
 21
229.4104111071163
 31
0.0000000000000000
  0
LINE
  5
2BA
100
AcDbEntity
  8
MAIN0
  6
CONTINUOUS
 62
3
100
AcDbLine
 10
218.2832257284037
 20
231.4104111070897
 30
0.0000000000000000
 11
219.4379262667718
 21
233.4104111070657
 31
0.0000000000000000
  0
LINE
  5
2BB
100
AcDbEntity
  8
MAIN0
  6
CONTINUOUS
 62
3
100
AcDbLine
 10
218.2832257284027
 20
231.4104111070905
 30
0.0000000000000000
 11
219.4379262667730
 21
229.4104111071157
 31
0.0000000000000000
  0
LINE
  5
2BC
100
AcDbEntity
  8
MAIN0
  6
CENTER
 62
3
100
AcDbLine
 10
217.3932511415019
 20
231.4104111070990
 30
0.0000000000000000
 11
229.2073686143167
 21
231.4104111070990
 31
0.0000000000000000
  0
LINE
  5
2BD
100
AcDbEntity
  8
MAIN0
  6
CONTINUOUS
 62
3
100
AcDbLine
 10
219.4379262667740
 20
229.4104111071163
 30
0.0000000000000000
 11
224.2379262667743
 21
229.4104111071226
 31
0.0000000000000000
  0
LINE
  5
2BE
100
AcDbEntity
  8
MAIN0
  6
CONTINUOUS
 62
3
100
AcDbLine
 10
224.2379262667744
 20
229.4104111071225
 30
0.0000000000000000
 11
224.4379262667747
 21
229.2104111071228
 31
0.0000000000000000
  0
LINE
  5
2BF
100
AcDbEntity
  8
MAIN1
  6
CONTINUOUS
 62
7
100
AcDbLine
 10
227.2379262667745
 20
228.9104111071362
 30
0.0000000000000000
 11
224.4379262667745
 21
228.9104111071328
 31
0.0000000000000000
  0
LINE
  5
2C0
100
AcDbEntity
  8
MAIN0
  6
CONTINUOUS
 62
3
100
AcDbLine
 10
227.4379262667785
 20
227.1604111070894
 30
0.0000000000000000
 11
226.8379262667791
 21
226.5604111070888
 31
0.0000000000000000
  0
LINE
  5
2C1
100
AcDbEntity
  8
MAIN0
  6
CONTINUOUS
 62
3
100
AcDbLine
 10
227.1879262667790
 20
226.9104111070892
 30
0.0000000000000000
 11
219.4379262667791
 21
226.9104111070803
 31
0.0000000000000000
  0
LINE
  5
2C2
100
AcDbEntity
  8
MAIN0
  6
CONTINUOUS
 62
3
100
AcDbLine
 10
226.8379262667791
 20
226.5604111070888
 30
0.0000000000000000
 11
216.4379262667790
 21
226.5604111070767
 31
0.0000000000000000
  0
LINE
  5
2C3
100
AcDbEntity
  8
MAIN0
  6
CONTINUOUS
 62
3
100
AcDbLine
 10
226.8379262667792
 20
226.5604111070887
 30
0.0000000000000000
 11
226.8379262667828
 21
223.2604111070886
 31
0.0000000000000000
  0
LINE
  5
2C4
100
AcDbEntity
  8
MAIN0
  6
CENTER
 62
3
100
AcDbLine
 10
213.9623915119790
 20
224.9104111070765
 30
0.0000000000000000
 11
229.2477368930602
 21
224.9104111070976
 31
0.0000000000000000
  0
LINE
  5
2C5
100
AcDbEntity
  8
MAIN0
  6
CONTINUOUS
 62
3
100
AcDbLine
 10
219.4379262667787
 20
226.9104111070805
 30
0.0000000000000000
 11
219.4379262667831
 21
222.9104111070805
 31
0.0000000000000000
  0
LINE
  5
2C6
100
AcDbEntity
  8
MAIN0
  6
CONTINUOUS
 62
3
100
AcDbLine
 10
216.4379262667793
 20
226.5604111070768
 30
0.0000000000000000
 11
215.4852983226182
 21
224.9104111070757
 31
0.0000000000000000
  0
LINE
  5
2C7
100
AcDbEntity
  8
MAIN0
  6
CONTINUOUS
 62
3
100
AcDbLine
 10
216.4379262667791
 20
226.5604111070766
 30
0.0000000000000000
 11
216.4379262667827
 21
223.2604111070767
 31
0.0000000000000000
  0
LINE
  5
2C8
100
AcDbEntity
  8
MAIN0
  6
CONTINUOUS
 62
3
100
AcDbLine
 10
215.4852983226173
 20
224.9104111070756
 30
0.0000000000000000
 11
216.4379262667820
 21
223.2604111070766
 31
0.0000000000000000
  0
LINE
  5
2C9
100
AcDbEntity
  8
MAIN0
  6
CONTINUOUS
 62
3
100
AcDbLine
 10
216.4379262667824
 20
223.2604111070766
 30
0.0000000000000000
 11
226.8379262667825
 21
223.2604111070887
 31
0.0000000000000000
  0
LINE
  5
2CA
100
AcDbEntity
  8
MAIN0
  6
CONTINUOUS
 62
3
100
AcDbLine
 10
219.4379262667834
 20
222.9104111070803
 30
0.0000000000000000
 11
227.1879262667834
 21
222.9104111070892
 31
0.0000000000000000
  0
LINE
  5
2CB
100
AcDbEntity
  8
MAIN0
  6
CONTINUOUS
 62
3
100
AcDbLine
 10
226.8379262667821
 20
223.2604111070885
 30
0.0000000000000000
 11
227.4379262667827
 21
222.6604111070891
 31
0.0000000000000000
  0
LINE
  5
2CC
100
AcDbEntity
  8
MAIN0
  6
CONTINUOUS
 62
3
100
AcDbLine
 10
227.4379262667720
 20
234.1104111070563
 30
0.0000000000000000
 11
227.2379262667717
 21
233.9104111070561
 31
0.0000000000000000
  0
LINE
  5
2CD
100
AcDbEntity
  8
MAIN0
  6
CONTINUOUS
 62
3
100
AcDbLine
 10
227.4379262667746
 20
228.7104111071361
 30
0.0000000000000000
 11
227.2379262667742
 21
228.9104111071360
 31
0.0000000000000000
  0
LINE
  5
2CE
100
AcDbEntity
  8
MAIN0
  6
CONTINUOUS
 62
3
100
AcDbLine
 10
226.4379262667703
 20
228.9104111071353
 30
0.0000000000000000
 11
226.4379262667703
 21
233.9104111070562
 31
0.0000000000000000
  0
LINE
  5
2CF
100
AcDbEntity
  8
MAIN0
  6
CONTINUOUS
 62
3
100
AcDbLine
 10
225.4379262667721
 20
221.7104111070096
 30
0.0000000000000000
 11
225.4379262667721
 21
220.2856183884001
 31
0.0000000000000000
  0
ARC
  5
2D0
100
AcDbEntity
  8
MAIN0
  6
CONTINUOUS
 62
3
100
AcDbCircle
 10
225.6379262667720
 20
221.7104111070096
 30
0.0000000000000000
 40
0.2000000000000000
100
AcDbArc
 50
90.00000000000000
 51
180.0000000000000
  0
LINE
  5
2D1
100
AcDbEntity
  8
MAIN0
  6
CONTINUOUS
 62
3
100
AcDbLine
 10
227.2379262667722
 20
221.9104111070096
 30
0.0000000000000000
 11
225.6379262667720
 21
221.9104111070096
 31
0.0000000000000000
  0
CIRCLE
  5
2D2
100
AcDbEntity
  8
MAIN0
  6
CONTINUOUS
 62
3
100
AcDbCircle
 10
292.3843709356627
 20
170.4708763241277
 30
0.0000000000000000
 40
2.000000000000000
  0
CIRCLE
  5
2D3
100
AcDbEntity
  8
MAIN0
  6
CONTINUOUS
 62
3
100
AcDbCircle
 10
292.3843709356627
 20
170.4708763241277
 30
0.0000000000000000
 40
1.650000000000000
  0
CIRCLE
  5
2D4
100
AcDbEntity
  8
MAIN0
  6
CONTINUOUS
 62
3
100
AcDbCircle
 10
355.2461191172733
 20
170.4708763243466
 30
0.0000000000000000
 40
2.000000000000000
  0
CIRCLE
  5
2D5
100
AcDbEntity
  8
MAIN0
  6
CONTINUOUS
 62
3
100
AcDbCircle
 10
355.2461191172733
 20
170.4708763243466
 30
0.0000000000000000
 40
1.650000000000000
  0
LEADER
  5
2D6
100
AcDbEntity
  8
MAIN0
  6
CONTINUOUS
 62
3
100
AcDbLeader
  3
MAIN001
 73
     0
 74
     0
 75
     1
 40
3.099999904632568
 41
32.38100088930133
 76
     3
 10
325.6563398314660
 20
225.6920089234569
 30
0.0000000000000000
 10
366.7977111253006
 20
243.6376329565490
 30
0.0000000000000000
 10
368.7227110695107
 20
243.6376329565490
 30
0.0000000000000000
340
2D7
213
0.0000000000000000
223
-0.5000000000000000
233
0.0000000000000000
1001
ACAD
1000
DSTYLE
1002
{
1070
   147
1040
0.0
1070
    77
1070
     1
1070
   173
1070
     1
1070
     6
1000
_OPEN
1070
     7
1000
_OPEN
1002
}
  0
MTEXT
  5
2D7
102
{ACAD_REACTORS
330
2D6
102
}
100
AcDbEntity
  8
MAIN0
  6
CONTINUOUS
 62
3
100
AcDbMText
 10
368.7237110695107
 20
247.2376328611816
 30
0.0000000000000000
 40
3.099999904632568
 41
0.0000000000000000
 71
     1
 72
     1
  1
{\H0.93x;{3X2-M4 ねじ深9\PDepth 9}}
 11
1.000000000000000
 21
0.0000000000000000
 31
0.0000000000000000
  7
KNJYOKO
  0
LINE
  5
2D8
100
AcDbEntity
  8
MAIN0
  6
CENTER
 62
3
100
AcDbLine
 10
131.5285581472914
 20
188.6174999421188
 30
0.0000000000000000
 11
27.83261396129467
 21
188.6174999423073
 31
0.0000000000000000
  0
LINE
  5
2D9
100
AcDbEntity
  8
MAIN0
  6
CENTER
 62
3
100
AcDbLine
 10
83.42758981704802
 20
141.6999752132533
 30
0.0000000000000000
 11
83.42758981706189
 21
250.1712115226304
 31
0.0000000000000000
  0
ARC
  5
2DA
100
AcDbEntity
  8
MAIN0
  6
CONTINUOUS
 62
3
100
AcDbCircle
 10
83.42758981705407
 20
188.6174999422062
 30
0.0000000000000000
 40
26.50000000032736
100
AcDbArc
 50
189.5651405306170
 51
230.4348594691721
  0
CIRCLE
  5
2DB
100
AcDbEntity
  8
MAIN0
  6
CONTINUOUS
 62
3
100
AcDbCircle
 10
83.42758981705407
 20
188.6174999422062
 30
0.0000000000000000
 40
11.00000000032736
  0
CIRCLE
  5
2DC
100
AcDbEntity
  8
MAIN0
  6
CONTINUOUS
 62
3
100
AcDbCircle
 10
83.42758981705407
 20
188.6174999422062
 30
0.0000000000000000
 40
13.49999999970764
  0
CIRCLE
  5
2DD
100
AcDbEntity
  8
MAIN0
  6
CONTINUOUS
 62
3
100
AcDbCircle
 10
83.42758981705407
 20
188.6174999422062
 30
0.0000000000000000
 40
12.69999999977492
  0
LINE
  5
2DE
100
AcDbEntity
  8
MAIN0
  6
CENTER
 62
3
100
AcDbLine
 10
44.01634416758793
 20
165.8634066574556
 30
0.0000000000000000
 11
108.7154332348671
 21
203.2174431467224
 31
0.0000000000000000
  0
CIRCLE
  5
2DF
100
AcDbEntity
  8
MAIN0
  6
CENTER
 62
3
100
AcDbCircle
 10
83.42758981705407
 20
188.6174999422062
 30
0.0000000000000000
 40
18.50000000000000
  0
LINE
  5
2E0
100
AcDbEntity
  8
MAIN0
  6
CENTER
 62
3
100
AcDbLine
 10
72.02140796179191
 20
207.6005743769069
 30
0.0000000000000000
 11
76.01700071965581
 21
200.9507913301639
 31
0.0000000000000000
  0
LINE
  5
2E1
100
AcDbEntity
  8
MAIN0
  6
CENTER
 62
3
100
AcDbLine
 10
94.69432654876769
 20
208.1320603968499
 30
0.0000000000000000
 11
90.68262969790939
 21
201.1835976265949
 31
0.0000000000000000
  0
ARC
  5
2E2
100
AcDbEntity
  8
MAIN0
  6
CONTINUOUS
 62
3
100
AcDbCircle
 10
83.42758981705407
 20
188.6174999422062
 30
0.0000000000000000
 40
16.00000000034635
100
AcDbArc
 50
59.99999999970722
 51
120.9999999983600
  0
ARC
  5
2E3
100
AcDbEntity
  8
MAIN0
  6
CONTINUOUS
 62
3
100
AcDbCircle
 10
83.42758981705407
 20
188.6174999422062
 30
0.0000000000000000
 40
21.00000000034635
100
AcDbArc
 50
59.99999999970722
 51
120.9999999983601
  0
LINE
  5
2E4
100
AcDbEntity
  8
MAIN0
  6
CENTER
 62
3
100
AcDbLine
 10
98.68412849344037
 20
206.4806116320652
 30
0.0000000000000000
 11
94.93265372152831
 21
202.0881990230903
 31
0.0000000000000000
  0
CIRCLE
  5
2E5
100
AcDbEntity
  8
MAIN0
  6
CONTINUOUS
 62
3
100
AcDbCircle
 10
96.67633000287006
 20
204.1297816405404
 30
0.0000000000000000
 40
2.000000000000000
  0
ARC
  5
2E6
100
AcDbEntity
  8
MAIN0
  6
CONTINUOUS
 62
3
100
AcDbCircle
 10
69.17758981736697
 20
163.9357759349815
 30
0.0000000000000000
 40
5.000000000000000
100
AcDbArc
 50
59.99999999996390
 51
121.7262863808990
  0
ARC
  5
2E7
100
AcDbEntity
  8
MAIN0
  6
CONTINUOUS
 62
3
100
AcDbCircle
 10
54.92758981772613
 20
188.6174999422492
 30
0.0000000000000000
 40
5.000000000000000
100
AcDbArc
 50
298.2737136190340
 51
359.9999999999691
  0
ARC
  5
2E8
100
AcDbEntity
  8
MAIN0
  6
HIDDEN
 62
3
100
AcDbCircle
 10
83.42758981705407
 20
188.6174999422062
 30
0.0000000000000000
 40
23.49999999965371
100
AcDbArc
 50
180.0000000000000
 51
239.9999999999098
  0
ARC
  5
2E9
100
AcDbEntity
  8
MAIN0
  6
CONTINUOUS
 62
3
100
AcDbCircle
 10
111.9275898163504
 20
188.6174999421613
 30
0.0000000000000000
 40
5.000000000000000
100
AcDbArc
 50
179.9999999999639
 51
241.7262863808989
  0
ARC
  5
2EA
100
AcDbEntity
  8
MAIN0
  6
CONTINUOUS
 62
3
100
AcDbCircle
 10
83.42758981705407
 20
188.6174999422062
 30
0.0000000000000000
 40
26.50000000032736
100
AcDbArc
 50
309.5651405306170
 51
350.4348594691720
  0
ARC
  5
2EB
100
AcDbEntity
  8
MAIN0
  6
CONTINUOUS
 62
3
100
AcDbCircle
 10
97.67758981668075
 20
163.9357759349101
 30
0.0000000000000000
 40
5.000000000000000
100
AcDbArc
 50
58.27371361903404
 51
119.9999999999691
  0
ARC
  5
2EC
100
AcDbEntity
  8
MAIN0
  6
CONTINUOUS
 62
3
100
AcDbCircle
 10
69.17758981744473
 20
213.2992239494758
 30
0.0000000000000000
 40
5.000000000000000
100
AcDbArc
 50
299.9999999999639
 51
361.7262863808989
  0
ARC
  5
2ED
100
AcDbEntity
  8
MAIN0
  6
CONTINUOUS
 62
3
100
AcDbCircle
 10
83.42758981705407
 20
188.6174999422062
 30
0.0000000000000000
 40
26.50000000032736
100
AcDbArc
 50
69.56514053061699
 51
110.4348594691720
  0
ARC
  5
2EE
100
AcDbEntity
  8
MAIN0
  6
CONTINUOUS
 62
3
100
AcDbCircle
 10
97.67758981675533
 20
213.2992239494591
 30
0.0000000000000000
 40
5.000000000000000
100
AcDbArc
 50
178.2737136190340
 51
239.9999999999691
  0
ARC
  5
2EF
100
AcDbEntity
  8
MAIN0
  6
CONTINUOUS
 62
3
100
AcDbCircle
 10
83.42758981705407
 20
188.6174999422062
 30
0.0000000000000000
 40
23.49999999965371
100
AcDbArc
 50
119.9999999999097
 51
180.0000000000000
  0
ARC
  5
2F0
100
AcDbEntity
  8
MAIN0
  6
CONTINUOUS
 62
3
100
AcDbCircle
 10
83.42758981705407
 20
188.6174999422062
 30
0.0000000000000000
 40
23.49999999965371
100
AcDbArc
 50
239.9999999999098
 51
299.9999999999134
  0
ARC
  5
2F1
100
AcDbEntity
  8
MAIN0
  6
CONTINUOUS
 62
3
100
AcDbCircle
 10
83.42758981705407
 20
188.6174999422062
 30
0.0000000000000000
 40
23.49999999965371
100
AcDbArc
 50
0.0000000000000000
 51
59.99999999991341
  0
ARC
  5
2F2
100
AcDbEntity
  8
MAIN0
  6
HIDDEN
 62
3
100
AcDbCircle
 10
83.42758981705407
 20
188.6174999422062
 30
0.0000000000000000
 40
23.49999999965371
100
AcDbArc
 50
299.9999999999999
 51
359.9999999999097
  0
ARC
  5
2F3
100
AcDbEntity
  8
MAIN0
  6
HIDDEN
 62
3
100
AcDbCircle
 10
83.42758981705407
 20
188.6174999422062
 30
0.0000000000000000
 40
23.49999999965371
100
AcDbArc
 50
59.99999999999993
 51
119.9999999999097
  0
LINE
  5
2F4
100
AcDbEntity
  8
MAIN0
  6
CENTER
 62
3
100
AcDbLine
 10
69.11210855815773
 20
163.8223590670880
 30
0.0000000000000000
 11
83.42758981703091
 21
188.6174999422196
 31
0.0000000000000000
  0
CIRCLE
  5
2F5
100
AcDbEntity
  8
MAIN0
  6
CONTINUOUS
 62
3
100
AcDbCircle
 10
74.17758981702067
 20
172.5960299722133
 30
0.0000000000000000
 40
3.000000000000000
  0
CIRCLE
  5
2F6
100
AcDbEntity
  8
MAIN0
  6
CONTINUOUS
 62
3
100
AcDbCircle
 10
101.9275898170540
 20
188.6174999421676
 30
0.0000000000000000
 40
3.000000000000000
  0
ARC
  5
2F7
100
AcDbEntity
  8
MAIN0
  6
CENTER
 62
3
100
AcDbCircle
 10
83.42758981705407
 20
188.6174999422062
 30
0.0000000000000000
 40
20.40000000000000
100
AcDbArc
 50
40.27779954844056
 51
139.9598966212494
  0
ARC
  5
2F8
100
AcDbEntity
  8
MAIN0
  6
CONTINUOUS
 62
3
100
AcDbCircle
 10
97.67758981668075
 20
163.9357759349101
 30
0.0000000000000000
 40
6.000000000000000
100
AcDbArc
 50
55.27102365042295
 51
150.0604866178241
  0
ARC
  5
2F9
100
AcDbEntity
  8
MAIN0
  6
CONTINUOUS
 62
3
100
AcDbCircle
 10
97.67758981675533
 20
213.2992239494591
 30
0.0000000000000000
 40
6.000000000000000
100
AcDbArc
 50
175.2710236504229
 51
270.0604866178240
  0
ARC
  5
2FA
100
AcDbEntity
  8
MAIN0
  6
CONTINUOUS
 62
3
100
AcDbCircle
 10
54.92758981772613
 20
188.6174999422492
 30
0.0000000000000000
 40
6.000000000000000
100
AcDbArc
 50
295.2710236504229
 51
390.0604866178240
  0
ARC
  5
2FB
100
AcDbEntity
  8
MAIN0
  6
CONTINUOUS
 62
3
100
AcDbCircle
 10
92.67758981713197
 20
204.6389699121642
 30
0.0000000000000000
 40
2.500000000000000
100
AcDbArc
 50
240.0000000000159
 51
329.3554696624508
  0
ARC
  5
2FC
100
AcDbEntity
  8
MAIN0
  6
CONTINUOUS
 62
3
100
AcDbCircle
 10
92.67758981713197
 20
204.6389699121642
 30
0.0000000000000000
 40
2.500000000000000
100
AcDbArc
 50
16.13087392849408
 51
60.00000000001423
  0
ARC
  5
2FD
100
AcDbEntity
  8
MAIN0
  6
CONTINUOUS
 62
3
100
AcDbCircle
 10
73.89938543167179
 20
204.4750950054684
 30
0.0000000000000000
 40
2.500000000000000
100
AcDbArc
 50
120.9999999999934
 51
164.8691260891317
  0
ARC
  5
2FE
100
AcDbEntity
  8
MAIN0
  6
CONTINUOUS
 62
3
100
AcDbCircle
 10
73.89938543167179
 20
204.4750950054684
 30
0.0000000000000000
 40
2.500000000000000
100
AcDbArc
 50
211.6445303269193
 51
300.9999999999926
  0
LINE
  5
2FF
100
AcDbEntity
  8
MAIN0
  6
CENTER
 62
3
100
AcDbLine
 10
57.65590140288788
 20
203.4967911857313
 30
0.0000000000000000
 11
122.0158529372661
 21
166.3385558423783
 31
0.0000000000000000
  0
DIMENSION
  5
309
100
AcDbEntity
  8
MAIN0
  6
CONTINUOUS
 62
3
100
AcDbDimension
  2
*D17
 10
318.3152450262805
 20
252.9025835295800
 30
0.0000000000000000
 11
313.5419852709018
 21
253.4025835295800
 31
0.0000000000000000
 70
160
  3
MAIN001
100
AcDbAlignedDimension
 13
329.3152450262805
 23
241.9107471757103
 33
0.0000000000000000
 14
318.3152450262807
 24
241.9107471757146
 34
0.0000000000000000
100
AcDbRotatedDimension
1001
ACAD
1000
DSTYLE
1002
{
1070
   173
1070
     1
1070
     6
1000
_OPEN
1070
     7
1000
_OPEN
1070
    41
1040
2.000000
1002
}
  0
CIRCLE
  5
30A
100
AcDbEntity
  8
MAIN0
  6
CONTINUOUS
 62
3
100
AcDbCircle
 10
83.42758981705165
 20
170.1174999418598
 30
0.0000000000000000
 40
4.000000000000000
  0
CIRCLE
  5
30B
100
AcDbEntity
  8
MAIN0
  6
CONTINUOUS
 62
3
100
AcDbCircle
 10
99.44905978736486
 20
179.3674999420309
 30
0.0000000000000000
 40
4.000000000000000
  0
CIRCLE
  5
30C
100
AcDbEntity
  8
MAIN0
  6
CONTINUOUS
 62
3
100
AcDbCircle
 10
99.44905978736486
 20
179.3674999420309
 30
0.0000000000000000
 40
2.250000000000000
  0
CIRCLE
  5
30D
100
AcDbEntity
  8
MAIN0
  6
CONTINUOUS
 62
3
100
AcDbCircle
 10
99.44905978736725
 20
197.8674999423773
 30
0.0000000000000000
 40
4.000000000000000
  0
CIRCLE
  5
30E
100
AcDbEntity
  8
MAIN0
  6
CONTINUOUS
 62
3
100
AcDbCircle
 10
67.40611984674331
 20
197.8674999423814
 30
0.0000000000000000
 40
4.000000000000000
  0
CIRCLE
  5
30F
100
AcDbEntity
  8
MAIN0
  6
CONTINUOUS
 62
3
100
AcDbCircle
 10
67.40611984674092
 20
179.3674999420351
 30
0.0000000000000000
 40
4.000000000000000
  0
CIRCLE
  5
310
100
AcDbEntity
  8
MAIN0
  6
CONTINUOUS
 62
3
100
AcDbCircle
 10
67.40611984674092
 20
179.3674999420351
 30
0.0000000000000000
 40
2.250000000000000
  0
ARC
  5
311
100
AcDbEntity
  8
MAIN0
  6
HIDDEN
 62
3
100
AcDbCircle
 10
63.92758981705413
 20
188.6174999422395
 30
0.0000000000000000
 40
2.000000000000000
100
AcDbArc
 50
90.00000000001516
 51
270.0000000000152
  0
LINE
  5
312
100
AcDbEntity
  8
MAIN0
  6
HIDDEN
 62
3
100
AcDbLine
 10
63.92758981705035
 20
186.6174999422417
 30
0.0000000000000000
 11
65.92758981705035
 21
186.6174999422381
 31
0.0000000000000000
  0
ARC
  5
313
100
AcDbEntity
  8
MAIN0
  6
HIDDEN
 62
3
100
AcDbCircle
 10
65.92758981705413
 20
188.6174999422401
 30
0.0000000000000000
 40
2.000000000000000
100
AcDbArc
 50
270.0000000000152
 51
450.0000000000152
  0
LINE
  5
314
100
AcDbEntity
  8
MAIN0
  6
HIDDEN
 62
3
100
AcDbLine
 10
63.92758981705762
 20
190.6174999422417
 30
0.0000000000000000
 11
65.92758981705762
 21
190.6174999422381
 31
0.0000000000000000
  0
CIRCLE
  5
315
100
AcDbEntity
  8
MAIN0
  6
CONTINUOUS
 62
3
100
AcDbCircle
 10
323.8152450262932
 20
170.6174999421438
 30
0.0000000000000000
 40
2.350000000000165
  0
LINE
  5
316
100
AcDbEntity
  8
MAIN0
  6
CONTINUOUS
 62
3
100
AcDbLine
 10
322.7545848542192
 20
171.6781601135944
 30
0.0000000000000000
 11
324.8759051977417
 21
169.5568397700678
 31
0.0000000000000000
  0
LINE
  5
317
100
AcDbEntity
  8
MAIN0
  6
CONTINUOUS
 62
3
100
AcDbLine
 10
322.7545848549559
 20
169.5568397699256
 30
0.0000000000000000
 11
324.8759051985084
 21
171.6781601134835
 31
0.0000000000000000
  0
CIRCLE
  5
318
100
AcDbEntity
  8
MAIN0
  6
CENTER
 62
3
100
AcDbCircle
 10
323.8152450264048
 20
188.6174999414345
 30
0.0000000000000000
 40
17.99999999997669
  0
LINE
  5
319
100
AcDbEntity
  8
MAIN0
  6
CENTER
 62
3
100
AcDbLine
 10
323.8152450265131
 20
140.6455969626335
 30
0.0000000000000000
 11
323.8152450262646
 21
252.7332398303495
 31
0.0000000000000000
  0
LINE
  5
31A
100
AcDbEntity
  8
MAIN0
  6
CENTER
 62
3
100
AcDbLine
 10
280.3814945005215
 20
213.6939874996282
 30
0.0000000000000000
 11
372.9132012875624
 21
160.2707816772144
 31
0.0000000000000000
  0
LINE
  5
31B
100
AcDbEntity
  8
MAIN0
  6
CENTER
 62
3
100
AcDbLine
 10
362.2067429646268
 20
210.7828416110282
 30
0.0000000000000000
 11
275.1099132864098
 21
160.4974635499113
 31
0.0000000000000000
  0
LINE
  5
31C
100
AcDbEntity
  8
MAIN0
  6
CONTINUOUS
 62
3
100
AcDbLine
 10
313.7116153155333
 20
209.1174999414992
 30
0.0000000000000000
 11
318.3152450263705
 21
209.1174999414996
 31
0.0000000000000000
  0
LINE
  5
31D
100
AcDbEntity
  8
MAIN0
  6
CONTINUOUS
 62
3
100
AcDbLine
 10
329.3152450263705
 20
209.1174999415009
 30
0.0000000000000000
 11
333.9188747372718
 21
209.1174999415013
 31
0.0000000000000000
  0
LINE
  5
31E
100
AcDbEntity
  8
MAIN0
  6
CENTER
 62
3
100
AcDbLine
 10
259.0310922299890
 20
188.6174999413562
 30
0.0000000000000000
 11
378.8332955025636
 21
188.6174999415440
 31
0.0000000000000000
  0
LINE
  5
31F
100
AcDbEntity
  8
MAIN0
  6
CONTINUOUS
 62
3
100
AcDbLine
 10
344.3187658040498
 20
183.1306396622302
 30
0.0000000000000000
 11
371.3459607420239
 21
167.5264813894302
 31
0.0000000000000000
  0
LINE
  5
320
100
AcDbEntity
  8
MAIN0
  6
CONTINUOUS
 62
3
100
AcDbLine
 10
338.8187658040507
 20
173.6043602206007
 30
0.0000000000000000
 11
365.8459607420396
 21
158.0002019477923
 31
0.0000000000000000
  0
LINE
  5
321
100
AcDbEntity
  8
MAIN0
  6
CONTINUOUS
 62
3
100
AcDbLine
 10
281.7845293109056
 20
158.0002019476060
 30
0.0000000000000000
 11
308.8117242488049
 21
173.6043602205226
 31
0.0000000000000000
  0
LINE
  5
322
100
AcDbEntity
  8
MAIN0
  6
CONTINUOUS
 62
3
100
AcDbLine
 10
276.2845293108792
 20
167.5264813892196
 30
0.0000000000000000
 11
303.3117242488043
 21
183.1306396621511
 31
0.0000000000000000
  0
LINE
  5
323
100
AcDbEntity
  8
MAIN0
  6
CONTINUOUS
 62
3
100
AcDbLine
 10
329.3152450263594
 20
209.1174999415002
 30
0.0000000000000000
 11
329.3152450263148
 21
229.2469227775728
 31
0.0000000000000000
  0
LINE
  5
324
100
AcDbEntity
  8
MAIN0
  6
CONTINUOUS
 62
3
100
AcDbLine
 10
318.3152450263594
 20
209.1174999414992
 30
0.0000000000000000
 11
318.3152450263148
 21
229.2469227775484
 31
0.0000000000000000
  0
LINE
  5
325
100
AcDbEntity
  8
MAIN0
  6
CENTER
 62
3
100
AcDbLine
 10
320.7408915857082
 20
231.4107471758230
 30
0.0000000000000000
 11
327.3200568692518
 21
231.4107471758230
 31
0.0000000000000000
  0
LINE
  5
326
100
AcDbEntity
  8
MAIN0
  6
CONTINUOUS
 62
3
100
AcDbLine
 10
315.5152450262809
 20
241.9107471757157
 30
0.0000000000000000
 11
332.1152450262807
 21
241.9107471757092
 31
0.0000000000000000
  0
LINE
  5
327
100
AcDbEntity
  8
MAIN0
  6
CONTINUOUS
 62
3
100
AcDbLine
 10
315.3152450262805
 20
241.7107471757157
 30
0.0000000000000000
 11
315.5152450262805
 21
241.9107471757156
 31
0.0000000000000000
  0
LINE
  5
328
100
AcDbEntity
  8
MAIN0
  6
CONTINUOUS
 62
3
100
AcDbLine
 10
318.3152450262808
 20
221.9107471757066
 30
0.0000000000000000
 11
329.3152450262807
 21
221.9107471757066
 31
0.0000000000000000
  0
LINE
  5
329
100
AcDbEntity
  8
MAIN0
  6
CONTINUOUS
 62
3
100
AcDbLine
 10
318.3152450262805
 20
228.9107471758770
 30
0.0000000000000000
 11
329.3152450262804
 21
228.9107471758791
 31
0.0000000000000000
  0
LINE
  5
32A
100
AcDbEntity
  8
MAIN0
  6
CONTINUOUS
 62
3
100
AcDbLine
 10
318.3152450262808
 20
233.9107471758231
 30
0.0000000000000000
 11
329.3152450262807
 21
233.9107471758231
 31
0.0000000000000000
  0
LINE
  5
32B
100
AcDbEntity
  8
MAIN0
  6
CENTER
 62
3
100
AcDbLine
 10
320.4422402954713
 20
237.9107471758231
 30
0.0000000000000000
 11
327.5988594209900
 21
237.9107471758231
 31
0.0000000000000000
  0
CIRCLE
  5
32C
100
AcDbEntity
  8
MAIN0
  6
CONTINUOUS
 62
3
100
AcDbCircle
 10
323.8152450262807
 20
237.9107471758228
 30
0.0000000000000000
 40
2.000000000000000
  0
CIRCLE
  5
32D
100
AcDbEntity
  8
MAIN0
  6
CONTINUOUS
 62
3
100
AcDbCircle
 10
323.8152450262807
 20
237.9107471758228
 30
0.0000000000000000
 40
1.650000000000000
  0
LINE
  5
32E
100
AcDbEntity
  8
MAIN0
  6
CENTER
 62
3
100
AcDbLine
 10
320.4422402954713
 20
224.9107471758209
 30
0.0000000000000000
 11
327.5988594209900
 21
224.9107471758209
 31
0.0000000000000000
  0
CIRCLE
  5
32F
100
AcDbEntity
  8
MAIN0
  6
CONTINUOUS
 62
3
100
AcDbCircle
 10
323.8152450262807
 20
231.4107471758228
 30
0.0000000000000000
 40
1.999999999970200
  0
LINE
  5
330
100
AcDbEntity
  8
MAIN0
  6
CONTINUOUS
 62
3
100
AcDbLine
 10
332.3152450262805
 20
241.7107471757160
 30
0.0000000000000000
 11
332.1152450262805
 21
241.9107471757159
 31
0.0000000000000000
  0
LINE
  5
331
100
AcDbEntity
  8
MAIN0
  6
CONTINUOUS
 62
3
100
AcDbLine
 10
332.3152450262807
 20
239.9180847334435
 30
0.0000000000000000
 11
332.3152450262807
 21
241.7107471757161
 31
0.0000000000000000
  0
LINE
  5
332
100
AcDbEntity
  8
MAIN0
  6
CONTINUOUS
 62
3
100
AcDbLine
 10
315.3152450262807
 20
239.9180847334024
 30
0.0000000000000000
 11
315.3152450262807
 21
241.7107471757157
 31
0.0000000000000000
  0
LINE
  5
333
100
AcDbEntity
  8
MAIN0
  6
CONTINUOUS
 62
3
100
AcDbLine
 10
318.3152450262807
 20
214.4107471757465
 30
0.0000000000000000
 11
318.3152450262807
 21
241.9107471757146
 31
0.0000000000000000
  0
LINE
  5
334
100
AcDbEntity
  8
MAIN0
  6
CONTINUOUS
 62
3
100
AcDbLine
 10
329.3152450262805
 20
214.4107471757464
 30
0.0000000000000000
 11
329.3152450262805
 21
241.9107471757103
 31
0.0000000000000000
  0
LINE
  5
335
100
AcDbEntity
  8
MAIN0
  6
CONTINUOUS
 62
3
100
AcDbLine
 10
313.4229401809387
 20
209.1174999414987
 30
0.0000000000000000
 11
334.4962250064614
 21
209.1174999415007
 31
0.0000000000000000
  0
LEADER
  5
336
100
AcDbEntity
  8
MAIN0
  6
CONTINUOUS
 62
3
100
AcDbLeader
  3
MAIN001
 73
     0
 74
     0
 75
     1
 40
3.099999904632568
 41
26.11100072956083
 76
     3
 10
325.5497577775849
 20
232.4064707898060
 30
0.0000000000000000
 10
372.0230565677094
 20
259.0851798342060
 30
0.0000000000000000
 10
373.9480565119195
 20
259.0851798342060
 30
0.0000000000000000
340
337
213
0.0000000000000000
223
-0.5000000000000000
233
0.0000000000000000
1001
ACAD
1000
DSTYLE
1002
{
1070
   147
1040
0.0
1070
    77
1070
     1
1070
   173
1070
     1
1070
     6
1000
_OPEN
1070
     7
1000
_OPEN
1002
}
  0
MTEXT
  5
337
102
{ACAD_REACTORS
330
336
102
}
100
AcDbEntity
  8
MAIN0
  6
CONTINUOUS
 62
3
100
AcDbMText
 10
373.9490565119195
 20
262.6851797388385
 30
0.0000000000000000
 40
3.099999904632568
 41
0.0000000000000000
 71
     1
 72
     1
  1
{\H0.93x;{3-\U+22054H8 深5\PDepth 5}}
 11
1.000000000000000
 21
0.0000000000000000
 31
0.0000000000000000
  7
KNJYOKO
  0
LINE
  5
338
100
AcDbEntity
  8
MAIN0
  6
CONTINUOUS
 62
3
100
AcDbLine
 10
307.4754990641888
 20
214.3162297521057
 30
0.0000000000000000
 11
293.3896191842190
 21
189.9187701305975
 31
0.0000000000000000
  0
LINE
  5
339
100
AcDbEntity
  8
MAIN0
  6
CONTINUOUS
 62
3
100
AcDbLine
 10
295.5857716069291
 20
187.7226177078944
 30
0.0000000000000000
 11
310.4754990641906
 21
213.5123821748181
 31
0.0000000000000000
  0
LINE
  5
33A
100
AcDbEntity
  8
MAIN0
  6
CONTINUOUS
 62
3
100
AcDbLine
 10
311.1135391042035
 20
169.6174999413562
 30
0.0000000000000000
 11
308.8117242487846
 21
173.6043602205579
 31
0.0000000000000000
  0
LINE
  5
33B
100
AcDbEntity
  8
MAIN0
  6
CONTINUOUS
 62
3
100
AcDbLine
 10
311.2578766715012
 20
169.3674999413567
 30
0.0000000000000000
 11
300.7212342587381
 21
187.6174999414434
 31
0.0000000000000000
  0
LINE
  5
33C
100
AcDbEntity
  8
MAIN0
  6
CONTINUOUS
 62
3
100
AcDbLine
 10
346.6205806594776
 20
187.1174999414481
 30
0.0000000000000000
 11
344.3187658040594
 21
183.1306396622461
 31
0.0000000000000000
  0
LINE
  5
33D
100
AcDbEntity
  8
MAIN0
  6
CONTINUOUS
 62
3
100
AcDbLine
 10
346.7649182267745
 20
187.3674999414482
 30
0.0000000000000000
 11
336.2282758140149
 21
169.1174999413594
 31
0.0000000000000000
  0
LINE
  5
33E
100
AcDbEntity
  8
MAIN0
  6
CONTINUOUS
 62
3
100
AcDbLine
 10
309.7293651464790
 20
161.6174999414356
 30
0.0000000000000000
 11
337.9011249064951
 21
161.6174999414798
 31
0.0000000000000000
  0
LINE
  5
33F
100
AcDbEntity
  8
MAIN0
  6
CONTINUOUS
 62
3
100
AcDbLine
 10
338.7049724837837
 20
164.6174999414809
 30
0.0000000000000000
 11
308.9255175691799
 21
164.6174999414342
 31
0.0000000000000000
  0
LINE
  5
340
100
AcDbEntity
  8
MAIN0
  6
CONTINUOUS
 62
3
100
AcDbLine
 10
354.2408708685465
 20
189.9187701307622
 30
0.0000000000000000
 11
340.1549909885003
 21
214.3162297522262
 31
0.0000000000000000
  0
LINE
  5
341
100
AcDbEntity
  8
MAIN0
  6
CONTINUOUS
 62
3
100
AcDbLine
 10
337.1549909885017
 20
213.5123821749281
 30
0.0000000000000000
 11
352.0447184458440
 21
187.7226177080511
 31
0.0000000000000000
  0
LINE
  5
342
100
AcDbEntity
  8
MAIN0
  6
CONTINUOUS
 62
3
100
AcDbLine
 10
346.3319055248043
 20
191.6174999415828
 30
0.0000000000000000
 11
337.0943012178149
 21
207.6174999415011
 31
0.0000000000000000
  0
LINE
  5
343
100
AcDbEntity
  8
MAIN0
  6
CONTINUOUS
 62
3
100
AcDbLine
 10
310.2475137003956
 20
207.1174999414988
 30
0.0000000000000000
 11
301.2985845279665
 21
191.6174999415124
 31
0.0000000000000000
  0
CIRCLE
  5
344
100
AcDbEntity
  8
MAIN0
  6
CONTINUOUS
 62
3
100
AcDbCircle
 10
323.8152450262807
 20
224.9107471758208
 30
0.0000000000000000
 40
2.000000000000000
  0
CIRCLE
  5
345
100
AcDbEntity
  8
MAIN0
  6
CONTINUOUS
 62
3
100
AcDbCircle
 10
323.8152450262807
 20
224.9107471758208
 30
0.0000000000000000
 40
1.650000000000000
  0
LINE
  5
346
100
AcDbEntity
  8
MAIN0
  6
CONTINUOUS
 62
3
100
AcDbLine
 10
346.1875679575076
 20
191.8674999415800
 30
0.0000000000000000
 11
337.8159890543017
 21
206.3674999415012
 31
0.0000000000000000
  0
LINE
  5
347
100
AcDbEntity
  8
MAIN0
  6
CONTINUOUS
 62
3
100
AcDbLine
 10
310.3918512676934
 20
207.3674999414985
 30
0.0000000000000000
 11
301.4429220952628
 21
191.8674999415097
 31
0.0000000000000000
  0
CIRCLE
  5
348
100
AcDbEntity
  8
MAIN0
  6
CONTINUOUS
 62
3
100
AcDbCircle
 10
339.4037022944398
 20
197.6174999415350
 30
0.0000000000000000
 40
2.750000000000000
  0
CIRCLE
  5
349
100
AcDbEntity
  8
MAIN0
  6
CONTINUOUS
 62
3
100
AcDbCircle
 10
308.2267877582402
 20
197.6174999413106
 30
0.0000000000000000
 40
2.750000000000000
  0
CIRCLE
  5
34A
100
AcDbEntity
  8
MAIN0
  6
CONTINUOUS
 62
3
100
AcDbCircle
 10
323.8152450265343
 20
170.6174999414577
 30
0.0000000000000000
 40
2.750000000000000
  0
LINE
  5
34B
100
AcDbEntity
  8
MAIN0
  6
CONTINUOUS
 62
3
100
AcDbLine
 10
309.9588385657233
 20
206.6174999413638
 30
0.0000000000000000
 11
300.7212342587378
 21
190.6174999414433
 31
0.0000000000000000
  0
LINE
  5
34C
100
AcDbEntity
  8
MAIN0
  6
CONTINUOUS
 62
3
100
AcDbLine
 10
314.5776407193416
 20
167.6174999413566
 30
0.0000000000000000
 11
332.4754990642031
 21
167.6174999413586
 31
0.0000000000000000
  0
LINE
  5
34D
100
AcDbEntity
  8
MAIN0
  6
CONTINUOUS
 62
3
100
AcDbLine
 10
309.8145009984280
 20
206.3674999413657
 30
0.0000000000000000
 11
301.4429220952248
 21
191.8674999414430
 31
0.0000000000000000
  0
LINE
  5
34E
100
AcDbEntity
  8
MAIN0
  6
CONTINUOUS
 62
3
100
AcDbLine
 10
314.2889655847470
 20
167.6174999413569
 30
0.0000000000000000
 11
332.1868239296114
 21
167.6174999413587
 31
0.0000000000000000
  0
LINE
  5
34F
100
AcDbEntity
  8
MAIN0
  6
CONTINUOUS
 62
3
100
AcDbLine
 10
315.1549909886869
 20
167.6174999413568
 30
0.0000000000000000
 11
333.6301996026618
 21
167.6174999413590
 31
0.0000000000000000
  0
LINE
  5
350
100
AcDbEntity
  8
MAIN0
  6
CONTINUOUS
 62
3
100
AcDbLine
 10
346.6205806594772
 20
191.1174999414482
 30
0.0000000000000000
 11
337.6716514870447
 21
206.6174999414326
 31
0.0000000000000000
  0
LINE
  5
351
100
AcDbEntity
  8
MAIN0
  6
CONTINUOUS
 62
3
100
AcDbLine
 10
315.4436661232789
 20
167.6174999413577
 30
0.0000000000000000
 11
332.1868239296879
 21
167.6174999413592
 31
0.0000000000000000
  0
LINE
  5
352
100
AcDbEntity
  8
MAIN0
  6
CONTINUOUS
 62
3
100
AcDbLine
 10
346.7649182267742
 20
190.8674999414481
 30
0.0000000000000000
 11
337.8159890543404
 21
206.3674999414352
 31
0.0000000000000000
  0
CIRCLE
  5
353
100
AcDbEntity
  8
MAIN0
  6
CONTINUOUS
 62
3
100
AcDbCircle
 10
339.4037022939664
 20
197.6174999409832
 30
0.0000000000000000
 40
2.350000000000165
  0
LINE
  5
354
100
AcDbEntity
  8
MAIN0
  6
CONTINUOUS
 62
3
100
AcDbLine
 10
339.0154737267450
 20
196.1686112014590
 30
0.0000000000000000
 11
339.7919308620425
 21
199.0663886802776
 31
0.0000000000000000
  0
LINE
  5
355
100
AcDbEntity
  8
MAIN0
  6
CONTINUOUS
 62
3
100
AcDbLine
 10
340.8525910335586
 20
197.2292713739323
 30
0.0000000000000000
 11
337.9548135546965
 21
198.0057285092345
 31
0.0000000000000000
  0
CIRCLE
  5
356
100
AcDbEntity
  8
MAIN0
  6
CONTINUOUS
 62
3
100
AcDbCircle
 10
308.2267877589549
 20
197.6174999411765
 30
0.0000000000000000
 40
2.350000000000165
  0
LINE
  5
357
100
AcDbEntity
  8
MAIN0
  6
CONTINUOUS
 62
3
100
AcDbLine
 10
309.6756764982507
 20
198.0057285092499
 30
0.0000000000000000
 11
306.7778990194306
 21
197.2292713739579
 31
0.0000000000000000
  0
LINE
  5
358
100
AcDbEntity
  8
MAIN0
  6
CONTINUOUS
 62
3
100
AcDbLine
 10
307.8385591906997
 20
199.0663886804462
 30
0.0000000000000000
 11
308.6150163260093
 21
196.1686112015862
 31
0.0000000000000000
  0
LINE
  5
359
100
AcDbEntity
  8
WAKU0
  6
CONTINUOUS
 62
3
100
AcDbLine
 10
240.0000000000000
 20
51.00000000000000
 30
0.0000000000000000
 11
410.0000000000000
 21
51.00000000000000
 31
0.0000000000000000
  0
LINE
  5
35A
100
AcDbEntity
  8
WAKU0
  6
CONTINUOUS
 62
3
100
AcDbLine
 10
240.0000000000000
 20
51.00000000000000
 30
0.0000000000000000
 11
240.0000000000000
 21
12.00000000000000
 31
0.0000000000000000
  0
LINE
  5
35B
100
AcDbEntity
  8
WAKU0
  6
CONTINUOUS
 62
3
100
AcDbLine
 10
312.0000000000000
 20
51.00000000000000
 30
0.0000000000000000
 11
312.0000000000000
 21
12.00000000000000
 31
0.0000000000000000
  0
LINE
  5
35C
100
AcDbEntity
  8
WAKU0
  6
CONTINUOUS
 62
3
100
AcDbLine
 10
332.0000000000000
 20
51.00000000000000
 30
0.0000000000000000
 11
332.0000000000000
 21
12.00000000000000
 31
0.0000000000000000
  0
LINE
  5
35D
100
AcDbEntity
  8
WAKU0
  6
CONTINUOUS
 62
3
100
AcDbLine
 10
344.0000000000000
 20
51.00000000000000
 30
0.0000000000000000
 11
344.0000000000000
 21
12.00000000000000
 31
0.0000000000000000
  0
LINE
  5
35E
100
AcDbEntity
  8
WAKU0
  6
CONTINUOUS
 62
3
100
AcDbLine
 10
344.0000000000000
 20
37.00000000000000
 30
0.0000000000000000
 11
410.0000000000000
 21
37.00000000000000
 31
0.0000000000000000
  0
LINE
  5
35F
100
AcDbEntity
  8
WAKU0
  6
CONTINUOUS
 62
3
100
AcDbLine
 10
332.0000000000000
 20
23.00000000000000
 30
0.0000000000000000
 11
410.0000000000000
 21
23.00000000000000
 31
0.0000000000000000
  0
LINE
  5
360
100
AcDbEntity
  8
WAKU0
  6
CONTINUOUS
 62
3
100
AcDbLine
 10
375.0000000000000
 20
51.00000000000000
 30
0.0000000000000000
 11
375.0000000000000
 21
44.00000000000000
 31
0.0000000000000000
  0
LINE
  5
361
100
AcDbEntity
  8
WAKU0
  6
CONTINUOUS
 62
3
100
AcDbLine
 10
387.0000000000000
 20
51.00000000000000
 30
0.0000000000000000
 11
387.0000000000000
 21
44.00000000000000
 31
0.0000000000000000
  0
LINE
  5
362
100
AcDbEntity
  8
WAKU0
  6
CONTINUOUS
 62
3
100
AcDbLine
 10
312.0000000000000
 20
31.50000000000000
 30
0.0000000000000000
 11
332.0000000000000
 21
31.50000000000000
 31
0.0000000000000000
  0
LINE
  5
363
100
AcDbEntity
  8
WAKU0
  6
CONTINUOUS
 62
3
100
AcDbLine
 10
332.0000000000000
 20
44.00000000000000
 30
0.0000000000000000
 11
410.0000000000000
 21
44.00000000000000
 31
0.0000000000000000
  0
LINE
  5
364
100
AcDbEntity
  8
WAKU0
  6
CONTINUOUS
 62
3
100
AcDbLine
 10
240.0000000000000
 20
37.00000000000000
 30
0.0000000000000000
 11
312.0000000000000
 21
37.00000000000000
 31
0.0000000000000000
  0
LINE
  5
365
100
AcDbEntity
  8
WAKU0
  6
CONTINUOUS
 62
3
100
AcDbLine
 10
240.0000000000000
 20
23.00000000000000
 30
0.0000000000000000
 11
312.0000000000000
 21
23.00000000000000
 31
0.0000000000000000
  0
LINE
  5
366
100
AcDbEntity
  8
WAKU0
  6
CONTINUOUS
 62
3
100
AcDbLine
 10
288.0000000000000
 20
37.00000000000000
 30
0.0000000000000000
 11
288.0000000000000
 21
12.00000000000000
 31
0.0000000000000000
  0
LINE
  5
367
100
AcDbEntity
  8
WAKU0
  6
CONTINUOUS
 62
3
100
AcDbLine
 10
264.0000000000000
 20
37.00000000000000
 30
0.0000000000000000
 11
264.0000000000000
 21
23.00000000000000
 31
0.0000000000000000
  0
LINE
  5
368
100
AcDbEntity
  8
WAKU0
  6
CONTINUOUS
 62
3
100
AcDbLine
 10
300.0000000000000
 20
26.00000000000000
 30
0.0000000000000000
 11
300.0000000000000
 21
23.00000000000000
 31
0.0000000000000000
  0
LINE
  5
369
100
AcDbEntity
  8
WAKU0
  6
CONTINUOUS
 62
3
100
AcDbLine
 10
276.0000000000000
 20
26.00000000000000
 30
0.0000000000000000
 11
276.0000000000000
 21
23.00000000000000
 31
0.0000000000000000
  0
LINE
  5
36A
100
AcDbEntity
  8
WAKU0
  6
CONTINUOUS
 62
3
100
AcDbLine
 10
252.0000000000000
 20
26.00000000000000
 30
0.0000000000000000
 11
252.0000000000000
 21
23.00000000000000
 31
0.0000000000000000
  0
LINE
  5
36B
100
AcDbEntity
  8
WAKU0
  6
CONTINUOUS
 62
3
100
AcDbLine
 10
258.0000000000000
 20
51.00000000000000
 30
0.0000000000000000
 11
258.0000000000000
 21
37.00000000000000
 31
0.0000000000000000
  0
LINE
  5
36C
100
AcDbEntity
  8
WAKU0
  6
CONTINUOUS
 62
3
100
AcDbLine
 10
240.0000000000000
 20
45.00000000000000
 30
0.0000000000000000
 11
312.0000000000000
 21
45.00000000000000
 31
0.0000000000000000
  0
LINE
  5
36D
100
AcDbEntity
  8
WAKU0
  6
HIDDEN
 62
3
100
AcDbLine
 10
360.5000000000000
 20
23.00000000000000
 30
0.0000000000000000
 11
360.5000000000000
 21
12.00000000000000
 31
0.0000000000000000
  0
LINE
  5
36E
100
AcDbEntity
  8
WAKU0
  6
HIDDEN
 62
3
100
AcDbLine
 10
372.9000000000000
 20
23.00000000000000
 30
0.0000000000000000
 11
372.9000000000000
 21
12.00000000000000
 31
0.0000000000000000
  0
MTEXT
  5
36F
100
AcDbEntity
  8
WAKU0
  6
CONTINUOUS
 62
3
100
AcDbMText
 10
344.4820000231266
 20
49.04999995231628
 30
0.0000000000000000
 40
3.099999904632568
 41
0.0000000000000000
 71
     1
 72
     1
  1
{\H0.93x;{QGL30610}}
 11
1.000000000000000
 21
0.0000000000000000
 31
0.0000000000000000
  7
STANDARD
  0
MTEXT
  5
370
100
AcDbEntity
  8
WAKU0
  6
CONTINUOUS
 62
3
100
AcDbMText
 10
365.3900006115437
 20
43.50000000000000
 30
0.0000000000000000
 40
3.000000000000000
 41
0.0000000000000000
 71
     1
 72
     1
  1
{\H0.93x;{グリッパ\PＧＲＩＰＰＥＲ}}
 11
1.000000000000000
 21
0.0000000000000000
 31
0.0000000000000000
  7
KNJYOKO
  0
MTEXT
  5
371
100
AcDbEntity
  8
WAKU0
  6
CONTINUOUS
 62
3
100
AcDbMText
 10
349.7500010021031
 20
34.23333326975504
 30
0.0000000000000000
 40
3.099999904632568
 41
0.0000000000000000
 71
     1
 72
     1
  1
{\H0.70x;{ＱＧＬ３０６１０　ガイケイ\PＱＧＬ３０６１０　ＯＵＴＳＩＤＥ　ＶＩＥＷ}}
 11
1.000000000000000
 21
0.0000000000000000
 31
0.0000000000000000
  7
KNJYOKO
  0
MTEXT
  5
372
100
AcDbEntity
  8
WAKU0
  6
CONTINUOUS
 62
3
100
AcDbMText
 10
318.0049998760223
 20
39.29999995231628
 30
0.0000000000000000
 40
3.099999904632568
 41
0.0000000000000000
 71
     1
 72
     1
  1
{\H0.90x;{1:1}}
 11
1.000000000000000
 21
0.0000000000000000
 31
0.0000000000000000
  7
STANDARD
  0
MTEXT
  5
373
100
AcDbEntity
  8
WAKU0
  6
CONTINUOUS
 62
3
100
AcDbMText
 10
374.4000001549721
 20
20.15000009536743
 30
0.0000000000000000
 40
5.300000190734863
 41
0.0000000000000000
 71
     1
 72
     1
  1
{\H0.90x;{6542}}
 11
1.000000000000000
 21
0.0000000000000000
 31
0.0000000000000000
  7
STANDARD
  0
MTEXT
  5
374
100
AcDbEntity
  8
WAKU0
  6
CONTINUOUS
 62
3
100
AcDbMText
 10
362.3000000834465
 20
20.15000009536743
 30
0.0000000000000000
 40
5.300000190734863
 41
0.0000000000000000
 71
     1
 72
     1
  1
{\H0.87x;{85}}
 11
1.000000000000000
 21
0.0000000000000000
 31
0.0000000000000000
  7
STANDARD
  0
MTEXT
  5
375
100
AcDbEntity
  8
WAKU0
  6
CONTINUOUS
 62
3
100
AcDbMText
 10
345.5000001192093
 20
20.15000009536743
 30
0.0000000000000000
 40
5.300000190734863
 41
0.0000000000000000
 71
     1
 72
     1
  1
{\H0.89x;{61G}}
 11
1.000000000000000
 21
0.0000000000000000
 31
0.0000000000000000
  7
STANDARD
  0
MTEXT
  5
376
100
AcDbEntity
  8
WAKU0
  6
CONTINUOUS
 62
3
100
AcDbMText
 10
400.0000000476837
 20
20.15000009536743
 30
0.0000000000000000
 40
5.300000190734863
 41
0.0000000000000000
 71
     1
 72
     1
  1
{\H0.81x;{1}}
 11
1.000000000000000
 21
0.0000000000000000
 31
0.0000000000000000
  7
STANDARD
  0
MTEXT
  5
377
100
AcDbEntity
  8
WAKU0
  6
CONTINUOUS
 62
3
100
AcDbMText
 10
400.0000000819564
 20
44.84999990463257
 30
0.0000000000000000
 40
5.300000190734863
 41
0.0000000000000000
 71
     7
 72
     1
  1
{\H0.81x;{ }}
 11
1.000000000000000
 21
0.0000000000000000
 31
0.0000000000000000
  7
STANDARD
  0
MTEXT
  5
378
100
AcDbEntity
  8
WAKU0
  6
CONTINUOUS
 62
3
100
AcDbMText
 10
289.3850002884865
 20
33.00000000000000
 30
0.0000000000000000
 40
3.000000000000000
 41
0.0000000000000000
 71
     7
 72
     1
  1
{\H0.93x;{DRAWN BY}}
 11
1.000000000000000
 21
0.0000000000000000
 31
0.0000000000000000
  7
STANDARD
  0
MTEXT
  5
379
100
AcDbEntity
  8
WAKU0
  6
CONTINUOUS
 62
3
100
AcDbMText
 10
269.2149997949600
 20
32.95000004768372
 30
0.0000000000000000
 40
3.099999904632568
 41
0.0000000000000000
 71
     7
 72
     1
  1
{\H0.92x;{CHIEF}}
 11
1.000000000000000
 21
0.0000000000000000
 31
0.0000000000000000
  7
STANDARD
  0
MTEXT
  5
37A
100
AcDbEntity
  8
WAKU0
  6
CONTINUOUS
 62
3
100
AcDbMText
 10
242.4249997138977
 20
32.95000004768372
 30
0.0000000000000000
 40
3.099999904632568
 41
0.0000000000000000
 71
     7
 72
     1
  1
{\H0.92x;{MANAGER}}
 11
1.000000000000000
 21
0.0000000000000000
 31
0.0000000000000000
  7
STANDARD
  0
MTEXT
  5
37B
100
AcDbEntity
  8
WAKU0
  6
CONTINUOUS
 62
3
100
AcDbMText
 10
241.0850002169609
 20
46.50000000000000
 30
0.0000000000000000
 40
3.000000000000000
 41
0.0000000000000000
 71
     7
 72
     1
  1
{\H0.92x;{CAREER}}
 11
1.000000000000000
 21
0.0000000000000000
 31
0.0000000000000000
  7
STANDARD
  0
MTEXT
  5
37C
100
AcDbEntity
  8
WAKU0
  6
CONTINUOUS
 62
3
100
AcDbMText
 10
294.6099998354912
 20
18.95000004768372
 30
0.0000000000000000
 40
3.099999904632568
 41
0.0000000000000000
 71
     7
 72
     1
  1
{\H0.91x;{DATE}}
 11
1.000000000000000
 21
0.0000000000000000
 31
0.0000000000000000
  7
STANDARD
  0
MTEXT
  5
37D
100
AcDbEntity
  8
WAKU0
  6
CONTINUOUS
 62
3
100
AcDbMText
 10
313.9000002145767
 20
26.50000000000000
 30
0.0000000000000000
 40
3.000000000000000
 41
0.0000000000000000
 71
     7
 72
     1
  1
{\H0.63x;{3RD ANGLE}}
 11
1.000000000000000
 21
0.0000000000000000
 31
0.0000000000000000
  7
STANDARD
  0
MTEXT
  5
37E
100
AcDbEntity
  8
WAKU0
  6
CONTINUOUS
 62
3
100
AcDbMText
 10
315.2149997949600
 20
45.95000004768372
 30
0.0000000000000000
 40
3.099999904632568
 41
0.0000000000000000
 71
     7
 72
     1
  1
{\H0.92x;{SCALE}}
 11
1.000000000000000
 21
0.0000000000000000
 31
0.0000000000000000
  7
STANDARD
  0
MTEXT
  5
37F
100
AcDbEntity
  8
WAKU0
  6
CONTINUOUS
 62
3
100
AcDbMText
 10
405.7000000476837
 20
46.00000000000000
 30
0.0000000000000000
 40
3.000000000000000
 41
0.0000000000000000
 71
     7
 72
     1
  1
{\H0.63x;{kg}}
 11
1.000000000000000
 21
0.0000000000000000
 31
0.0000000000000000
  7
STANDARD
  0
MTEXT
  5
380
100
AcDbEntity
  8
WAKU0
  6
CONTINUOUS
 62
3
100
AcDbMText
 10
375.6000001430512
 20
46.00000000000000
 30
0.0000000000000000
 40
3.000000000000000
 41
0.0000000000000000
 71
     7
 72
     1
  1
{\H0.63x;{WEIGHT}}
 11
1.000000000000000
 21
0.0000000000000000
 31
0.0000000000000000
  7
STANDARD
  0
MTEXT
  5
381
100
AcDbEntity
  8
WAKU0
  6
CONTINUOUS
 62
3
100
AcDbMText
 10
334.0049998760223
 20
18.13333336512248
 30
0.0000000000000000
 40
3.099999904632568
 41
0.0000000000000000
 71
     7
 72
     1
  1
{\H0.90x;{DRW\PNO.}}
 11
1.000000000000000
 21
0.0000000000000000
 31
0.0000000000000000
  7
STANDARD
  0
MTEXT
  5
382
100
AcDbEntity
  8
WAKU0
  6
CONTINUOUS
 62
3
100
AcDbMText
 10
332.6099998354912
 20
31.95000004768372
 30
0.0000000000000000
 40
3.099999904632568
 41
0.0000000000000000
 71
     7
 72
     1
  1
{\H0.91x;{NAME}}
 11
1.000000000000000
 21
0.0000000000000000
 31
0.0000000000000000
  7
STANDARD
  0
MTEXT
  5
383
100
AcDbEntity
  8
WAKU0
  6
CONTINUOUS
 62
3
100
AcDbMText
 10
332.6099998354912
 20
45.95000004768372
 30
0.0000000000000000
 40
3.099999904632568
 41
0.0000000000000000
 71
     7
 72
     1
  1
{\H0.91x;{TYPE}}
 11
1.000000000000000
 21
0.0000000000000000
 31
0.0000000000000000
  7
STANDARD
  0
LINE
  5
384
100
AcDbEntity
  8
WAKU0
  6
HIDDEN
 62
3
100
AcDbLine
 10
407.1599564743885
 20
13.84999990463257
 30
0.0000000000000000
 11
396.9400436209789
 21
13.84999990463257
 31
0.0000000000000000
  0
LINE
  5
385
100
AcDbEntity
  8
WAKU0
  6
HIDDEN
 62
3
100
AcDbLine
 10
407.1599564743885
 20
13.84999990463250
 30
0.0000000000000000
 11
402.0500000476852
 21
22.70070406014901
 31
0.0000000000000000
  0
LINE
  5
386
100
AcDbEntity
  8
WAKU0
  6
HIDDEN
 62
3
100
AcDbLine
 10
402.0500000476852
 20
22.70070406014902
 30
0.0000000000000000
 11
396.9400436209789
 21
13.84999990463248
 31
0.0000000000000000
  0
MTEXT
  5
387
100
AcDbEntity
  8
WAKU0
  6
CONTINUOUS
 62
3
100
AcDbMText
 10
247.0000009614873
 20
20.63471521698214
 30
0.0000000000000000
 40
3.140094041824341
 41
0.0000000000000000
 71
     1
 72
     1
  1
{\H0.83x;{Ｋｉｔａｇａｗａ\PＣｏｒｐｏｒａｔｉｏｎ}}
 11
1.000000000000000
 21
0.0000000000000000
 31
0.0000000000000000
  7
KNJYOKO
  0
LINE
  5
388
100
AcDbEntity
  8
WAKU0
  6
CONTINUOUS
 62
3
100
AcDbLine
 10
330.4713877753800
 20
15.78041421262812
 30
0.0000000000000000
 11
330.4713877753800
 21
21.78041421262815
 31
0.0000000000000000
  0
LINE
  5
389
100
AcDbEntity
  8
WAKU0
  6
CONTINUOUS
 62
3
100
AcDbLine
 10
323.9336941228225
 20
17.28041421262811
 30
0.0000000000000000
 11
323.9336941228225
 21
20.28041421262824
 31
0.0000000000000000
  0
LINE
  5
38A
100
AcDbEntity
  8
WAKU0
  6
CENTER
 62
12
100
AcDbLine
 10
313.4321805514995
 20
18.78041421262813
 30
0.0000000000000000
 11
331.2765788964694
 21
18.78041421262813
 31
0.0000000000000000
  0
LINE
  5
38B
100
AcDbEntity
  8
WAKU0
  6
CENTER
 62
12
100
AcDbLine
 10
317.4474565857986
 20
14.55921662918448
 30
0.0000000000000000
 11
317.4474565857986
 21
22.89865102149943
 31
0.0000000000000000
  0
LINE
  5
38C
100
AcDbEntity
  8
WAKU0
  6
CONTINUOUS
 62
3
100
AcDbLine
 10
323.9336941228225
 20
20.28041421262797
 30
0.0000000000000000
 11
330.4713877753800
 21
21.78041421262795
 31
0.0000000000000000
  0
LINE
  5
38D
100
AcDbEntity
  8
WAKU0
  6
CONTINUOUS
 62
3
100
AcDbLine
 10
323.9336941228225
 20
17.28041421262811
 30
0.0000000000000000
 11
330.4713877753799
 21
15.78041421262812
 31
0.0000000000000000
  0
CIRCLE
  5
38E
100
AcDbEntity
  8
WAKU0
  6
CONTINUOUS
 62
3
100
AcDbCircle
 10
317.4474565857986
 20
18.78041421262813
 30
0.0000000000000000
 40
1.499999999999972
  0
CIRCLE
  5
38F
100
AcDbEntity
  8
WAKU0
  6
CONTINUOUS
 62
3
100
AcDbCircle
 10
317.4474565857986
 20
18.78041421262813
 30
0.0000000000000000
 40
2.999999999999979
  0
ENDSEC
  0
SECTION
  2
OBJECTS
  0
DICTIONARY
  5
3C7
100
AcDbDictionary
  3
ACAD_GROUP
350
3C8
  3
ACAD_MLINESTYLE
350
3C9
  0
DICTIONARY
  5
3C8
102
{ACAD_REACTORS
330
3C7
102
}
100
AcDbDictionary
  0
DICTIONARY
  5
3C9
102
{ACAD_REACTORS
330
3C7
102
}
100
AcDbDictionary
  3
STANDARD
350
3CA
  0
MLINESTYLE
  5
3CA
102
{ACAD_REACTORS
330
3C9
102
}
100
AcDbMlineStyle
  2
STANDARD
 70
     0
  3

 62
   256
 51
90.00
 52
90.00
 71
     2
 49
0.50
 62
   256
  6
BYLAYER
 49
-0.50
 62
   256
  6
BYLAYER
  0
ENDSEC
  0
EOF
