  0
SECTION
  2
HEADER
  9
$ACADVER
  1
AC1018
  9
$DWGCODEPAGE
  3
ANSI_932
  9
$LTSCALE
 40
20.0
  9
$FILLMODE
 70
     1
  9
$CLAYER
  8
0
  9
$PDMODE
 70
     0
  9
$SPLFRAME
 70
     0
  9
$SPLINETYPE
 70
     6
  9
$SPLINESEGS
 70
     8
  9
$DIMASZ
 40
2.000000
  9
$DIMEXE
 40
2.000000
  9
$DIMEXO
 40
0.800000
  9
$DIMTAD
 70
     1
  9
$DIMTIH
 70
     0
  9
$DIMTOH
 70
     0
  9
$DIMTVP
 40
0.500000
  9
$DIMTXT
 40
3.100000
  9
$EXTMIN
 10
0.000000
 20
0.000000
 30
0.000000
  9
$EXTMAX
 10
210.000000
 20
297.000000
 30
0.000000
  9
$MEASUREMENT
 70
  1
  9
$LIMMIN
 10
0.000000
 20
0.000000
  9
$LIMMAX
 10
210.000000
 20
297.000000
  9
$HANDSEED
  5
2D9
  9
$LWDISPLAY
290
     0
  9
$DIMBLK
  1
_OPEN
  9
$DIMDEC
 70
     3
  9
$DIMADEC
 70
     4
  9
$DIMAUNIT
 70
     1
  9
$DIMZIN
 70
     8
  9
$DIMAZIN
 70
     2
  9
$DIMTOFL
 70
     1
  0
ENDSEC
  0
SECTION
  2
CLASSES
  0
ENDSEC
  0
SECTION
  2
TABLES
  0
TABLE
  2
VPORT
  5
296
100
AcDbSymbolTable
 70
     1
  0
VPORT
  5
297
100
AcDbSymbolTableRecord
100
AcDbViewportTableRecord
  2
*ACTIVE
 70
     0
 12
105.000000
 22
148.500000
 40
297.000000
 41
0.707071
  0
ENDTAB
  0
TABLE
  2
LTYPE
  5
298
100
AcDbSymbolTable
 70
     3
  0
LTYPE
  5
299
100
AcDbSymbolTableRecord
100
AcDbLinetypeTableRecord
  2
BYBLOCK
 70
     0
  3

 72
    65
 73
     0
 40
0.0
  0
LTYPE
  5
29A
100
AcDbSymbolTableRecord
100
AcDbLinetypeTableRecord
  2
BYLAYER
 70
     0
  3

 72
    65
 73
     0
 40
0.0
  0
LTYPE
  5
29B
100
AcDbSymbolTableRecord
100
AcDbLinetypeTableRecord
  2
CONTINUOUS
 70
     0
  3
Solid line (NEC CAE2D for Win R12.1 : 2018.05.24)
 72
    65
 73
     0
 40
0.0
  0
LTYPE
  5
29C
100
AcDbSymbolTableRecord
100
AcDbLinetypeTableRecord
  2
HIDDEN
 70
     0
  3
__ __ __ __ __ __ __ __ __ __ __ __ __ __
 72
    65
 73
     2
 40
0.375
 49
0.25
 74
     0
 49
-0.125
 74
     0
  0
LTYPE
  5
29D
100
AcDbSymbolTableRecord
100
AcDbLinetypeTableRecord
  2
CENTER
 70
     0
  3
____ _ ____ _ ____ _ ____ _ ____ _ ____
 72
    65
 73
     4
 40
2.0
 49
1.25
 74
     0
 49
-0.25
 74
     0
 49
0.25
 74
     0
 49
-0.25
 74
     0
  0
ENDTAB
  0
TABLE
  2
LAYER
  5
29E
100
AcDbSymbolTable
 70
     7
  0
LAYER
  5
29F
100
AcDbSymbolTableRecord
100
AcDbLayerTableRecord
  2
0
 70
     0
 62
     7
  6
CONTINUOUS
370
    -3
390

  0
LAYER
  5
2A0
100
AcDbSymbolTableRecord
100
AcDbLayerTableRecord
  2
MAIN0
 70
     0
 62
     7
  6
CONTINUOUS
370
    -3
390

  0
LAYER
  5
2A1
100
AcDbSymbolTableRecord
100
AcDbLayerTableRecord
  2
MAIN1
 70
     0
 62
     7
  6
CONTINUOUS
370
    -3
390

  0
LAYER
  5
2A2
100
AcDbSymbolTableRecord
100
AcDbLayerTableRecord
  2
MAIN10
 70
     0
 62
     7
  6
CONTINUOUS
370
    -3
390

  0
LAYER
  5
2A3
100
AcDbSymbolTableRecord
100
AcDbLayerTableRecord
  2
MAIN1023
 70
     0
 62
    16
  6
CONTINUOUS
370
    -3
390

  0
LAYER
  5
2A4
100
AcDbSymbolTableRecord
100
AcDbLayerTableRecord
  2
WAKU0
 70
     0
 62
     7
  6
CONTINUOUS
370
    -3
390

  0
LAYER
  5
2A5
100
AcDbSymbolTableRecord
100
AcDbLayerTableRecord
  2
WAKU1023
 70
     0
 62
    16
  6
CONTINUOUS
370
    -3
390

  0
ENDTAB
  0
TABLE
  2
STYLE
  5
2A6
100
AcDbSymbolTable
 70
     4
  0
STYLE
  5
2A7
100
AcDbSymbolTableRecord
100
AcDbTextStyleTableRecord
  2
STANDARD
 70
    64
 40
0.0
 41
1.0
 50
0.0
 71
     0
 42
2.800000190734863
  3
TXT
  4

  0
STYLE
  5
2A8
100
AcDbSymbolTableRecord
100
AcDbTextStyleTableRecord
  2
ANKTATE
 70
    68
 40
0.0
 41
1.0
 50
0.0
 71
     0
 42
2.800000190734863
  3
TXT
  4

  0
STYLE
  5
D6
100
AcDbSymbolTableRecord
100
AcDbTextStyleTableRecord
  2
KNJYOKO
 70
    64
 40
0.0
 41
1.0
 50
0.0
 71
     0
 42
2.800000190734863
  3
TXT
  4
BIGFONT
  0
STYLE
  5
2A9
100
AcDbSymbolTableRecord
100
AcDbTextStyleTableRecord
  2
KNJTATE
 70
    68
 40
0.0
 41
1.0
 50
0.0
 71
     0
 42
2.800000190734863
  3
TXT
  4
BIGFONT
  0
ENDTAB
  0
TABLE
  2
VIEW
  5
2AA
100
AcDbSymbolTable
 70
     0
  0
ENDTAB
  0
TABLE
  2
UCS
  5
2AB
100
AcDbSymbolTable
 70
     0
  0
ENDTAB
  0
TABLE
  2
APPID
  5
2AC
100
AcDbSymbolTable
 70
     1
  0
APPID
  5
2AD
100
AcDbSymbolTableRecord
100
AcDbRegAppTableRecord
  2
ACAD
 70
     0
  0
ENDTAB
  0
TABLE
  2
DIMSTYLE
  5
2AE
100
AcDbSymbolTable
 70
     3
100
AcDbDimStyleTable
  0
DIMSTYLE
105
2AF
100
AcDbSymbolTableRecord
100
AcDbDimStyleTableRecord
  2
STANDARD
 70
     0
 41
2.000000
 44
2.000000
 42
0.800000
145
0.661290
140
3.100000
144
1.000000
146
0.903226
340
2A7
  0
DIMSTYLE
105
2B0
100
AcDbSymbolTableRecord
100
AcDbDimStyleTableRecord
  2
MAIN001
 70
     0
 41
2.000000
 44
2.000000
 42
0.800000
145
0.661290
140
3.100000
144
1.000000
146
0.903226
 77
     1
 73
     0
 74
     0
271
     3
179
     4
275
     1
 78
     8
 79
     2
172
     1
340
2A7
  0
DIMSTYLE
105
2B1
100
AcDbSymbolTableRecord
100
AcDbDimStyleTableRecord
  2
WAKU002
 70
     0
 41
2.000000
 44
2.000000
 42
0.800000
145
0.661290
140
3.100000
144
1.000000
146
0.903226
 77
     1
 73
     0
 74
     0
271
     3
179
     4
275
     1
 78
     8
 79
     2
172
     1
340
2A7
  0
ENDTAB
  0
TABLE
  2
BLOCK_RECORD
  5
2B2
100
AcDbSymbolTable
 70
    33
  0
BLOCK_RECORD
  5
2B3
100
AcDbSymbolTableRecord
100
AcDbBlockTableRecord
  2
*MODEL_SPACE
  0
BLOCK_RECORD
  5
2B4
100
AcDbSymbolTableRecord
100
AcDbBlockTableRecord
  2
*PAPER_SPACE
  0
BLOCK_RECORD
  5
2B5
100
AcDbSymbolTableRecord
100
AcDbBlockTableRecord
  2
*PAPER_SPACE0
  0
BLOCK_RECORD
  5
1
100
AcDbSymbolTableRecord
100
AcDbBlockTableRecord
  2
_NONE
  0
BLOCK_RECORD
  5
4
100
AcDbSymbolTableRecord
100
AcDbBlockTableRecord
  2
_CLOSED
  0
BLOCK_RECORD
  5
B
100
AcDbSymbolTableRecord
100
AcDbBlockTableRecord
  2
_DOT
  0
BLOCK_RECORD
  5
13
100
AcDbSymbolTableRecord
100
AcDbBlockTableRecord
  2
_OPEN
  0
BLOCK_RECORD
  5
19
100
AcDbSymbolTableRecord
100
AcDbBlockTableRecord
  2
_ORIGIN
  0
BLOCK_RECORD
  5
1E
100
AcDbSymbolTableRecord
100
AcDbBlockTableRecord
  2
_OPEN30
  0
BLOCK_RECORD
  5
24
100
AcDbSymbolTableRecord
100
AcDbBlockTableRecord
  2
_BOXFILLED
  0
BLOCK_RECORD
  5
29
100
AcDbSymbolTableRecord
100
AcDbBlockTableRecord
  2
_BOXBLANK
  0
BLOCK_RECORD
  5
31
100
AcDbSymbolTableRecord
100
AcDbBlockTableRecord
  2
_OBLIQUE
  0
BLOCK_RECORD
  5
35
100
AcDbSymbolTableRecord
100
AcDbBlockTableRecord
  2
_OPEN90
  0
BLOCK_RECORD
  5
3B
100
AcDbSymbolTableRecord
100
AcDbBlockTableRecord
  2
_CLOSEDBLANK
  0
BLOCK_RECORD
  5
41
100
AcDbSymbolTableRecord
100
AcDbBlockTableRecord
  2
_DOTBLANK
  0
BLOCK_RECORD
  5
2B6
100
AcDbSymbolTableRecord
100
AcDbBlockTableRecord
  2
*D0
  0
BLOCK_RECORD
  5
2B7
100
AcDbSymbolTableRecord
100
AcDbBlockTableRecord
  2
*D1
  0
BLOCK_RECORD
  5
2B8
100
AcDbSymbolTableRecord
100
AcDbBlockTableRecord
  2
*D2
  0
BLOCK_RECORD
  5
2B9
100
AcDbSymbolTableRecord
100
AcDbBlockTableRecord
  2
*D3
  0
BLOCK_RECORD
  5
2BA
100
AcDbSymbolTableRecord
100
AcDbBlockTableRecord
  2
*D4
  0
BLOCK_RECORD
  5
2BB
100
AcDbSymbolTableRecord
100
AcDbBlockTableRecord
  2
*D5
  0
BLOCK_RECORD
  5
2BC
100
AcDbSymbolTableRecord
100
AcDbBlockTableRecord
  2
*D6
  0
BLOCK_RECORD
  5
2BD
100
AcDbSymbolTableRecord
100
AcDbBlockTableRecord
  2
*D7
  0
BLOCK_RECORD
  5
2BE
100
AcDbSymbolTableRecord
100
AcDbBlockTableRecord
  2
*D8
  0
BLOCK_RECORD
  5
2BF
100
AcDbSymbolTableRecord
100
AcDbBlockTableRecord
  2
*D9
  0
BLOCK_RECORD
  5
2C0
100
AcDbSymbolTableRecord
100
AcDbBlockTableRecord
  2
*D10
  0
BLOCK_RECORD
  5
2C1
100
AcDbSymbolTableRecord
100
AcDbBlockTableRecord
  2
*D11
  0
BLOCK_RECORD
  5
2C2
100
AcDbSymbolTableRecord
100
AcDbBlockTableRecord
  2
*D12
  0
BLOCK_RECORD
  5
2C3
100
AcDbSymbolTableRecord
100
AcDbBlockTableRecord
  2
*D13
  0
BLOCK_RECORD
  5
2C4
100
AcDbSymbolTableRecord
100
AcDbBlockTableRecord
  2
M0
  0
BLOCK_RECORD
  5
2C5
100
AcDbSymbolTableRecord
100
AcDbBlockTableRecord
  2
M1
  0
BLOCK_RECORD
  5
2C6
100
AcDbSymbolTableRecord
100
AcDbBlockTableRecord
  2
*D14
  0
BLOCK_RECORD
  5
2C7
100
AcDbSymbolTableRecord
100
AcDbBlockTableRecord
  2
M2
  0
BLOCK_RECORD
  5
2C8
100
AcDbSymbolTableRecord
100
AcDbBlockTableRecord
  2
M3
  0
BLOCK_RECORD
  5
2C9
100
AcDbSymbolTableRecord
100
AcDbBlockTableRecord
  2
M4
  0
BLOCK_RECORD
  5
2CA
100
AcDbSymbolTableRecord
100
AcDbBlockTableRecord
  2
M5
  0
ENDTAB
  0
ENDSEC
  0
SECTION
  2
BLOCKS
  0
BLOCK
  5
2CB
100
AcDbEntity
  8
0
100
AcDbBlockBegin
  2
*MODEL_SPACE
 70
     0
 10
0.0
 20
0.0
 30
0.0
  3
*MODEL_SPACE
  1

  0
ENDBLK
  5
2CC
100
AcDbEntity
  8
0
100
AcDbBlockEnd
  0
BLOCK
  5
2CD
100
AcDbEntity
  8
0
100
AcDbBlockBegin
  2
*PAPER_SPACE
 70
     0
 10
0.0
 20
0.0
 30
0.0
  3
*PAPER_SPACE
  1

  0
ENDBLK
  5
2CE
100
AcDbEntity
  8
0
100
AcDbBlockEnd
  0
BLOCK
  5
2CF
100
AcDbEntity
  8
0
100
AcDbBlockBegin
  2
*PAPER_SPACE0
 70
     0
 10
0.0
 20
0.0
 30
0.0
  3
*PAPER_SPACE0
  1

  0
ENDBLK
  5
2D0
100
AcDbEntity
  8
0
100
AcDbBlockEnd
  0
BLOCK
  5
2
330
1
100
AcDbEntity
  8
0
100
AcDbBlockBegin
  2
_NONE
 70
     0
 10
0.0
 20
0.0
 30
0.0
  3
_NONE
  1

  0
ENDBLK
  5
3
330
1
100
AcDbEntity
  8
0
100
AcDbBlockEnd
  0
BLOCK
  5
5
330
4
100
AcDbEntity
  8
0
100
AcDbBlockBegin
  2
_CLOSED
 70
     0
 10
0.0
 20
0.0
 30
0.0
  3
_CLOSED
  1

  0
LINE
  5
6
330
4
100
AcDbEntity
  8
0
  6
BYBLOCK
 62
     0
370
    -2
100
AcDbLine
 10
-1.0
 20
0.166667
 30
0.0
 11
0.0
 21
0.0
 31
0.0
  0
LINE
  5
7
330
4
100
AcDbEntity
  8
0
  6
BYBLOCK
 62
     0
370
    -2
100
AcDbLine
 10
0.0
 20
0.0
 30
0.0
 11
-1.0
 21
-0.166667
 31
0.0
  0
LINE
  5
8
330
4
100
AcDbEntity
  8
0
  6
BYBLOCK
 62
     0
370
    -2
100
AcDbLine
 10
-1.0
 20
0.166667
 30
0.0
 11
-1.0
 21
-0.166667
 31
0.0
  0
LINE
  5
9
330
4
100
AcDbEntity
  8
0
  6
BYBLOCK
 62
     0
370
    -2
100
AcDbLine
 10
0.0
 20
0.0
 30
0.0
 11
-1.0
 21
0.0
 31
0.0
  0
ENDBLK
  5
A
330
4
100
AcDbEntity
  8
0
100
AcDbBlockEnd
  0
BLOCK
  5
C
330
B
100
AcDbEntity
  8
0
100
AcDbBlockBegin
  2
_DOT
 70
     0
 10
0.0
 20
0.0
 30
0.0
  3
_DOT
  1

  0
POLYLINE
  5
D
330
B
100
AcDbEntity
  8
0
  6
BYBLOCK
 62
     0
370
    -2
100
AcDb2dPolyline
 66
     1
 10
0.0
 20
0.0
 30
0.0
 70
     1
 40
0.5
 41
0.5
  0
VERTEX
  5
E
330
B
100
AcDbEntity
  8
0
  6
BYBLOCK
 62
     0
370
    -2
100
AcDbVertex
100
AcDb2dVertex
 10
-0.25
 20
0.0
 30
0.0
 42
1.0
  0
VERTEX
  5
F
330
B
100
AcDbEntity
  8
0
  6
BYBLOCK
 62
     0
370
    -2
100
AcDbVertex
100
AcDb2dVertex
 10
0.25
 20
0.0
 30
0.0
 42
1.0
  0
SEQEND
  5
10
330
B
100
AcDbEntity
  8
0
  6
BYBLOCK
 62
     0
370
    -2
  0
LINE
  5
11
330
B
100
AcDbEntity
  8
0
  6
BYBLOCK
 62
     0
370
    -2
100
AcDbLine
 10
-0.5
 20
0.0
 30
0.0
 11
-1.0
 21
0.0
 31
0.0
  0
ENDBLK
  5
12
330
B
100
AcDbEntity
  8
0
100
AcDbBlockEnd
  0
BLOCK
  5
14
330
13
100
AcDbEntity
  8
0
100
AcDbBlockBegin
  2
_OPEN
 70
     0
 10
0.0
 20
0.0
 30
0.0
  3
_OPEN
  1

  0
LINE
  5
15
330
13
100
AcDbEntity
  8
0
  6
BYBLOCK
 62
     0
370
    -2
100
AcDbLine
 10
-1.0
 20
0.166667
 30
0.0
 11
0.0
 21
0.0
 31
0.0
  0
LINE
  5
16
330
13
100
AcDbEntity
  8
0
  6
BYBLOCK
 62
     0
370
    -2
100
AcDbLine
 10
0.0
 20
0.0
 30
0.0
 11
-1.0
 21
-0.166667
 31
0.0
  0
LINE
  5
17
330
13
100
AcDbEntity
  8
0
  6
BYBLOCK
 62
     0
370
    -2
100
AcDbLine
 10
0.0
 20
0.0
 30
0.0
 11
-1.0
 21
0.0
 31
0.0
  0
ENDBLK
  5
18
330
13
100
AcDbEntity
  8
0
100
AcDbBlockEnd
  0
BLOCK
  5
1A
330
19
100
AcDbEntity
  8
0
100
AcDbBlockBegin
  2
_ORIGIN
 70
     0
 10
0.0
 20
0.0
 30
0.0
  3
_ORIGIN
  1

  0
CIRCLE
  5
1B
330
19
100
AcDbEntity
  8
0
  6
BYBLOCK
 62
     0
370
    -2
100
AcDbCircle
 10
0.0
 20
0.0
 30
0.0
 40
0.5
  0
LINE
  5
1C
330
19
100
AcDbEntity
  8
0
  6
BYBLOCK
 62
     0
370
    -2
100
AcDbLine
 10
0.0
 20
0.0
 30
0.0
 11
-1.0
 21
0.0
 31
0.0
  0
ENDBLK
  5
1D
330
19
100
AcDbEntity
  8
0
100
AcDbBlockEnd
  0
BLOCK
  5
1F
330
1E
100
AcDbEntity
  8
0
100
AcDbBlockBegin
  2
_OPEN30
 70
     0
 10
0.0
 20
0.0
 30
0.0
  3
_OPEN30
  1

  0
LINE
  5
20
330
1E
100
AcDbEntity
  8
0
  6
BYBLOCK
 62
     0
370
    -2
100
AcDbLine
 10
-1.0
 20
0.267949
 30
0.0
 11
0.0
 21
0.0
 31
0.0
  0
LINE
  5
21
330
1E
100
AcDbEntity
  8
0
  6
BYBLOCK
 62
     0
370
    -2
100
AcDbLine
 10
0.0
 20
0.0
 30
0.0
 11
-1.0
 21
-0.267949
 31
0.0
  0
LINE
  5
22
330
1E
100
AcDbEntity
  8
0
  6
BYBLOCK
 62
     0
370
    -2
100
AcDbLine
 10
0.0
 20
0.0
 30
0.0
 11
-1.0
 21
0.0
 31
0.0
  0
ENDBLK
  5
23
330
1E
100
AcDbEntity
  8
0
100
AcDbBlockEnd
  0
BLOCK
  5
25
330
24
100
AcDbEntity
  8
0
100
AcDbBlockBegin
  2
_BOXFILLED
 70
     0
 10
0.0
 20
0.0
 30
0.0
  3
_BOXFILLED
  1

  0
SOLID
  5
26
330
24
100
AcDbEntity
  8
0
  6
BYBLOCK
 62
     0
370
    -2
100
AcDbTrace
 10
-0.5
 20
0.5
 30
0.0
 11
0.5
 21
0.5
 31
0.0
 12
-0.5
 22
-0.5
 32
0.0
 13
0.5
 23
-0.5
 33
0.0
  0
LINE
  5
27
330
24
100
AcDbEntity
  8
0
  6
BYBLOCK
 62
     0
370
    -2
100
AcDbLine
 10
-0.5
 20
0.0
 30
0.0
 11
-1.0
 21
0.0
 31
0.0
  0
ENDBLK
  5
28
330
24
100
AcDbEntity
  8
0
100
AcDbBlockEnd
  0
BLOCK
  5
2A
330
29
100
AcDbEntity
  8
0
100
AcDbBlockBegin
  2
_BOXBLANK
 70
     0
 10
0.0
 20
0.0
 30
0.0
  3
_BOXBLANK
  1

  0
LINE
  5
2B
330
29
100
AcDbEntity
  8
0
  6
BYBLOCK
 62
     0
370
    -2
100
AcDbLine
 10
-0.5
 20
-0.5
 30
0.0
 11
0.5
 21
-0.5
 31
0.0
  0
LINE
  5
2C
330
29
100
AcDbEntity
  8
0
  6
BYBLOCK
 62
     0
370
    -2
100
AcDbLine
 10
0.5
 20
-0.5
 30
0.0
 11
0.5
 21
0.5
 31
0.0
  0
LINE
  5
2D
330
29
100
AcDbEntity
  8
0
  6
BYBLOCK
 62
     0
370
    -2
100
AcDbLine
 10
0.5
 20
0.5
 30
0.0
 11
-0.5
 21
0.5
 31
0.0
  0
LINE
  5
2E
330
29
100
AcDbEntity
  8
0
  6
BYBLOCK
 62
     0
370
    -2
100
AcDbLine
 10
-0.5
 20
0.5
 30
0.0
 11
-0.5
 21
-0.5
 31
0.0
  0
LINE
  5
2F
330
29
100
AcDbEntity
  8
0
  6
BYBLOCK
 62
     0
370
    -2
100
AcDbLine
 10
-0.5
 20
0.0
 30
0.0
 11
-1.0
 21
0.0
 31
0.0
  0
ENDBLK
  5
30
330
29
100
AcDbEntity
  8
0
100
AcDbBlockEnd
  0
BLOCK
  5
32
330
31
100
AcDbEntity
  8
0
100
AcDbBlockBegin
  2
_OBLIQUE
 70
     0
 10
0.0
 20
0.0
 30
0.0
  3
_OBLIQUE
  1

  0
LINE
  5
33
330
31
100
AcDbEntity
  8
0
  6
BYBLOCK
 62
     0
370
    -2
100
AcDbLine
 10
-0.5
 20
-0.5
 30
0.0
 11
0.5
 21
0.5
 31
0.0
  0
ENDBLK
  5
34
330
31
100
AcDbEntity
  8
0
100
AcDbBlockEnd
  0
BLOCK
  5
36
330
35
100
AcDbEntity
  8
0
100
AcDbBlockBegin
  2
_OPEN90
 70
     0
 10
0.0
 20
0.0
 30
0.0
  3
_OPEN90
  1

  0
LINE
  5
37
330
35
100
AcDbEntity
  8
0
  6
BYBLOCK
 62
     0
370
    -2
100
AcDbLine
 10
-0.5
 20
0.5
 30
0.0
 11
0.0
 21
0.0
 31
0.0
  0
LINE
  5
38
330
35
100
AcDbEntity
  8
0
  6
BYBLOCK
 62
     0
370
    -2
100
AcDbLine
 10
0.0
 20
0.0
 30
0.0
 11
-0.5
 21
-0.5
 31
0.0
  0
LINE
  5
39
330
35
100
AcDbEntity
  8
0
  6
BYBLOCK
 62
     0
370
    -2
100
AcDbLine
 10
0.0
 20
0.0
 30
0.0
 11
-1.0
 21
0.0
 31
0.0
  0
ENDBLK
  5
3A
330
35
100
AcDbEntity
  8
0
100
AcDbBlockEnd
  0
BLOCK
  5
3C
330
3B
100
AcDbEntity
  8
0
100
AcDbBlockBegin
  2
_CLOSEDBLANK
 70
     0
 10
0.0
 20
0.0
 30
0.0
  3
_CLOSEDBLANK
  1

  0
LINE
  5
3D
330
3B
100
AcDbEntity
  8
0
  6
BYBLOCK
 62
     0
370
    -2
100
AcDbLine
 10
-1.0
 20
0.1666666666666666
 30
0.0
 11
0.0
 21
0.0
 31
0.0
  0
LINE
  5
3E
330
3B
100
AcDbEntity
  8
0
  6
BYBLOCK
 62
     0
370
    -2
100
AcDbLine
 10
0.0
 20
0.0
 30
0.0
 11
-1.0
 21
-0.1666666666666666
 31
0.0
  0
LINE
  5
3F
330
3B
100
AcDbEntity
  8
0
  6
BYBLOCK
 62
     0
370
    -2
100
AcDbLine
 10
-1.0
 20
0.1666666666666666
 30
0.0
 11
-1.0
 21
-0.1666666666666666
 31
0.0
  0
ENDBLK
  5
40
330
3B
100
AcDbEntity
  8
0
100
AcDbBlockEnd
  0
BLOCK
  5
42
330
41
100
AcDbEntity
  8
0
100
AcDbBlockBegin
  2
_DOTBLANK
 70
     0
 10
0.0
 20
0.0
 30
0.0
  3
_DOTBLANK
  1

  0
CIRCLE
  5
43
330
41
100
AcDbEntity
  8
0
  6
BYBLOCK
 62
     0
370
    -2
100
AcDbCircle
 10
0.0
 20
0.0
 30
0.0
 40
0.5
  0
LINE
  5
44
330
41
100
AcDbEntity
  8
0
  6
BYBLOCK
 62
     0
370
    -2
100
AcDbLine
 10
-0.5
 20
0.0
 30
0.0
 11
-1.0
 21
0.0
 31
0.0
  0
ENDBLK
  5
45
330
41
100
AcDbEntity
  8
0
100
AcDbBlockEnd
  0
BLOCK
  5
87
100
AcDbEntity
  8
MAIN0
  6
CONTINUOUS
 62
3
100
AcDbBlockBegin
  2
*D0
 70
    65
 10
0.0
 20
0.0
 30
0.0
  0
LINE
  5
88
100
AcDbEntity
  8
MAIN0
  6
BYBLOCK
 62
0
370
    -2
100
AcDbLine
 10
143.3655315933087
 20
185.4546563649286
 30
0.0000000000000000
 11
143.3655315933087
 21
208.7462313331664
 31
0.0000000000000000
  0
LINE
  5
89
100
AcDbEntity
  8
MAIN0
  6
BYBLOCK
 62
0
370
    -2
100
AcDbLine
 10
143.3655315933087
 20
206.7462313331664
 30
0.0000000000000000
 11
146.8655315933087
 21
206.7462313331664
 31
0.0000000000000000
  0
INSERT
  5
8A
100
AcDbEntity
  8
MAIN0
  6
BYBLOCK
 62
0
100
AcDbBlockReference
  2
_OPEN
 10
143.3655315933087
 20
206.7462313331664
 30
0.0000000000000000
 41
2.000000000000000
 42
2.000000000000000
 43
2.000000000000000
 50
0.0000000000000000
  0
INSERT
  5
8B
100
AcDbEntity
  8
MAIN0
  6
BYBLOCK
 62
0
100
AcDbBlockReference
  2
_OPEN
 10
146.8655315933087
 20
206.7462313331664
 30
0.0000000000000000
 41
2.000000000000000
 42
2.000000000000000
 43
2.000000000000000
 50
180.0000000000000
  0
LINE
  5
8C
100
AcDbEntity
  8
MAIN0
  6
BYBLOCK
 62
0
370
    -2
100
AcDbLine
 10
141.3655315933087
 20
206.7462313331664
 30
0.0000000000000000
 11
136.2663795051434
 21
206.7462313331664
 31
0.0000000000000000
  0
LINE
  5
8D
100
AcDbEntity
  8
MAIN0
  6
BYBLOCK
 62
0
370
    -2
100
AcDbLine
 10
148.8655315933087
 20
206.7462313331664
 30
0.0000000000000000
 11
149.8655315933087
 21
206.7462313331664
 31
0.0000000000000000
  0
LINE
  5
8E
100
AcDbEntity
  8
MAIN0
  6
BYBLOCK
 62
0
370
    -2
100
AcDbLine
 10
146.8655315933087
 20
185.4546563649286
 30
0.0000000000000000
 11
146.8655315933087
 21
208.7462313331664
 31
0.0000000000000000
  0
MTEXT
  5
8F
100
AcDbEntity
  8
MAIN0
  6
BYBLOCK
 62
0
100
AcDbMText
 10
138.9163796387102
 20
208.7962312854827
 30
0.0000000000000000
 40
3.099999904632568
 41
0.0000000000000000
 44
0.7741935722041460
 71
     5
 72
     1
  1
\A1;3.5
 11
1.000000000000000
 21
0.0000000000000000
 31
0.0000000000000000
  7
STANDARD
  0
ENDBLK
  5
90
100
AcDbEntity
  8
MAIN0
  6
CONTINUOUS
 62
3
100
AcDbBlockEnd
  0
BLOCK
  5
92
100
AcDbEntity
  8
MAIN0
  6
CONTINUOUS
 62
3
100
AcDbBlockBegin
  2
*D1
 70
    65
 10
0.0
 20
0.0
 30
0.0
  0
LINE
  5
93
100
AcDbEntity
  8
MAIN0
  6
BYBLOCK
 62
0
370
    -2
100
AcDbLine
 10
151.6155315933087
 20
198.5546563649286
 30
0.0000000000000000
 11
151.6155315933087
 21
216.4869651956627
 31
0.0000000000000000
  0
LINE
  5
94
100
AcDbEntity
  8
MAIN0
  6
BYBLOCK
 62
0
370
    -2
100
AcDbLine
 10
151.6155315933087
 20
214.4869651956627
 30
0.0000000000000000
 11
145.1155315933087
 21
214.4869651956627
 31
0.0000000000000000
  0
INSERT
  5
95
100
AcDbEntity
  8
MAIN0
  6
BYBLOCK
 62
0
100
AcDbBlockReference
  2
_OPEN
 10
151.6155315933087
 20
214.4869651956627
 30
0.0000000000000000
 41
2.000000000000000
 42
2.000000000000000
 43
2.000000000000000
 50
180.0000000000000
  0
INSERT
  5
96
100
AcDbEntity
  8
MAIN0
  6
BYBLOCK
 62
0
100
AcDbBlockReference
  2
_OPEN
 10
145.1155315933087
 20
214.4869651956627
 30
0.0000000000000000
 41
2.000000000000000
 42
2.000000000000000
 43
2.000000000000000
 50
360.0000000000000
  0
LINE
  5
97
100
AcDbEntity
  8
MAIN0
  6
BYBLOCK
 62
0
370
    -2
100
AcDbLine
 10
153.6155315933087
 20
214.4869651956627
 30
0.0000000000000000
 11
154.6155315933087
 21
214.4869651956627
 31
0.0000000000000000
  0
LINE
  5
98
100
AcDbEntity
  8
MAIN0
  6
BYBLOCK
 62
0
370
    -2
100
AcDbLine
 10
143.1155315933087
 20
214.4869651956627
 30
0.0000000000000000
 11
137.1639868316509
 21
214.4869651956627
 31
0.0000000000000000
  0
LINE
  5
99
100
AcDbEntity
  8
MAIN0
  6
BYBLOCK
 62
0
370
    -2
100
AcDbLine
 10
145.1155315933087
 20
186.6574534391123
 30
0.0000000000000000
 11
145.1155315933087
 21
216.4869651956627
 31
0.0000000000000000
  0
MTEXT
  5
9A
100
AcDbEntity
  8
MAIN0
  6
BYBLOCK
 62
0
100
AcDbMText
 10
139.8139870511217
 20
216.5369651479790
 30
0.0000000000000000
 40
3.099999904632568
 41
0.0000000000000000
 44
0.7741935722041460
 71
     5
 72
     1
  1
\A1;6.5
 11
1.000000000000000
 21
0.0000000000000000
 31
0.0000000000000000
  7
STANDARD
  0
ENDBLK
  5
9B
100
AcDbEntity
  8
MAIN0
  6
CONTINUOUS
 62
3
100
AcDbBlockEnd
  0
BLOCK
  5
9D
100
AcDbEntity
  8
MAIN0
  6
CONTINUOUS
 62
3
100
AcDbBlockBegin
  2
*D2
 70
    65
 10
0.0
 20
0.0
 30
0.0
  0
LINE
  5
9E
100
AcDbEntity
  8
MAIN0
  6
BYBLOCK
 62
0
370
    -2
100
AcDbLine
 10
130.1155315933087
 20
185.0546563649286
 30
0.0000000000000000
 11
130.1155315933087
 21
224.5939212474561
 31
0.0000000000000000
  0
LINE
  5
9F
100
AcDbEntity
  8
MAIN0
  6
BYBLOCK
 62
0
370
    -2
100
AcDbLine
 10
132.1155315933087
 20
222.5939212474561
 30
0.0000000000000000
 11
149.6155315933087
 21
222.5939212474561
 31
0.0000000000000000
  0
INSERT
  5
A0
100
AcDbEntity
  8
MAIN0
  6
BYBLOCK
 62
0
100
AcDbBlockReference
  2
_OPEN
 10
130.1155315933087
 20
222.5939212474561
 30
0.0000000000000000
 41
2.000000000000000
 42
2.000000000000000
 43
2.000000000000000
 50
180.0000000000000
  0
INSERT
  5
A1
100
AcDbEntity
  8
MAIN0
  6
BYBLOCK
 62
0
100
AcDbBlockReference
  2
_OPEN
 10
151.6155315933087
 20
222.5939212474561
 30
0.0000000000000000
 41
2.000000000000000
 42
2.000000000000000
 43
2.000000000000000
 50
0.0000000000000000
  0
LINE
  5
A2
100
AcDbEntity
  8
MAIN0
  6
BYBLOCK
 62
0
370
    -2
100
AcDbLine
 10
151.6155315933087
 20
198.5546563649286
 30
0.0000000000000000
 11
151.6155315933087
 21
224.6033554706312
 31
0.0000000000000000
  0
MTEXT
  5
A3
100
AcDbEntity
  8
MAIN0
  6
BYBLOCK
 62
0
100
AcDbMText
 10
140.8655315933087
 20
224.6439211997724
 30
0.0000000000000000
 40
3.099999904632568
 41
0.0000000000000000
 44
0.7741935722041460
 71
     5
 72
     1
  1
\A1;21.5
 11
1.000000000000000
 21
0.0000000000000000
 31
0.0000000000000000
  7
STANDARD
  0
ENDBLK
  5
A4
100
AcDbEntity
  8
MAIN0
  6
CONTINUOUS
 62
3
100
AcDbBlockEnd
  0
BLOCK
  5
A6
100
AcDbEntity
  8
MAIN0
  6
CONTINUOUS
 62
3
100
AcDbBlockBegin
  2
*D3
 70
    65
 10
0.0
 20
0.0
 30
0.0
  0
LINE
  5
A7
100
AcDbEntity
  8
MAIN0
  6
BYBLOCK
 62
0
370
    -2
100
AcDbLine
 10
151.6155315933087
 20
198.5546563649286
 30
0.0000000000000000
 11
151.6155315933087
 21
224.6033554706312
 31
0.0000000000000000
  0
LINE
  5
A8
100
AcDbEntity
  8
MAIN0
  6
BYBLOCK
 62
0
370
    -2
100
AcDbLine
 10
151.6155315933087
 20
222.5939212474561
 30
0.0000000000000000
 11
155.6155315933087
 21
222.5939212474561
 31
0.0000000000000000
  0
INSERT
  5
A9
100
AcDbEntity
  8
MAIN0
  6
BYBLOCK
 62
0
100
AcDbBlockReference
  2
_OPEN
 10
151.6155315933087
 20
222.5939212474561
 30
0.0000000000000000
 41
2.000000000000000
 42
2.000000000000000
 43
2.000000000000000
 50
0.0000000000000000
  0
INSERT
  5
AA
100
AcDbEntity
  8
MAIN0
  6
BYBLOCK
 62
0
100
AcDbBlockReference
  2
_OPEN
 10
155.6155315933087
 20
222.5939212474561
 30
0.0000000000000000
 41
2.000000000000000
 42
2.000000000000000
 43
2.000000000000000
 50
180.0000000000000
  0
LINE
  5
AB
100
AcDbEntity
  8
MAIN0
  6
BYBLOCK
 62
0
370
    -2
100
AcDbLine
 10
149.6155315933087
 20
222.5939212474561
 30
0.0000000000000000
 11
148.6155315933087
 21
222.5939212474561
 31
0.0000000000000000
  0
LINE
  5
AC
100
AcDbEntity
  8
MAIN0
  6
BYBLOCK
 62
0
370
    -2
100
AcDbLine
 10
157.6155315933087
 20
222.5939212474561
 30
0.0000000000000000
 11
158.6155315933087
 21
222.5939212474561
 31
0.0000000000000000
  0
LINE
  5
AD
100
AcDbEntity
  8
MAIN0
  6
BYBLOCK
 62
0
370
    -2
100
AcDbLine
 10
155.6155315933087
 20
208.5546563649286
 30
0.0000000000000000
 11
155.6155315933087
 21
224.5939212474561
 31
0.0000000000000000
  0
MTEXT
  5
AE
100
AcDbEntity
  8
MAIN0
  6
BYBLOCK
 62
0
100
AcDbMText
 10
153.6155315933087
 20
224.6439211997724
 30
0.0000000000000000
 40
3.099999904632568
 41
0.0000000000000000
 44
0.7741935722041460
 71
     5
 72
     1
  1
\A1;4
 11
1.000000000000000
 21
0.0000000000000000
 31
0.0000000000000000
  7
STANDARD
  0
ENDBLK
  5
AF
100
AcDbEntity
  8
MAIN0
  6
CONTINUOUS
 62
3
100
AcDbBlockEnd
  0
BLOCK
  5
B1
100
AcDbEntity
  8
MAIN0
  6
CONTINUOUS
 62
3
100
AcDbBlockBegin
  2
*D4
 70
    65
 10
0.0
 20
0.0
 30
0.0
  0
LINE
  5
B2
100
AcDbEntity
  8
MAIN0
  6
BYBLOCK
 62
0
370
    -2
100
AcDbLine
 10
155.6155315933087
 20
208.5546563649286
 30
0.0000000000000000
 11
155.6155315933087
 21
224.5939212474561
 31
0.0000000000000000
  0
LINE
  5
B3
100
AcDbEntity
  8
MAIN0
  6
BYBLOCK
 62
0
370
    -2
100
AcDbLine
 10
157.6155315933087
 20
222.5939212474561
 30
0.0000000000000000
 11
173.6155315933087
 21
222.5939212474561
 31
0.0000000000000000
  0
INSERT
  5
B4
100
AcDbEntity
  8
MAIN0
  6
BYBLOCK
 62
0
100
AcDbBlockReference
  2
_OPEN
 10
155.6155315933087
 20
222.5939212474561
 30
0.0000000000000000
 41
2.000000000000000
 42
2.000000000000000
 43
2.000000000000000
 50
180.0000000000000
  0
INSERT
  5
B5
100
AcDbEntity
  8
MAIN0
  6
BYBLOCK
 62
0
100
AcDbBlockReference
  2
_OPEN
 10
175.6155315933087
 20
222.5939212474561
 30
0.0000000000000000
 41
2.000000000000000
 42
2.000000000000000
 43
2.000000000000000
 50
0.0000000000000000
  0
LINE
  5
B6
100
AcDbEntity
  8
MAIN0
  6
BYBLOCK
 62
0
370
    -2
100
AcDbLine
 10
175.6155315933087
 20
208.5546563649286
 30
0.0000000000000000
 11
175.6155315933087
 21
224.5939212474561
 31
0.0000000000000000
  0
MTEXT
  5
B7
100
AcDbEntity
  8
MAIN0
  6
BYBLOCK
 62
0
100
AcDbMText
 10
165.6155315933087
 20
224.6439211997724
 30
0.0000000000000000
 40
3.099999904632568
 41
0.0000000000000000
 44
0.7741935722041460
 71
     5
 72
     1
  1
\A1;20
 11
1.000000000000000
 21
0.0000000000000000
 31
0.0000000000000000
  7
STANDARD
  0
ENDBLK
  5
B8
100
AcDbEntity
  8
MAIN0
  6
CONTINUOUS
 62
3
100
AcDbBlockEnd
  0
BLOCK
  5
BA
100
AcDbEntity
  8
MAIN0
  6
CONTINUOUS
 62
3
100
AcDbBlockBegin
  2
*D5
 70
    65
 10
0.0
 20
0.0
 30
0.0
  0
LINE
  5
BB
100
AcDbEntity
  8
MAIN0
  6
BYBLOCK
 62
0
370
    -2
100
AcDbLine
 10
129.7155315813877
 20
171.6546563530077
 30
0.0000000000000000
 11
122.0180539127372
 21
171.6546563530077
 31
0.0000000000000000
  0
LINE
  5
BC
100
AcDbEntity
  8
MAIN0
  6
BYBLOCK
 62
0
370
    -2
100
AcDbLine
 10
124.0180539127372
 20
173.6546563530077
 30
0.0000000000000000
 11
124.0180539127372
 21
182.6546563530077
 31
0.0000000000000000
  0
INSERT
  5
BD
100
AcDbEntity
  8
MAIN0
  6
BYBLOCK
 62
0
100
AcDbBlockReference
  2
_OPEN
 10
124.0180539127372
 20
171.6546563530077
 30
0.0000000000000000
 41
2.000000000000000
 42
2.000000000000000
 43
2.000000000000000
 50
270.0000000000000
  0
INSERT
  5
BE
100
AcDbEntity
  8
MAIN0
  6
BYBLOCK
 62
0
100
AcDbBlockReference
  2
_OPEN
 10
124.0180539127372
 20
184.6546563530077
 30
0.0000000000000000
 41
2.000000000000000
 42
2.000000000000000
 43
2.000000000000000
 50
90.00000000000000
  0
LINE
  5
BF
100
AcDbEntity
  8
MAIN0
  6
BYBLOCK
 62
0
370
    -2
100
AcDbLine
 10
124.0180539127372
 20
184.6546563530077
 30
0.0000000000000000
 11
124.0180539127372
 21
196.8732518577684
 31
0.0000000000000000
  0
LINE
  5
C0
100
AcDbEntity
  8
MAIN0
  6
BYBLOCK
 62
0
370
    -2
100
AcDbLine
 10
129.7155315813877
 20
184.6546563530077
 30
0.0000000000000000
 11
122.0180539127372
 21
184.6546563530077
 31
0.0000000000000000
  0
MTEXT
  5
C1
100
AcDbEntity
  8
MAIN0
  6
BYBLOCK
 62
0
100
AcDbMText
 10
121.9680539604209
 20
191.3732520035237
 30
0.0000000000000000
 40
3.099999904632568
 41
0.0000000000000000
 44
0.7741935722041460
 71
     5
 72
     1
  1
\A1;\U+220513g7
 11
6.123233995736766e-017
 21
1.000000000000000
 31
0.0000000000000000
  7
STANDARD
  0
ENDBLK
  5
C2
100
AcDbEntity
  8
MAIN0
  6
CONTINUOUS
 62
3
100
AcDbBlockEnd
  0
BLOCK
  5
C4
100
AcDbEntity
  8
MAIN0
  6
CONTINUOUS
 62
3
100
AcDbBlockBegin
  2
*D6
 70
    65
 10
0.0
 20
0.0
 30
0.0
  0
LINE
  5
C5
100
AcDbEntity
  8
MAIN0
  6
BYBLOCK
 62
0
370
    -2
100
AcDbLine
 10
151.6155315933087
 20
164.5458413856331
 30
0.0000000000000000
 11
154.6155315933087
 21
164.5458413856331
 31
0.0000000000000000
  0
INSERT
  5
C6
100
AcDbEntity
  8
MAIN0
  6
BYBLOCK
 62
0
100
AcDbBlockReference
  2
_OPEN
 10
151.6155315933087
 20
164.5458413856331
 30
0.0000000000000000
 41
2.000000000000000
 42
2.000000000000000
 43
2.000000000000000
 50
0.0000000000000000
  0
INSERT
  5
C7
100
AcDbEntity
  8
MAIN0
  6
BYBLOCK
 62
0
100
AcDbBlockReference
  2
_OPEN
 10
154.6155315933087
 20
164.5458413856331
 30
0.0000000000000000
 41
2.000000000000000
 42
2.000000000000000
 43
2.000000000000000
 50
180.0000000000000
  0
LINE
  5
C8
100
AcDbEntity
  8
MAIN0
  6
BYBLOCK
 62
0
370
    -2
100
AcDbLine
 10
149.6155315933087
 20
164.5458413856331
 30
0.0000000000000000
 11
145.9180995521404
 21
164.5458413856331
 31
0.0000000000000000
  0
LINE
  5
C9
100
AcDbEntity
  8
MAIN0
  6
BYBLOCK
 62
0
370
    -2
100
AcDbLine
 10
156.6155315933087
 20
164.5458413856331
 30
0.0000000000000000
 11
157.6155315933087
 21
164.5458413856331
 31
0.0000000000000000
  0
MTEXT
  5
CA
100
AcDbEntity
  8
MAIN0
  6
BYBLOCK
 62
0
100
AcDbMText
 10
146.9680996888291
 20
166.5958413379494
 30
0.0000000000000000
 40
3.099999904632568
 41
0.0000000000000000
 44
0.7741935722041460
 71
     5
 72
     1
  1
\A1;3
 11
1.000000000000000
 21
0.0000000000000000
 31
0.0000000000000000
  7
STANDARD
  0
ENDBLK
  5
CB
100
AcDbEntity
  8
MAIN0
  6
CONTINUOUS
 62
3
100
AcDbBlockEnd
  0
BLOCK
  5
CD
100
AcDbEntity
  8
MAIN0
  6
CONTINUOUS
 62
3
100
AcDbBlockBegin
  2
*D7
 70
    65
 10
0.0
 20
0.0
 30
0.0
  0
LINE
  5
CE
100
AcDbEntity
  8
MAIN0
  6
BYBLOCK
 62
0
370
    -2
100
AcDbLine
 10
130.1155315933087
 20
185.0546563649286
 30
0.0000000000000000
 11
130.1155315933087
 21
232.3325408696534
 31
0.0000000000000000
  0
LINE
  5
CF
100
AcDbEntity
  8
MAIN0
  6
BYBLOCK
 62
0
370
    -2
100
AcDbLine
 10
132.1155315933087
 20
230.3325408696534
 30
0.0000000000000000
 11
173.6155315933087
 21
230.3325408696534
 31
0.0000000000000000
  0
INSERT
  5
D0
100
AcDbEntity
  8
MAIN0
  6
BYBLOCK
 62
0
100
AcDbBlockReference
  2
_OPEN
 10
130.1155315933087
 20
230.3325408696534
 30
0.0000000000000000
 41
2.000000000000000
 42
2.000000000000000
 43
2.000000000000000
 50
180.0000000000000
  0
INSERT
  5
D1
100
AcDbEntity
  8
MAIN0
  6
BYBLOCK
 62
0
100
AcDbBlockReference
  2
_OPEN
 10
175.6155315933087
 20
230.3325408696534
 30
0.0000000000000000
 41
2.000000000000000
 42
2.000000000000000
 43
2.000000000000000
 50
0.0000000000000000
  0
LINE
  5
D2
100
AcDbEntity
  8
MAIN0
  6
BYBLOCK
 62
0
370
    -2
100
AcDbLine
 10
175.6155315933087
 20
208.5546563649286
 30
0.0000000000000000
 11
175.6155315933087
 21
232.3325408696534
 31
0.0000000000000000
  0
MTEXT
  5
D3
100
AcDbEntity
  8
MAIN0
  6
BYBLOCK
 62
0
100
AcDbMText
 10
152.8655315933087
 20
232.3825408219697
 30
0.0000000000000000
 40
3.099999904632568
 41
0.0000000000000000
 44
0.7741935722041460
 71
     5
 72
     1
  1
\A1;（45.5）
 11
1.000000000000000
 21
0.0000000000000000
 31
0.0000000000000000
  7
KNJYOKO
  0
ENDBLK
  5
D4
100
AcDbEntity
  8
MAIN0
  6
CONTINUOUS
 62
3
100
AcDbBlockEnd
  0
BLOCK
  5
D7
100
AcDbEntity
  8
MAIN0
  6
CONTINUOUS
 62
3
100
AcDbBlockBegin
  2
*D8
 70
    65
 10
0.0
 20
0.0
 30
0.0
  0
LINE
  5
D8
100
AcDbEntity
  8
MAIN0
  6
BYBLOCK
 62
0
370
    -2
100
AcDbLine
 10
62.59364399425652
 20
158.3546563410867
 30
0.0000000000000000
 11
62.59364399425652
 21
123.5630417715819
 31
0.0000000000000000
  0
LINE
  5
D9
100
AcDbEntity
  8
MAIN0
  6
BYBLOCK
 62
0
370
    -2
100
AcDbLine
 10
64.59364399425652
 20
125.5630417715819
 30
0.0000000000000000
 11
100.5936439942565
 21
125.5630417715819
 31
0.0000000000000000
  0
INSERT
  5
DA
100
AcDbEntity
  8
MAIN0
  6
BYBLOCK
 62
0
100
AcDbBlockReference
  2
_OPEN
 10
62.59364399425652
 20
125.5630417715819
 30
0.0000000000000000
 41
2.000000000000000
 42
2.000000000000000
 43
2.000000000000000
 50
180.0000000000000
  0
INSERT
  5
DB
100
AcDbEntity
  8
MAIN0
  6
BYBLOCK
 62
0
100
AcDbBlockReference
  2
_OPEN
 10
102.5936439942565
 20
125.5630417715819
 30
0.0000000000000000
 41
2.000000000000000
 42
2.000000000000000
 43
2.000000000000000
 50
0.0000000000000000
  0
LINE
  5
DC
100
AcDbEntity
  8
MAIN0
  6
BYBLOCK
 62
0
370
    -2
100
AcDbLine
 10
102.5936439942565
 20
158.3546563410868
 30
0.0000000000000000
 11
102.5936439942565
 21
123.5630417715819
 31
0.0000000000000000
  0
MTEXT
  5
DD
100
AcDbEntity
  8
MAIN0
  6
BYBLOCK
 62
0
100
AcDbMText
 10
82.59364399425650
 20
127.6130417238982
 30
0.0000000000000000
 40
3.099999904632568
 41
0.0000000000000000
 44
0.7741935722041460
 71
     5
 72
     1
  1
\A1;40
 11
1.000000000000000
 21
0.0000000000000000
 31
0.0000000000000000
  7
STANDARD
  0
ENDBLK
  5
DE
100
AcDbEntity
  8
MAIN0
  6
CONTINUOUS
 62
3
100
AcDbBlockEnd
  0
BLOCK
  5
E0
100
AcDbEntity
  8
MAIN0
  6
CONTINUOUS
 62
3
100
AcDbBlockBegin
  2
*D9
 70
    65
 10
0.0
 20
0.0
 30
0.0
  0
LINE
  5
E1
100
AcDbEntity
  8
MAIN0
  6
BYBLOCK
 62
0
370
    -2
100
AcDbLine
 10
62.79364398233560
 20
158.1546563530077
 30
0.0000000000000000
 11
37.49832720910430
 21
158.1546563530077
 31
0.0000000000000000
  0
LINE
  5
E2
100
AcDbEntity
  8
MAIN0
  6
BYBLOCK
 62
0
370
    -2
100
AcDbLine
 10
39.49832720910430
 20
160.1546563530077
 30
0.0000000000000000
 11
39.49832720910430
 21
196.1546563530077
 31
0.0000000000000000
  0
INSERT
  5
E3
100
AcDbEntity
  8
MAIN0
  6
BYBLOCK
 62
0
100
AcDbBlockReference
  2
_OPEN
 10
39.49832720910430
 20
158.1546563530077
 30
0.0000000000000000
 41
2.000000000000000
 42
2.000000000000000
 43
2.000000000000000
 50
270.0000000000000
  0
INSERT
  5
E4
100
AcDbEntity
  8
MAIN0
  6
BYBLOCK
 62
0
100
AcDbBlockReference
  2
_OPEN
 10
39.49832720910430
 20
198.1546563530077
 30
0.0000000000000000
 41
2.000000000000000
 42
2.000000000000000
 43
2.000000000000000
 50
90.00000000000000
  0
LINE
  5
E5
100
AcDbEntity
  8
MAIN0
  6
BYBLOCK
 62
0
370
    -2
100
AcDbLine
 10
62.79364398233560
 20
198.1546563530077
 30
0.0000000000000000
 11
37.49832720910430
 21
198.1546563530077
 31
0.0000000000000000
  0
MTEXT
  5
E6
100
AcDbEntity
  8
MAIN0
  6
BYBLOCK
 62
0
100
AcDbMText
 10
37.44832725678802
 20
178.1546563530077
 30
0.0000000000000000
 40
3.099999904632568
 41
0.0000000000000000
 44
0.7741935722041460
 71
     5
 72
     1
  1
\A1;40
 11
6.123233995736766e-017
 21
1.000000000000000
 31
0.0000000000000000
  7
STANDARD
  0
ENDBLK
  5
E7
100
AcDbEntity
  8
MAIN0
  6
CONTINUOUS
 62
3
100
AcDbBlockEnd
  0
BLOCK
  5
E9
100
AcDbEntity
  8
MAIN0
  6
CONTINUOUS
 62
3
100
AcDbBlockBegin
  2
*D10
 70
    65
 10
0.0
 20
0.0
 30
0.0
  0
LINE
  5
EA
100
AcDbEntity
  8
MAIN0
  6
BYBLOCK
 62
0
370
    -2
100
AcDbLine
 10
80.09364399425650
 20
164.8546563410867
 30
0.0000000000000000
 11
80.09364399425650
 21
131.0618789496391
 31
0.0000000000000000
  0
LINE
  5
EB
100
AcDbEntity
  8
MAIN0
  6
BYBLOCK
 62
0
370
    -2
100
AcDbLine
 10
80.09364399425650
 20
133.0618789496391
 30
0.0000000000000000
 11
85.09364399425650
 21
133.0618789496391
 31
0.0000000000000000
  0
INSERT
  5
EC
100
AcDbEntity
  8
MAIN0
  6
BYBLOCK
 62
0
100
AcDbBlockReference
  2
_OPEN
 10
80.09364399425650
 20
133.0618789496391
 30
0.0000000000000000
 41
2.000000000000000
 42
2.000000000000000
 43
2.000000000000000
 50
0.0000000000000000
  0
INSERT
  5
ED
100
AcDbEntity
  8
MAIN0
  6
BYBLOCK
 62
0
100
AcDbBlockReference
  2
_OPEN
 10
85.09364399425650
 20
133.0618789496391
 30
0.0000000000000000
 41
2.000000000000000
 42
2.000000000000000
 43
2.000000000000000
 50
180.0000000000000
  0
LINE
  5
EE
100
AcDbEntity
  8
MAIN0
  6
BYBLOCK
 62
0
370
    -2
100
AcDbLine
 10
78.09364399425650
 20
133.0618789496391
 30
0.0000000000000000
 11
77.09364399425650
 21
133.0618789496391
 31
0.0000000000000000
  0
LINE
  5
EF
100
AcDbEntity
  8
MAIN0
  6
BYBLOCK
 62
0
370
    -2
100
AcDbLine
 10
87.09364399425650
 20
133.0618789496391
 30
0.0000000000000000
 11
95.68442329876089
 21
133.0618789496391
 31
0.0000000000000000
  0
LINE
  5
F0
100
AcDbEntity
  8
MAIN0
  6
BYBLOCK
 62
0
370
    -2
100
AcDbLine
 10
85.09364399425650
 20
164.8546563410867
 30
0.0000000000000000
 11
85.09364399425650
 21
131.0618789496391
 31
0.0000000000000000
  0
MTEXT
  5
F1
100
AcDbEntity
  8
MAIN0
  6
BYBLOCK
 62
0
100
AcDbMText
 10
92.53442370802571
 20
135.1118789019554
 30
0.0000000000000000
 40
3.099999904632568
 41
0.0000000000000000
 44
0.7741935722041460
 71
     5
 72
     1
  1
\A1;4-5
 11
1.000000000000000
 21
0.0000000000000000
 31
0.0000000000000000
  7
STANDARD
  0
ENDBLK
  5
F2
100
AcDbEntity
  8
MAIN0
  6
CONTINUOUS
 62
3
100
AcDbBlockEnd
  0
BLOCK
  5
F4
100
AcDbEntity
  8
MAIN0
  6
CONTINUOUS
 62
3
100
AcDbBlockBegin
  2
*D11
 70
    65
 10
0.0
 20
0.0
 30
0.0
  0
LINE
  5
F5
100
AcDbEntity
  8
MAIN0
  6
BYBLOCK
 62
0
370
    -2
100
AcDbLine
 10
176.0155316052296
 20
148.1546563530077
 30
0.0000000000000000
 11
190.7564962017112
 21
148.1546563530077
 31
0.0000000000000000
  0
LINE
  5
F6
100
AcDbEntity
  8
MAIN0
  6
BYBLOCK
 62
0
370
    -2
100
AcDbLine
 10
188.7564962017112
 20
150.1546563530077
 30
0.0000000000000000
 11
188.7564962017112
 21
206.1546563530077
 31
0.0000000000000000
  0
INSERT
  5
F7
100
AcDbEntity
  8
MAIN0
  6
BYBLOCK
 62
0
100
AcDbBlockReference
  2
_OPEN
 10
188.7564962017112
 20
148.1546563530077
 30
0.0000000000000000
 41
2.000000000000000
 42
2.000000000000000
 43
2.000000000000000
 50
270.0000000000000
  0
INSERT
  5
F8
100
AcDbEntity
  8
MAIN0
  6
BYBLOCK
 62
0
100
AcDbBlockReference
  2
_OPEN
 10
188.7564962017112
 20
208.1546563530077
 30
0.0000000000000000
 41
2.000000000000000
 42
2.000000000000000
 43
2.000000000000000
 50
90.00000000000000
  0
LINE
  5
F9
100
AcDbEntity
  8
MAIN0
  6
BYBLOCK
 62
0
370
    -2
100
AcDbLine
 10
176.0155316052296
 20
208.1546563530077
 30
0.0000000000000000
 11
190.7564962017112
 21
208.1546563530077
 31
0.0000000000000000
  0
MTEXT
  5
FA
100
AcDbEntity
  8
MAIN0
  6
BYBLOCK
 62
0
100
AcDbMText
 10
186.7064962493949
 20
178.1546563530077
 30
0.0000000000000000
 40
3.099999904632568
 41
0.0000000000000000
 44
0.7741935722041460
 71
     5
 72
     1
  1
\A1;\U+220560
 11
6.123233995736766e-017
 21
1.000000000000000
 31
0.0000000000000000
  7
STANDARD
  0
ENDBLK
  5
FB
100
AcDbEntity
  8
MAIN0
  6
CONTINUOUS
 62
3
100
AcDbBlockEnd
  0
BLOCK
  5
101
100
AcDbEntity
  8
MAIN0
  6
CONTINUOUS
 62
3
100
AcDbBlockBegin
  2
*D12
 70
    65
 10
0.0
 20
0.0
 30
0.0
  0
LINE
  5
102
100
AcDbEntity
  8
MAIN0
  6
BYBLOCK
 62
0
370
    -2
100
AcDbLine
 10
48.51990317311558
 20
178.1546563530077
 30
0.0000000000000000
 11
46.84251356561444
 21
178.1546563530077
 31
0.0000000000000000
  0
LINE
  5
103
100
AcDbEntity
  8
MAIN0
  6
BYBLOCK
 62
0
370
    -2
100
AcDbLine
 10
48.84251356561444
 20
176.1546563530077
 30
0.0000000000000000
 11
48.84251356561444
 21
168.6546563530077
 31
0.0000000000000000
  0
INSERT
  5
104
100
AcDbEntity
  8
MAIN0
  6
BYBLOCK
 62
0
100
AcDbBlockReference
  2
_OPEN
 10
48.84251356561444
 20
178.1546563530077
 30
0.0000000000000000
 41
2.000000000000000
 42
2.000000000000000
 43
2.000000000000000
 50
90.00000000000000
  0
INSERT
  5
105
100
AcDbEntity
  8
MAIN0
  6
BYBLOCK
 62
0
100
AcDbBlockReference
  2
_OPEN
 10
48.84251356561444
 20
166.6546563530077
 30
0.0000000000000000
 41
2.000000000000000
 42
2.000000000000000
 43
2.000000000000000
 50
270.0000000000000
  0
LINE
  5
106
100
AcDbEntity
  8
MAIN0
  6
BYBLOCK
 62
0
370
    -2
100
AcDbLine
 10
77.03615351131937
 20
166.6546563530077
 30
0.0000000000000000
 11
46.84251356561444
 21
166.6546563530077
 31
0.0000000000000000
  0
MTEXT
  5
107
100
AcDbEntity
  8
MAIN0
  6
BYBLOCK
 62
0
100
AcDbMText
 10
46.79251361329816
 20
172.4046563530077
 30
0.0000000000000000
 40
3.099999904632568
 41
0.0000000000000000
 44
0.7741935722041460
 71
     5
 72
     1
  1
\A1;11.5
 11
6.123233995736766e-017
 21
1.000000000000000
 31
0.0000000000000000
  7
STANDARD
  0
ENDBLK
  5
108
100
AcDbEntity
  8
MAIN0
  6
CONTINUOUS
 62
3
100
AcDbBlockEnd
  0
BLOCK
  5
10A
100
AcDbEntity
  8
MAIN0
  6
CONTINUOUS
 62
3
100
AcDbBlockBegin
  2
*D13
 70
    65
 10
0.0
 20
0.0
 30
0.0
  0
LINE
  5
10B
100
AcDbEntity
  8
MAIN0
  6
BYBLOCK
 62
0
370
    -2
100
AcDbLine
 10
77.03615351131937
 20
166.6546563530077
 30
0.0000000000000000
 11
46.84251356561444
 21
166.6546563530077
 31
0.0000000000000000
  0
LINE
  5
10C
100
AcDbEntity
  8
MAIN0
  6
BYBLOCK
 62
0
370
    -2
100
AcDbLine
 10
48.84251356561444
 20
166.6546563530077
 30
0.0000000000000000
 11
48.84251356561444
 21
165.6546563530077
 31
0.0000000000000000
  0
INSERT
  5
10D
100
AcDbEntity
  8
MAIN0
  6
BYBLOCK
 62
0
100
AcDbBlockReference
  2
_OPEN
 10
48.84251356561444
 20
166.6546563530077
 30
0.0000000000000000
 41
2.000000000000000
 42
2.000000000000000
 43
2.000000000000000
 50
270.0000000000000
  0
INSERT
  5
10E
100
AcDbEntity
  8
MAIN0
  6
BYBLOCK
 62
0
100
AcDbBlockReference
  2
_OPEN
 10
48.84251356561444
 20
165.6546563530077
 30
0.0000000000000000
 41
2.000000000000000
 42
2.000000000000000
 43
2.000000000000000
 50
90.00000000000000
  0
LINE
  5
10F
100
AcDbEntity
  8
MAIN0
  6
BYBLOCK
 62
0
370
    -2
100
AcDbLine
 10
48.84251356561444
 20
168.6546563530077
 30
0.0000000000000000
 11
48.84251356561444
 21
169.6546563530077
 31
0.0000000000000000
  0
LINE
  5
110
100
AcDbEntity
  8
MAIN0
  6
BYBLOCK
 62
0
370
    -2
100
AcDbLine
 10
48.84251356561444
 20
163.6546563530077
 30
0.0000000000000000
 11
48.84251356561444
 21
159.7496418380846
 31
0.0000000000000000
  0
LINE
  5
111
100
AcDbEntity
  8
MAIN0
  6
BYBLOCK
 62
0
370
    -2
100
AcDbLine
 10
77.03615351131937
 20
165.6546563530077
 30
0.0000000000000000
 11
46.84251356561444
 21
165.6546563530077
 31
0.0000000000000000
  0
MTEXT
  5
112
100
AcDbEntity
  8
MAIN0
  6
BYBLOCK
 62
0
100
AcDbMText
 10
46.79251361329816
 20
160.7996416571137
 30
0.0000000000000000
 40
3.099999904632568
 41
0.0000000000000000
 44
0.7741935722041460
 71
     5
 72
     1
  1
\A1;1
 11
6.123233995736766e-017
 21
1.000000000000000
 31
0.0000000000000000
  7
STANDARD
  0
ENDBLK
  5
113
100
AcDbEntity
  8
MAIN0
  6
CONTINUOUS
 62
3
100
AcDbBlockEnd
  0
BLOCK
  5
116
100
AcDbEntity
  8
MAIN0
  6
BYBLOCK
 62
2
100
AcDbBlockBegin
  2
M0
 70
    64
 10
0.0
 20
0.0
 30
0.0
  0
LINE
  5
117
100
AcDbEntity
  8
MAIN0
  6
BYBLOCK
 62
0
370
    -2
100
AcDbLine
 10
82.59364399425650
 20
139.6066813934566
 30
0.0000000000000000
 11
82.59364399425650
 21
143.6066813934566
 31
0.0000000000000000
  0
LINE
  5
118
100
AcDbEntity
  8
MAIN0
  6
BYBLOCK
 62
0
370
    -2
100
AcDbLine
 10
82.59364399425648
 20
141.6066813934566
 30
0.0000000000000000
 11
90.59364399425647
 21
141.6066813934566
 31
0.0000000000000000
  0
LINE
  5
119
100
AcDbEntity
  8
MAIN0
  6
BYBLOCK
 62
0
370
    -2
100
AcDbLine
 10
82.59364399425655
 20
141.6066813934566
 30
0.0000000000000000
 11
85.81339674855346
 21
140.7439512431149
 31
0.0000000000000000
  0
LINE
  5
11A
100
AcDbEntity
  8
MAIN0
  6
BYBLOCK
 62
0
370
    -2
100
AcDbLine
 10
82.59364399425644
 20
141.6066813934567
 30
0.0000000000000000
 11
85.81339674855335
 21
142.4694115437984
 31
0.0000000000000000
  0
ENDBLK
  5
11B
100
AcDbEntity
  8
MAIN0
  6
BYBLOCK
 62
2
100
AcDbBlockEnd
  0
BLOCK
  5
11E
100
AcDbEntity
  8
MAIN0
  6
BYBLOCK
 62
2
100
AcDbBlockBegin
  2
M1
 70
    64
 10
0.0
 20
0.0
 30
0.0
  0
LINE
  5
11F
100
AcDbEntity
  8
MAIN0
  6
BYBLOCK
 62
0
370
    -2
100
AcDbLine
 10
82.59364399425654
 20
211.4389184429946
 30
0.0000000000000000
 11
82.59364399425654
 21
215.4389184429946
 31
0.0000000000000000
  0
LINE
  5
120
100
AcDbEntity
  8
MAIN0
  6
BYBLOCK
 62
0
370
    -2
100
AcDbLine
 10
82.59364399425652
 20
213.4389184429946
 30
0.0000000000000000
 11
90.59364399425651
 21
213.4389184429946
 31
0.0000000000000000
  0
LINE
  5
121
100
AcDbEntity
  8
MAIN0
  6
BYBLOCK
 62
0
370
    -2
100
AcDbLine
 10
82.59364399425661
 20
213.4389184429946
 30
0.0000000000000000
 11
85.81339674855352
 21
212.5761882926529
 31
0.0000000000000000
  0
LINE
  5
122
100
AcDbEntity
  8
MAIN0
  6
BYBLOCK
 62
0
370
    -2
100
AcDbLine
 10
82.59364399425648
 20
213.4389184429947
 30
0.0000000000000000
 11
85.81339674855337
 21
214.3016485933364
 31
0.0000000000000000
  0
ENDBLK
  5
123
100
AcDbEntity
  8
MAIN0
  6
BYBLOCK
 62
2
100
AcDbBlockEnd
  0
BLOCK
  5
125
100
AcDbEntity
  8
MAIN0
  6
CONTINUOUS
 62
3
100
AcDbBlockBegin
  2
*D14
 70
    65
 10
0.0
 20
0.0
 30
0.0
  0
LINE
  5
126
100
AcDbEntity
  8
MAIN0
  6
BYBLOCK
 62
0
370
    -2
100
AcDbLine
 10
147.4312170266873
 20
185.2203417863863
 30
0.0000000000000000
 11
157.8551577634882
 21
195.6442825231872
 31
0.0000000000000000
  0
LINE
  5
127
100
AcDbEntity
  8
MAIN0
  6
BYBLOCK
 62
0
370
    -2
100
AcDbLine
 10
142.7998461599300
 20
185.2203417863863
 30
0.0000000000000000
 11
132.3759054231291
 21
195.6442825231872
 31
0.0000000000000000
  0
ARC
  5
128
100
AcDbEntity
  8
MAIN0
  6
BYBLOCK
 62
0
370
    -2
100
AcDbCircle
 10
145.1155315933087
 20
182.9046563530077
 30
0.0000000000000000
 40
16.01655210943114
100
AcDbArc
 50
52.15457098651650
 51
127.8454290134837
  0
INSERT
  5
129
100
AcDbEntity
  8
MAIN0
  6
BYBLOCK
 62
0
100
AcDbBlockReference
  2
_OPEN
 10
156.4409442011151
 20
194.2300689608141
 30
0.0000000000000000
 41
2.000000000000000
 42
2.000000000000000
 43
2.000000000000000
 50
315.0000000000001
  0
INSERT
  5
12A
100
AcDbEntity
  8
MAIN0
  6
BYBLOCK
 62
0
100
AcDbBlockReference
  2
_OPEN
 10
133.7901189855022
 20
194.2300689608141
 30
0.0000000000000000
 41
2.000000000000000
 42
2.000000000000000
 43
2.000000000000000
 50
225.0000000000001
  0
MTEXT
  5
12B
100
AcDbEntity
  8
MAIN0
  6
BYBLOCK
 62
0
100
AcDbMText
 10
138.0071588000751
 20
199.5140314054365
 30
0.0000000000000000
 40
3.099999904632568
 41
0.0000000000000000
 44
0.7741935722041460
 71
     5
 72
     1
  1
\A1;90\U+00B0
 11
0.9193439343413042
 21
0.3934548644887386
 31
0.0000000000000000
  7
STANDARD
  0
ENDBLK
  5
12C
100
AcDbEntity
  8
MAIN0
  6
CONTINUOUS
 62
3
100
AcDbBlockEnd
  0
BLOCK
  5
173
100
AcDbEntity
  8
WAKU0
  6
BYBLOCK
 62
2
100
AcDbBlockBegin
  2
M2
 70
    64
 10
0.0
 20
0.0
 30
0.0
  0
LINE
  5
174
100
AcDbEntity
  8
WAKU0
  6
BYBLOCK
 62
0
370
    -2
100
AcDbLine
 10
20.00000000000003
 20
12.00000000000001
 30
0.0000000000000000
 11
200.0000000000000
 21
12.00000000000000
 31
0.0000000000000000
  0
LINE
  5
175
100
AcDbEntity
  8
WAKU0
  6
BYBLOCK
 62
0
370
    -2
100
AcDbLine
 10
20.00000000000011
 20
286.9999999999964
 30
0.0000000000000000
 11
200.0000000000000
 21
286.9999999999964
 31
0.0000000000000000
  0
LINE
  5
176
100
AcDbEntity
  8
WAKU0
  6
BYBLOCK
 62
0
370
    -2
100
AcDbLine
 10
20.00000000000003
 20
12.00000000000001
 30
0.0000000000000000
 11
20.00000000000011
 21
286.9999999999964
 31
0.0000000000000000
  0
LINE
  5
177
100
AcDbEntity
  8
WAKU0
  6
BYBLOCK
 62
0
370
    -2
100
AcDbLine
 10
200.0000000000000
 20
12.00000000000000
 30
0.0000000000000000
 11
200.0000000000000
 21
286.9999999999964
 31
0.0000000000000000
  0
LINE
  5
178
100
AcDbEntity
  8
WAKU0
  6
BYBLOCK
 62
0
370
    -2
100
AcDbLine
 10
5.684341886080802e-014
 20
148.5000000000000
 30
0.0000000000000000
 11
20.00000000000011
 21
148.4999999999999
 31
0.0000000000000000
  0
LINE
  5
179
100
AcDbEntity
  8
WAKU0
  6
BYBLOCK
 62
0
370
    -2
100
AcDbLine
 10
200.0000000000000
 20
148.4999999999999
 30
0.0000000000000000
 11
210.0000000000000
 21
148.4999999999998
 31
0.0000000000000000
  0
LINE
  5
17A
100
AcDbEntity
  8
WAKU0
  6
BYBLOCK
 62
0
370
    -2
100
AcDbLine
 10
105.0000000000000
 20
-1.776356839400251e-015
 30
0.0000000000000000
 11
105.0000000000000
 21
12.00000000000002
 31
0.0000000000000000
  0
LINE
  5
17B
100
AcDbEntity
  8
WAKU0
  6
BYBLOCK
 62
0
370
    -2
100
AcDbLine
 10
105.0000000000002
 20
286.9999999999966
 30
0.0000000000000000
 11
105.0000000000002
 21
296.9999999999966
 31
0.0000000000000000
  0
LINE
  5
17C
100
AcDbEntity
  8
WAKU0
  6
BYBLOCK
 62
0
370
    -2
100
AcDbLine
 10
15.00000000000009
 20
198.4999999999999
 30
0.0000000000000000
 11
15.00000000000006
 21
98.49999999999994
 31
0.0000000000000000
  0
LINE
  5
17D
100
AcDbEntity
  8
WAKU0
  6
BYBLOCK
 62
0
370
    -2
100
AcDbLine
 10
15.00000000000006
 20
158.5000000000000
 30
0.0000000000000000
 11
18.00000000000006
 21
158.5000000000000
 31
0.0000000000000000
  0
LINE
  5
17E
100
AcDbEntity
  8
WAKU0
  6
BYBLOCK
 62
0
370
    -2
100
AcDbLine
 10
15.00000000000009
 20
168.5000000000000
 30
0.0000000000000000
 11
18.00000000000009
 21
168.5000000000000
 31
0.0000000000000000
  0
LINE
  5
17F
100
AcDbEntity
  8
WAKU0
  6
BYBLOCK
 62
0
370
    -2
100
AcDbLine
 10
15.00000000000009
 20
178.5000000000000
 30
0.0000000000000000
 11
18.00000000000009
 21
178.5000000000000
 31
0.0000000000000000
  0
LINE
  5
180
100
AcDbEntity
  8
WAKU0
  6
BYBLOCK
 62
0
370
    -2
100
AcDbLine
 10
15.00000000000006
 20
188.5000000000000
 30
0.0000000000000000
 11
18.00000000000006
 21
188.5000000000000
 31
0.0000000000000000
  0
LINE
  5
181
100
AcDbEntity
  8
WAKU0
  6
BYBLOCK
 62
0
370
    -2
100
AcDbLine
 10
15.00000000000006
 20
198.5000000000000
 30
0.0000000000000000
 11
20.00000000000006
 21
198.5000000000000
 31
0.0000000000000000
  0
LINE
  5
182
100
AcDbEntity
  8
WAKU0
  6
BYBLOCK
 62
0
370
    -2
100
AcDbLine
 10
15.00000000000006
 20
138.4999999999999
 30
0.0000000000000000
 11
18.00000000000006
 21
138.4999999999999
 31
0.0000000000000000
  0
LINE
  5
183
100
AcDbEntity
  8
WAKU0
  6
BYBLOCK
 62
0
370
    -2
100
AcDbLine
 10
15.00000000000009
 20
128.4999999999999
 30
0.0000000000000000
 11
18.00000000000009
 21
128.4999999999999
 31
0.0000000000000000
  0
LINE
  5
184
100
AcDbEntity
  8
WAKU0
  6
BYBLOCK
 62
0
370
    -2
100
AcDbLine
 10
15.00000000000006
 20
118.4999999999999
 30
0.0000000000000000
 11
18.00000000000006
 21
118.4999999999999
 31
0.0000000000000000
  0
LINE
  5
185
100
AcDbEntity
  8
WAKU0
  6
BYBLOCK
 62
0
370
    -2
100
AcDbLine
 10
15.00000000000006
 20
108.4999999999999
 30
0.0000000000000000
 11
18.00000000000006
 21
108.4999999999999
 31
0.0000000000000000
  0
LINE
  5
186
100
AcDbEntity
  8
WAKU0
  6
BYBLOCK
 62
0
370
    -2
100
AcDbLine
 10
15.00000000000006
 20
98.49999999999994
 30
0.0000000000000000
 11
20.00000000000000
 21
98.49999999999994
 31
0.0000000000000000
  0
LINE
  5
187
100
AcDbEntity
  8
WAKU0
  6
BYBLOCK
 62
0
370
    -2
100
AcDbLine
 10
55.00000000000014
 20
290.9999999999967
 30
0.0000000000000000
 11
55.00000000000014
 21
286.9999999999967
 31
0.0000000000000000
  0
LINE
  5
188
100
AcDbEntity
  8
WAKU0
  6
BYBLOCK
 62
0
370
    -2
100
AcDbLine
 10
155.0000000000001
 20
290.9999999999964
 30
0.0000000000000000
 11
155.0000000000001
 21
286.9999999999964
 31
0.0000000000000000
  0
LINE
  5
189
100
AcDbEntity
  8
WAKU0
  6
BYBLOCK
 62
0
370
    -2
100
AcDbLine
 10
155.0000000000001
 20
12.00000000000005
 30
0.0000000000000000
 11
155.0000000000001
 21
8.000000000000043
 31
0.0000000000000000
  0
LINE
  5
18A
100
AcDbEntity
  8
WAKU0
  6
BYBLOCK
 62
0
370
    -2
100
AcDbLine
 10
55.00000000000003
 20
12.00000000000005
 30
0.0000000000000000
 11
55.00000000000003
 21
8.000000000000036
 31
0.0000000000000000
  0
LINE
  5
18B
100
AcDbEntity
  8
WAKU0
  6
BYBLOCK
 62
0
370
    -2
100
AcDbLine
 10
200.0000000000000
 20
48.49999999999989
 30
0.0000000000000000
 11
204.0000000000000
 21
48.49999999999989
 31
0.0000000000000000
  0
LINE
  5
18C
100
AcDbEntity
  8
WAKU0
  6
BYBLOCK
 62
0
370
    -2
100
AcDbLine
 10
200.0000000000000
 20
98.49999999999994
 30
0.0000000000000000
 11
204.0000000000000
 21
98.49999999999994
 31
0.0000000000000000
  0
LINE
  5
18D
100
AcDbEntity
  8
WAKU0
  6
BYBLOCK
 62
0
370
    -2
100
AcDbLine
 10
200.0000000000000
 20
198.5000000000000
 30
0.0000000000000000
 11
204.0000000000000
 21
198.5000000000000
 31
0.0000000000000000
  0
LINE
  5
18E
100
AcDbEntity
  8
WAKU0
  6
BYBLOCK
 62
0
370
    -2
100
AcDbLine
 10
200.0000000000000
 20
248.4999999999999
 30
0.0000000000000000
 11
204.0000000000000
 21
248.4999999999999
 31
0.0000000000000000
  0
LINE
  5
18F
100
AcDbEntity
  8
WAKU0
  6
BYBLOCK
 62
0
370
    -2
100
AcDbLine
 10
16.00000000000003
 20
48.64719414747356
 30
0.0000000000000000
 11
20.00000000000003
 21
48.64719414747356
 31
0.0000000000000000
  0
LINE
  5
190
100
AcDbEntity
  8
WAKU0
  6
BYBLOCK
 62
0
370
    -2
100
AcDbLine
 10
20.00000000000009
 20
248.5751737895411
 30
0.0000000000000000
 11
16.00000000000011
 21
248.5751737895411
 31
0.0000000000000000
  0
LINE
  5
191
100
AcDbEntity
  8
WAKU0
  6
BYBLOCK
 62
0
370
    -2
100
AcDbLine
 10
208.0000000000001
 20
1.999999997774465
 30
0.0000000000000000
 11
208.0000000000001
 21
6.999999999999984
 31
0.0000000000000000
  0
LINE
  5
192
100
AcDbEntity
  8
WAKU0
  6
BYBLOCK
 62
0
370
    -2
100
AcDbLine
 10
208.0000000000001
 20
289.9999999999964
 30
0.0000000000000000
 11
208.0000000000001
 21
294.9999999999964
 31
0.0000000000000000
  0
LINE
  5
193
100
AcDbEntity
  8
WAKU0
  6
BYBLOCK
 62
0
370
    -2
100
AcDbLine
 10
2.000000000000028
 20
2.000000000000025
 30
0.0000000000000000
 11
2.000000000000028
 21
7.000000000000007
 31
0.0000000000000000
  0
LINE
  5
194
100
AcDbEntity
  8
WAKU0
  6
BYBLOCK
 62
0
370
    -2
100
AcDbLine
 10
2.000000000000142
 20
289.9999999999965
 30
0.0000000000000000
 11
2.000000000000142
 21
294.9999999999965
 31
0.0000000000000000
  0
LINE
  5
195
100
AcDbEntity
  8
WAKU0
  6
BYBLOCK
 62
0
370
    -2
100
AcDbLine
 10
2.000000000000028
 20
2.000000000000027
 30
0.0000000000000000
 11
7.000000000000028
 21
2.000000000000025
 31
0.0000000000000000
  0
LINE
  5
196
100
AcDbEntity
  8
WAKU0
  6
BYBLOCK
 62
0
370
    -2
100
AcDbLine
 10
203.0000000000000
 20
2.000000000000002
 30
0.0000000000000000
 11
208.0000000000001
 21
2.000000000000002
 31
0.0000000000000000
  0
LINE
  5
197
100
AcDbEntity
  8
WAKU0
  6
BYBLOCK
 62
0
370
    -2
100
AcDbLine
 10
2.000000000000114
 20
294.9999999999986
 30
0.0000000000000000
 11
7.000000000000114
 21
294.9999999999986
 31
0.0000000000000000
  0
LINE
  5
198
100
AcDbEntity
  8
WAKU0
  6
BYBLOCK
 62
0
370
    -2
100
AcDbLine
 10
203.0000000000001
 20
294.9999999999964
 30
0.0000000000000000
 11
208.0000000000001
 21
294.9999999999965
 31
0.0000000000000000
  0
MTEXT
  5
199
100
AcDbEntity
  8
WAKU0
  6
BYBLOCK
 62
0
370
    -2
100
AcDbMText
 10
38.00000000000011
 20
292.6000003814661
 30
0.0000000000000000
 40
3.100000381469727
 41
0.0000000000000000
 44
0.6719999870792528
 71
     1
 72
     1
  1
{\H0.81x;1}
 11
1.000000000000000
 21
0.0000000000000000
 31
0.0000000000000000
  7
STANDARD
  0
MTEXT
  5
19A
100
AcDbEntity
  8
WAKU0
  6
BYBLOCK
 62
0
370
    -2
100
AcDbMText
 10
78.00000000000011
 20
292.6000003814661
 30
0.0000000000000000
 40
3.100000381469727
 41
0.0000000000000000
 44
0.6719999870792528
 71
     1
 72
     1
  1
{\H0.81x;2}
 11
1.000000000000000
 21
0.0000000000000000
 31
0.0000000000000000
  7
STANDARD
  0
MTEXT
  5
19B
100
AcDbEntity
  8
WAKU0
  6
BYBLOCK
 62
0
370
    -2
100
AcDbMText
 10
132.0000000000002
 20
292.6000003814661
 30
0.0000000000000000
 40
3.100000381469727
 41
0.0000000000000000
 44
0.6719999870792528
 71
     1
 72
     1
  1
{\H0.81x;3}
 11
1.000000000000000
 21
0.0000000000000000
 31
0.0000000000000000
  7
STANDARD
  0
MTEXT
  5
19C
100
AcDbEntity
  8
WAKU0
  6
BYBLOCK
 62
0
370
    -2
100
AcDbMText
 10
177.0000000000002
 20
292.6000003814661
 30
0.0000000000000000
 40
3.100000381469727
 41
0.0000000000000000
 44
0.6719999870792528
 71
     1
 72
     1
  1
{\H0.81x;4}
 11
1.000000000000000
 21
0.0000000000000000
 31
0.0000000000000000
  7
STANDARD
  0
MTEXT
  5
19D
100
AcDbEntity
  8
WAKU0
  6
BYBLOCK
 62
0
370
    -2
100
AcDbMText
 10
38.00000000000003
 20
11.10000038146978
 30
0.0000000000000000
 40
3.100000381469727
 41
0.0000000000000000
 44
0.6719999870792528
 71
     1
 72
     1
  1
{\H0.81x;1}
 11
1.000000000000000
 21
0.0000000000000000
 31
0.0000000000000000
  7
STANDARD
  0
MTEXT
  5
19E
100
AcDbEntity
  8
WAKU0
  6
BYBLOCK
 62
0
370
    -2
100
AcDbMText
 10
78.00000000000006
 20
11.10000038146978
 30
0.0000000000000000
 40
3.100000381469727
 41
0.0000000000000000
 44
0.6719999870792528
 71
     1
 72
     1
  1
{\H0.81x;2}
 11
1.000000000000000
 21
0.0000000000000000
 31
0.0000000000000000
  7
STANDARD
  0
MTEXT
  5
19F
100
AcDbEntity
  8
WAKU0
  6
BYBLOCK
 62
0
370
    -2
100
AcDbMText
 10
132.0000000000002
 20
11.10000038146978
 30
0.0000000000000000
 40
3.100000381469727
 41
0.0000000000000000
 44
0.6719999870792528
 71
     1
 72
     1
  1
{\H0.81x;3}
 11
1.000000000000000
 21
0.0000000000000000
 31
0.0000000000000000
  7
STANDARD
  0
MTEXT
  5
1A0
100
AcDbEntity
  8
WAKU0
  6
BYBLOCK
 62
0
370
    -2
100
AcDbMText
 10
177.0000000000002
 20
11.10000038146978
 30
0.0000000000000000
 40
3.100000381469727
 41
0.0000000000000000
 44
0.6719999870792528
 71
     1
 72
     1
  1
{\H0.81x;4}
 11
1.000000000000000
 21
0.0000000000000000
 31
0.0000000000000000
  7
STANDARD
  0
MTEXT
  5
1A1
100
AcDbEntity
  8
WAKU0
  6
BYBLOCK
 62
0
370
    -2
100
AcDbMText
 10
17.00000000000020
 20
270.1848127115200
 30
0.0000000000000000
 40
3.100000381469727
 41
0.0000000000000000
 44
0.6719999870792528
 71
     1
 72
     1
  1
{\H0.81x;A}
 11
1.000000000000000
 21
0.0000000000000000
 31
0.0000000000000000
  7
STANDARD
  0
MTEXT
  5
1A2
100
AcDbEntity
  8
WAKU0
  6
BYBLOCK
 62
0
370
    -2
100
AcDbMText
 10
17.00000000000017
 20
223.6733871632249
 30
0.0000000000000000
 40
3.100000381469727
 41
0.0000000000000000
 44
0.6719999870792528
 71
     1
 72
     1
  1
{\H0.81x;B}
 11
1.000000000000000
 21
0.0000000000000000
 31
0.0000000000000000
  7
STANDARD
  0
MTEXT
  5
1A3
100
AcDbEntity
  8
WAKU0
  6
BYBLOCK
 62
0
370
    -2
100
AcDbMText
 10
17.00000000000006
 20
74.64696205106282
 30
0.0000000000000000
 40
3.100000381469727
 41
0.0000000000000000
 44
0.6719999870792528
 71
     1
 72
     1
  1
{\H0.81x;E}
 11
1.000000000000000
 21
0.0000000000000000
 31
0.0000000000000000
  7
STANDARD
  0
MTEXT
  5
1A4
100
AcDbEntity
  8
WAKU0
  6
BYBLOCK
 62
0
370
    -2
100
AcDbMText
 10
17.00000000000003
 20
30.86450673573875
 30
0.0000000000000000
 40
3.100000381469727
 41
0.0000000000000000
 44
0.6719999870792528
 71
     1
 72
     1
  1
{\H0.81x;F}
 11
1.000000000000000
 21
0.0000000000000000
 31
0.0000000000000000
  7
STANDARD
  0
MTEXT
  5
1A5
100
AcDbEntity
  8
WAKU0
  6
BYBLOCK
 62
0
370
    -2
100
AcDbMText
 10
202.0000000000001
 20
270.1848127115199
 30
0.0000000000000000
 40
3.100000381469727
 41
0.0000000000000000
 44
0.6719999870792528
 71
     1
 72
     1
  1
{\H0.81x;A}
 11
1.000000000000000
 21
0.0000000000000000
 31
0.0000000000000000
  7
STANDARD
  0
MTEXT
  5
1A6
100
AcDbEntity
  8
WAKU0
  6
BYBLOCK
 62
0
370
    -2
100
AcDbMText
 10
202.0000000000001
 20
223.6733871632249
 30
0.0000000000000000
 40
3.100000381469727
 41
0.0000000000000000
 44
0.6719999870792528
 71
     1
 72
     1
  1
{\H0.81x;B}
 11
1.000000000000000
 21
0.0000000000000000
 31
0.0000000000000000
  7
STANDARD
  0
MTEXT
  5
1A7
100
AcDbEntity
  8
WAKU0
  6
BYBLOCK
 62
0
370
    -2
100
AcDbMText
 10
201.9999999999999
 20
74.64696205106270
 30
0.0000000000000000
 40
3.100000381469727
 41
0.0000000000000000
 44
0.6719999870792528
 71
     1
 72
     1
  1
{\H0.81x;E}
 11
1.000000000000000
 21
0.0000000000000000
 31
0.0000000000000000
  7
STANDARD
  0
MTEXT
  5
1A8
100
AcDbEntity
  8
WAKU0
  6
BYBLOCK
 62
0
370
    -2
100
AcDbMText
 10
201.9999999999999
 20
30.86450673573869
 30
0.0000000000000000
 40
3.100000381469727
 41
0.0000000000000000
 44
0.6719999870792528
 71
     1
 72
     1
  1
{\H0.81x;F}
 11
1.000000000000000
 21
0.0000000000000000
 31
0.0000000000000000
  7
STANDARD
  0
MTEXT
  5
1A9
100
AcDbEntity
  8
WAKU0
  6
BYBLOCK
 62
0
370
    -2
100
AcDbMText
 10
202.0000000000001
 20
174.5516074369648
 30
0.0000000000000000
 40
3.100000381469727
 41
0.0000000000000000
 44
0.6719999870792528
 71
     1
 72
     1
  1
{\H0.81x;C}
 11
1.000000000000000
 21
0.0000000000000000
 31
0.0000000000000000
  7
STANDARD
  0
MTEXT
  5
1AA
100
AcDbEntity
  8
WAKU0
  6
BYBLOCK
 62
0
370
    -2
100
AcDbMText
 10
202.0000000000001
 20
124.9552421319181
 30
0.0000000000000000
 40
3.100000381469727
 41
0.0000000000000000
 44
0.6719999870792528
 71
     1
 72
     1
  1
{\H0.81x;D}
 11
1.000000000000000
 21
0.0000000000000000
 31
0.0000000000000000
  7
STANDARD
  0
ENDBLK
  5
1AB
100
AcDbEntity
  8
WAKU0
  6
BYBLOCK
 62
2
100
AcDbBlockEnd
  0
BLOCK
  5
1AD
100
AcDbEntity
  8
WAKU0
  6
BYBLOCK
 62
12
100
AcDbBlockBegin
  2
M3
 70
    64
 10
0.0
 20
0.0
 30
0.0
  0
LINE
  5
1AE
100
AcDbEntity
  8
WAKU0
  6
BYBLOCK
 62
0
370
    -2
100
AcDbLine
 10
48.00000000000011
 20
247.5000000000001
 30
0.0000000000000000
 11
48.00000000000011
 21
282.4999999999999
 31
0.0000000000000000
  0
LINE
  5
1AF
100
AcDbEntity
  8
WAKU0
  6
BYBLOCK
 62
0
370
    -2
100
AcDbLine
 10
58.00000000000011
 20
247.5000000000001
 30
0.0000000000000000
 11
58.00000000000011
 21
282.4999999999999
 31
0.0000000000000000
  0
LINE
  5
1B0
100
AcDbEntity
  8
WAKU0
  6
BYBLOCK
 62
0
370
    -2
100
AcDbLine
 10
20.00000000000068
 20
271.4999999999965
 30
0.0000000000000000
 11
68.00000000000011
 21
271.4999999999964
 31
0.0000000000000000
  0
LINE
  5
1B1
100
AcDbEntity
  8
WAKU0
  6
BYBLOCK
 62
0
370
    -2
100
AcDbLine
 10
20.00000000000011
 20
263.5000000000000
 30
0.0000000000000000
 11
68.00000000000011
 21
263.5000000000000
 31
0.0000000000000000
  0
LINE
  5
1B2
100
AcDbEntity
  8
WAKU0
  6
BYBLOCK
 62
0
370
    -2
100
AcDbLine
 10
20.00000000000011
 20
267.5000000000000
 30
0.0000000000000000
 11
68.00000000000011
 21
267.5000000000000
 31
0.0000000000000000
  0
LINE
  5
1B3
100
AcDbEntity
  8
WAKU0
  6
BYBLOCK
 62
0
370
    -2
100
AcDbLine
 10
20.00000000000009
 20
259.5000000000001
 30
0.0000000000000000
 11
68.00000000000011
 21
259.5000000000000
 31
0.0000000000000000
  0
LINE
  5
1B4
100
AcDbEntity
  8
WAKU0
  6
BYBLOCK
 62
0
370
    -2
100
AcDbLine
 10
20.00000000000009
 20
255.5000000000001
 30
0.0000000000000000
 11
68.00000000000011
 21
255.5000000000000
 31
0.0000000000000000
  0
LINE
  5
1B5
100
AcDbEntity
  8
WAKU0
  6
BYBLOCK
 62
0
370
    -2
100
AcDbLine
 10
20.00000000000011
 20
251.5000000000000
 30
0.0000000000000000
 11
68.00000000000011
 21
251.5000000000000
 31
0.0000000000000000
  0
LINE
  5
1B6
100
AcDbEntity
  8
WAKU0
  6
BYBLOCK
 62
0
370
    -2
100
AcDbLine
 10
20.00000000000009
 20
282.4999999999965
 30
0.0000000000000000
 11
68.00000000000011
 21
282.4999999999964
 31
0.0000000000000000
  0
LINE
  5
1B7
100
AcDbEntity
  8
WAKU0
  6
BYBLOCK
 62
0
370
    -2
100
AcDbLine
 10
20.00000000000000
 20
247.5000000000000
 30
0.0000000000000000
 11
68.00000000000000
 21
247.4999999999999
 31
0.0000000000000000
  0
LINE
  5
1B8
100
AcDbEntity
  8
WAKU0
  6
BYBLOCK
 62
0
370
    -2
100
AcDbLine
 10
20.00000000000011
 20
275.4999999999965
 30
0.0000000000000000
 11
68.00000000000011
 21
275.4999999999964
 31
0.0000000000000000
  0
LINE
  5
1B9
100
AcDbEntity
  8
WAKU0
  6
BYBLOCK
 62
0
370
    -2
100
AcDbLine
 10
68.00000000000023
 20
286.9999999999963
 30
0.0000000000000000
 11
68.00000000000023
 21
247.5000000000001
 31
0.0000000000000000
  0
LINE
  5
1BA
100
AcDbEntity
  8
WAKU0
  6
BYBLOCK
 62
0
370
    -2
100
AcDbLine
 10
38.00000000000011
 20
247.5000000000001
 30
0.0000000000000000
 11
38.00000000000011
 21
282.4999999999999
 31
0.0000000000000000
  0
MTEXT
  5
1BB
100
AcDbEntity
  8
WAKU0
  6
BYBLOCK
 62
0
370
    -2
100
AcDbMText
 10
21.00000000000012
 20
286.1000001907340
 30
0.0000000000000000
 40
2.800000190734863
 41
0.0000000000000000
 44
0.6719999877384739
 71
     1
 72
     1
  1
{\H0.94x;図面に記入のない寸法の一般公差}
 11
1.000000000000000
 21
0.0000000000000000
 31
0.0000000000000000
  7
KNJYOKO
  0
MTEXT
  5
1BC
100
AcDbEntity
  8
WAKU0
  6
BYBLOCK
 62
0
370
    -2
100
AcDbMText
 10
20.75637692307277
 20
280.2304508076558
 30
0.0000000000000000
 40
2.399999618530273
 41
0.0000000000000000
 44
0.6719999785423244
 71
     1
 72
     1
  1
{\H0.81x;寸法区分　ｍｍ}
 11
1.000000000000000
 21
0.0000000000000000
 31
0.0000000000000000
  7
KNJYOKO
  0
MTEXT
  5
1BD
100
AcDbEntity
  8
WAKU0
  6
BYBLOCK
 62
0
370
    -2
100
AcDbMText
 10
38.50000000000012
 20
281.3999996185265
 30
0.0000000000000000
 40
2.399999618530273
 41
0.0000000000000000
 44
0.6719999785423244
 71
     1
 72
     1
  1
{\H0.79x;切削加工}
 11
1.000000000000000
 21
0.0000000000000000
 31
0.0000000000000000
  7
KNJYOKO
  0
MTEXT
  5
1BE
100
AcDbEntity
  8
WAKU0
  6
BYBLOCK
 62
0
370
    -2
100
AcDbMText
 10
38.13952891354615
 20
278.6071783686092
 30
0.0000000000000000
 40
2.399999618530273
 41
0.0000000000000000
 44
0.6719999785423244
 71
     1
 72
     1
  1
{\H0.79x;穴明中心}
 11
1.000000000000000
 21
0.0000000000000000
 31
0.0000000000000000
  7
KNJYOKO
  0
MTEXT
  5
1BF
100
AcDbEntity
  8
WAKU0
  6
BYBLOCK
 62
0
370
    -2
100
AcDbMText
 10
48.50000000000012
 20
281.3999996185265
 30
0.0000000000000000
 40
2.399999618530273
 41
0.0000000000000000
 44
0.6719999785423244
 71
     1
 72
     1
  1
{\H0.79x;板金加工}
 11
1.000000000000000
 21
0.0000000000000000
 31
0.0000000000000000
  7
KNJYOKO
  0
MTEXT
  5
1C0
100
AcDbEntity
  8
WAKU0
  6
BYBLOCK
 62
0
370
    -2
100
AcDbMText
 10
48.45325193492426
 20
278.5731493714483
 30
0.0000000000000000
 40
2.399999618530273
 41
0.0000000000000000
 44
0.6719999785423244
 71
     1
 72
     1
  1
{\H0.79x;製缶加工}
 11
1.000000000000000
 21
0.0000000000000000
 31
0.0000000000000000
  7
KNJYOKO
  0
MTEXT
  5
1C1
100
AcDbEntity
  8
WAKU0
  6
BYBLOCK
 62
0
370
    -2
100
AcDbMText
 10
59.00000000000012
 20
281.3999996185265
 30
0.0000000000000000
 40
2.399999618530273
 41
0.0000000000000000
 44
0.6719999785423244
 71
     1
 72
     1
  1
{\H0.78x;鋳鉄鋼}
 11
1.000000000000000
 21
0.0000000000000000
 31
0.0000000000000000
  7
KNJYOKO
  0
MTEXT
  5
1C2
100
AcDbEntity
  8
WAKU0
  6
BYBLOCK
 62
0
370
    -2
100
AcDbMText
 10
58.96061689485686
 20
278.8794831611411
 30
0.0000000000000000
 40
2.399999618530273
 41
0.0000000000000000
 44
0.6719999785423244
 71
     1
 72
     1
  1
{\H0.78x;鍛造品}
 11
1.000000000000000
 21
0.0000000000000000
 31
0.0000000000000000
  7
KNJYOKO
  0
MTEXT
  5
1C3
100
AcDbEntity
  8
WAKU0
  6
BYBLOCK
 62
0
370
    -2
100
AcDbMText
 10
21.00000000000006
 20
273.9999999999999
 30
0.0000000000000000
 40
2.000000000000000
 41
0.0000000000000000
 44
0.6720000028610229
 71
     1
 72
     1
  1
{\H0.93x;１以上　４以下}
 11
1.000000000000000
 21
0.0000000000000000
 31
0.0000000000000000
  7
KNJYOKO
  0
MTEXT
  5
1C4
100
AcDbEntity
  8
WAKU0
  6
BYBLOCK
 62
0
370
    -2
100
AcDbMText
 10
21.00000000000006
 20
269.9999999999999
 30
0.0000000000000000
 40
2.000000000000000
 41
0.0000000000000000
 44
0.6720000028610229
 71
     1
 72
     1
  1
{\H0.93x;４を越え１６〃}
 11
1.000000000000000
 21
0.0000000000000000
 31
0.0000000000000000
  7
KNJYOKO
  0
MTEXT
  5
1C5
100
AcDbEntity
  8
WAKU0
  6
BYBLOCK
 62
0
370
    -2
100
AcDbMText
 10
20.50000000000006
 20
258.0000000000000
 30
0.0000000000000000
 40
2.000000000000000
 41
0.0000000000000000
 44
0.6720000028610229
 71
     1
 72
     1
  1
{\H0.53x;２５０　 〃 １０００ 〃　}
 11
1.000000000000000
 21
0.0000000000000000
 31
0.0000000000000000
  7
KNJYOKO
  0
MTEXT
  5
1C6
100
AcDbEntity
  8
WAKU0
  6
BYBLOCK
 62
0
370
    -2
100
AcDbMText
 10
20.50000000000006
 20
254.0000000000000
 30
0.0000000000000000
 40
2.000000000000000
 41
0.0000000000000000
 44
0.6720000028610229
 71
     1
 72
     1
  1
{\H0.53x;１０００ 〃 ２０００ 〃　}
 11
1.000000000000000
 21
0.0000000000000000
 31
0.0000000000000000
  7
KNJYOKO
  0
MTEXT
  5
1C7
100
AcDbEntity
  8
WAKU0
  6
BYBLOCK
 62
0
370
    -2
100
AcDbMText
 10
20.50000000000006
 20
250.0000000000000
 30
0.0000000000000000
 40
2.000000000000000
 41
0.0000000000000000
 44
0.6720000028610229
 71
     1
 72
     1
  1
{\H0.53x;２０００ 〃 ５０００ 〃}
 11
1.000000000000000
 21
0.0000000000000000
 31
0.0000000000000000
  7
KNJYOKO
  0
MTEXT
  5
1C8
100
AcDbEntity
  8
WAKU0
  6
BYBLOCK
 62
0
370
    -2
100
AcDbMText
 10
20.50000000000006
 20
266.0000000000000
 30
0.0000000000000000
 40
2.000000000000000
 41
0.0000000000000000
 44
0.6720000028610229
 71
     1
 72
     1
  1
{\H0.53x;１６　　 〃 　　６３ 〃}
 11
1.000000000000000
 21
0.0000000000000000
 31
0.0000000000000000
  7
KNJYOKO
  0
MTEXT
  5
1C9
100
AcDbEntity
  8
WAKU0
  6
BYBLOCK
 62
0
370
    -2
100
AcDbMText
 10
20.50000000000006
 20
262.0000000000000
 30
0.0000000000000000
 40
2.000000000000000
 41
0.0000000000000000
 44
0.6720000028610229
 71
     1
 72
     1
  1
{\H0.53x;６３　　 〃 　２５０ 〃}
 11
1.000000000000000
 21
0.0000000000000000
 31
0.0000000000000000
  7
KNJYOKO
  0
MTEXT
  5
1CA
100
AcDbEntity
  8
WAKU0
  6
BYBLOCK
 62
0
370
    -2
100
AcDbMText
 10
39.30499982833874
 20
274.4999999999964
 30
0.0000000000000000
 40
2.000000000000000
 41
0.0000000000000000
 44
0.6720000028610229
 71
     1
 72
     1
  1
{\H0.91x;\U+00B10.1}
 11
1.000000000000000
 21
0.0000000000000000
 31
0.0000000000000000
  7
STANDARD
  0
MTEXT
  5
1CB
100
AcDbEntity
  8
WAKU0
  6
BYBLOCK
 62
0
370
    -2
100
AcDbMText
 10
39.30499982833874
 20
270.4999999999964
 30
0.0000000000000000
 40
2.000000000000000
 41
0.0000000000000000
 44
0.6720000028610229
 71
     1
 72
     1
  1
{\H0.91x;\U+00B10.2}
 11
1.000000000000000
 21
0.0000000000000000
 31
0.0000000000000000
  7
STANDARD
  0
MTEXT
  5
1CC
100
AcDbEntity
  8
WAKU0
  6
BYBLOCK
 62
0
370
    -2
100
AcDbMText
 10
39.30499982833874
 20
266.4999999999966
 30
0.0000000000000000
 40
2.000000000000000
 41
0.0000000000000000
 44
0.6720000028610229
 71
     1
 72
     1
  1
{\H0.91x;\U+00B10.3}
 11
1.000000000000000
 21
0.0000000000000000
 31
0.0000000000000000
  7
STANDARD
  0
MTEXT
  5
1CD
100
AcDbEntity
  8
WAKU0
  6
BYBLOCK
 62
0
370
    -2
100
AcDbMText
 10
39.30499982833874
 20
262.4999999999966
 30
0.0000000000000000
 40
2.000000000000000
 41
0.0000000000000000
 44
0.6720000028610229
 71
     1
 72
     1
  1
{\H0.91x;\U+00B10.5}
 11
1.000000000000000
 21
0.0000000000000000
 31
0.0000000000000000
  7
STANDARD
  0
MTEXT
  5
1CE
100
AcDbEntity
  8
WAKU0
  6
BYBLOCK
 62
0
370
    -2
100
AcDbMText
 10
39.30499982833874
 20
258.4999999999966
 30
0.0000000000000000
 40
2.000000000000000
 41
0.0000000000000000
 44
0.6720000028610229
 71
     1
 72
     1
  1
{\H0.91x;\U+00B10.8}
 11
1.000000000000000
 21
0.0000000000000000
 31
0.0000000000000000
  7
STANDARD
  0
MTEXT
  5
1CF
100
AcDbEntity
  8
WAKU0
  6
BYBLOCK
 62
0
370
    -2
100
AcDbMText
 10
39.30499982833874
 20
254.4999999999966
 30
0.0000000000000000
 40
2.000000000000000
 41
0.0000000000000000
 44
0.6720000028610229
 71
     1
 72
     1
  1
{\H0.91x;\U+00B11.0}
 11
1.000000000000000
 21
0.0000000000000000
 31
0.0000000000000000
  7
STANDARD
  0
MTEXT
  5
1D0
100
AcDbEntity
  8
WAKU0
  6
BYBLOCK
 62
0
370
    -2
100
AcDbMText
 10
39.30499982833874
 20
250.4999999999966
 30
0.0000000000000000
 40
2.000000000000000
 41
0.0000000000000000
 44
0.6720000028610229
 71
     1
 72
     1
  1
{\H0.91x;\U+00B11.5}
 11
1.000000000000000
 21
0.0000000000000000
 31
0.0000000000000000
  7
STANDARD
  0
MTEXT
  5
1D1
100
AcDbEntity
  8
WAKU0
  6
BYBLOCK
 62
0
370
    -2
100
AcDbMText
 10
49.30499982833874
 20
274.4999999999964
 30
0.0000000000000000
 40
2.000000000000000
 41
0.0000000000000000
 44
0.6720000028610229
 71
     1
 72
     1
  1
{\H0.91x;\U+00B10.3}
 11
1.000000000000000
 21
0.0000000000000000
 31
0.0000000000000000
  7
STANDARD
  0
MTEXT
  5
1D2
100
AcDbEntity
  8
WAKU0
  6
BYBLOCK
 62
0
370
    -2
100
AcDbMText
 10
49.30499982833874
 20
270.4999999999964
 30
0.0000000000000000
 40
2.000000000000000
 41
0.0000000000000000
 44
0.6720000028610229
 71
     1
 72
     1
  1
{\H0.91x;\U+00B10.5}
 11
1.000000000000000
 21
0.0000000000000000
 31
0.0000000000000000
  7
STANDARD
  0
MTEXT
  5
1D3
100
AcDbEntity
  8
WAKU0
  6
BYBLOCK
 62
0
370
    -2
100
AcDbMText
 10
49.30499982833874
 20
266.4999999999966
 30
0.0000000000000000
 40
2.000000000000000
 41
0.0000000000000000
 44
0.6720000028610229
 71
     1
 72
     1
  1
{\H0.91x;\U+00B10.7}
 11
1.000000000000000
 21
0.0000000000000000
 31
0.0000000000000000
  7
STANDARD
  0
MTEXT
  5
1D4
100
AcDbEntity
  8
WAKU0
  6
BYBLOCK
 62
0
370
    -2
100
AcDbMText
 10
49.30499982833874
 20
262.4999999999966
 30
0.0000000000000000
 40
2.000000000000000
 41
0.0000000000000000
 44
0.6720000028610229
 71
     1
 72
     1
  1
{\H0.91x;\U+00B11.2}
 11
1.000000000000000
 21
0.0000000000000000
 31
0.0000000000000000
  7
STANDARD
  0
MTEXT
  5
1D5
100
AcDbEntity
  8
WAKU0
  6
BYBLOCK
 62
0
370
    -2
100
AcDbMText
 10
49.30499982833874
 20
258.4999999999966
 30
0.0000000000000000
 40
2.000000000000000
 41
0.0000000000000000
 44
0.6720000028610229
 71
     1
 72
     1
  1
{\H0.91x;\U+00B12.0}
 11
1.000000000000000
 21
0.0000000000000000
 31
0.0000000000000000
  7
STANDARD
  0
MTEXT
  5
1D6
100
AcDbEntity
  8
WAKU0
  6
BYBLOCK
 62
0
370
    -2
100
AcDbMText
 10
49.30499982833874
 20
254.4999999999966
 30
0.0000000000000000
 40
2.000000000000000
 41
0.0000000000000000
 44
0.6720000028610229
 71
     1
 72
     1
  1
{\H0.91x;\U+00B12.5}
 11
1.000000000000000
 21
0.0000000000000000
 31
0.0000000000000000
  7
STANDARD
  0
MTEXT
  5
1D7
100
AcDbEntity
  8
WAKU0
  6
BYBLOCK
 62
0
370
    -2
100
AcDbMText
 10
49.30499982833874
 20
250.4999999999966
 30
0.0000000000000000
 40
2.000000000000000
 41
0.0000000000000000
 44
0.6720000028610229
 71
     1
 72
     1
  1
{\H0.91x;\U+00B13.5}
 11
1.000000000000000
 21
0.0000000000000000
 31
0.0000000000000000
  7
STANDARD
  0
MTEXT
  5
1D8
100
AcDbEntity
  8
WAKU0
  6
BYBLOCK
 62
0
370
    -2
100
AcDbMText
 10
59.30499982833874
 20
274.4999999999964
 30
0.0000000000000000
 40
2.000000000000000
 41
0.0000000000000000
 44
0.6720000028610229
 71
     1
 72
     1
  1
{\H0.91x;\U+00B10.5}
 11
1.000000000000000
 21
0.0000000000000000
 31
0.0000000000000000
  7
STANDARD
  0
MTEXT
  5
1D9
100
AcDbEntity
  8
WAKU0
  6
BYBLOCK
 62
0
370
    -2
100
AcDbMText
 10
59.30499982833874
 20
270.4999999999964
 30
0.0000000000000000
 40
2.000000000000000
 41
0.0000000000000000
 44
0.6720000028610229
 71
     1
 72
     1
  1
{\H0.91x;\U+00B10.7}
 11
1.000000000000000
 21
0.0000000000000000
 31
0.0000000000000000
  7
STANDARD
  0
MTEXT
  5
1DA
100
AcDbEntity
  8
WAKU0
  6
BYBLOCK
 62
0
370
    -2
100
AcDbMText
 10
59.30499982833874
 20
266.4999999999966
 30
0.0000000000000000
 40
2.000000000000000
 41
0.0000000000000000
 44
0.6720000028610229
 71
     1
 72
     1
  1
{\H0.91x;\U+00B10.9}
 11
1.000000000000000
 21
0.0000000000000000
 31
0.0000000000000000
  7
STANDARD
  0
MTEXT
  5
1DB
100
AcDbEntity
  8
WAKU0
  6
BYBLOCK
 62
0
370
    -2
100
AcDbMText
 10
59.30499982833874
 20
262.4999999999966
 30
0.0000000000000000
 40
2.000000000000000
 41
0.0000000000000000
 44
0.6720000028610229
 71
     1
 72
     1
  1
{\H0.91x;\U+00B11.5}
 11
1.000000000000000
 21
0.0000000000000000
 31
0.0000000000000000
  7
STANDARD
  0
MTEXT
  5
1DC
100
AcDbEntity
  8
WAKU0
  6
BYBLOCK
 62
0
370
    -2
100
AcDbMText
 10
59.30499982833874
 20
258.4999999999966
 30
0.0000000000000000
 40
2.000000000000000
 41
0.0000000000000000
 44
0.6720000028610229
 71
     1
 72
     1
  1
{\H0.91x;\U+00B12.5}
 11
1.000000000000000
 21
0.0000000000000000
 31
0.0000000000000000
  7
STANDARD
  0
MTEXT
  5
1DD
100
AcDbEntity
  8
WAKU0
  6
BYBLOCK
 62
0
370
    -2
100
AcDbMText
 10
59.30499982833874
 20
254.4999999999966
 30
0.0000000000000000
 40
2.000000000000000
 41
0.0000000000000000
 44
0.6720000028610229
 71
     1
 72
     1
  1
{\H0.91x;\U+00B13.5}
 11
1.000000000000000
 21
0.0000000000000000
 31
0.0000000000000000
  7
STANDARD
  0
MTEXT
  5
1DE
100
AcDbEntity
  8
WAKU0
  6
BYBLOCK
 62
0
370
    -2
100
AcDbMText
 10
59.30499982833874
 20
250.4999999999966
 30
0.0000000000000000
 40
2.000000000000000
 41
0.0000000000000000
 44
0.6720000028610229
 71
     1
 72
     1
  1
{\H0.91x;\U+00B15.0}
 11
1.000000000000000
 21
0.0000000000000000
 31
0.0000000000000000
  7
STANDARD
  0
LINE
  5
1DF
100
AcDbEntity
  8
WAKU0
  6
BYBLOCK
 62
0
370
    -2
100
AcDbLine
 10
68.00000000000023
 20
286.9999999999963
 30
0.0000000000000000
 11
20.00000000000000
 21
286.9999999999963
 31
0.0000000000000000
  0
LINE
  5
1E0
100
AcDbEntity
  8
WAKU0
  6
BYBLOCK
 62
0
370
    -2
100
AcDbLine
 10
20.00000000000000
 20
247.5000000000000
 30
0.0000000000000000
 11
20.00000000000000
 21
286.9999999999963
 31
0.0000000000000000
  0
ENDBLK
  5
1E1
100
AcDbEntity
  8
WAKU0
  6
BYBLOCK
 62
12
100
AcDbBlockEnd
  0
BLOCK
  5
1E3
100
AcDbEntity
  8
WAKU0
  6
BYBLOCK
 62
12
100
AcDbBlockBegin
  2
M4
 70
    64
 10
0.0
 20
0.0
 30
0.0
  0
LINE
  5
1E4
100
AcDbEntity
  8
WAKU0
  6
BYBLOCK
 62
0
370
    -2
100
AcDbLine
 10
77.50000000000011
 20
247.5000000000001
 30
0.0000000000000000
 11
77.50000000000011
 21
282.4999999999999
 31
0.0000000000000000
  0
LINE
  5
1E5
100
AcDbEntity
  8
WAKU0
  6
BYBLOCK
 62
0
370
    -2
100
AcDbLine
 10
87.00000000000011
 20
268.4999999999999
 30
0.0000000000000000
 11
68.00000000000011
 21
268.4999999999999
 31
0.0000000000000000
  0
LINE
  5
1E6
100
AcDbEntity
  8
WAKU0
  6
BYBLOCK
 62
0
370
    -2
100
AcDbLine
 10
87.00000000000011
 20
261.5000000000000
 30
0.0000000000000000
 11
68.00000000000011
 21
261.5000000000000
 31
0.0000000000000000
  0
LINE
  5
1E7
100
AcDbEntity
  8
WAKU0
  6
BYBLOCK
 62
0
370
    -2
100
AcDbLine
 10
87.00000000000011
 20
254.5000000000000
 30
0.0000000000000000
 11
68.00000000000011
 21
254.5000000000000
 31
0.0000000000000000
  0
LINE
  5
1E8
100
AcDbEntity
  8
WAKU0
  6
BYBLOCK
 62
0
370
    -2
100
AcDbLine
 10
69.74999999999994
 20
270.7679491924309
 30
0.0000000000000000
 11
70.75000000000000
 21
272.4999999999999
 31
0.0000000000000000
  0
LINE
  5
1E9
100
AcDbEntity
  8
WAKU0
  6
BYBLOCK
 62
0
370
    -2
100
AcDbLine
 10
68.75000000000159
 20
272.4999999999967
 30
0.0000000000000000
 11
69.75000000000162
 21
270.7679491924278
 31
0.0000000000000000
  0
LINE
  5
1EA
100
AcDbEntity
  8
WAKU0
  6
BYBLOCK
 62
0
370
    -2
100
AcDbLine
 10
71.75000000000000
 20
270.7679491924309
 30
0.0000000000000000
 11
72.75000000000011
 21
272.5000000000000
 31
0.0000000000000000
  0
LINE
  5
1EB
100
AcDbEntity
  8
WAKU0
  6
BYBLOCK
 62
0
370
    -2
100
AcDbLine
 10
70.75000000000159
 20
272.4999999999967
 30
0.0000000000000000
 11
71.75000000000159
 21
270.7679491924278
 31
0.0000000000000000
  0
LINE
  5
1EC
100
AcDbEntity
  8
WAKU0
  6
BYBLOCK
 62
0
370
    -2
100
AcDbLine
 10
73.75000000000000
 20
270.7679491924309
 30
0.0000000000000000
 11
74.75000000000011
 21
272.5000000000000
 31
0.0000000000000000
  0
LINE
  5
1ED
100
AcDbEntity
  8
WAKU0
  6
BYBLOCK
 62
0
370
    -2
100
AcDbLine
 10
72.75000000000173
 20
272.4999999999968
 30
0.0000000000000000
 11
73.75000000000176
 21
270.7679491924279
 31
0.0000000000000000
  0
LINE
  5
1EE
100
AcDbEntity
  8
WAKU0
  6
BYBLOCK
 62
0
370
    -2
100
AcDbLine
 10
75.75000000000003
 20
270.7679491924309
 30
0.0000000000000000
 11
76.75000000000007
 21
272.5000000000000
 31
0.0000000000000000
  0
LINE
  5
1EF
100
AcDbEntity
  8
WAKU0
  6
BYBLOCK
 62
0
370
    -2
100
AcDbLine
 10
74.75000000000173
 20
272.4999999999968
 30
0.0000000000000000
 11
75.75000000000173
 21
270.7679491924279
 31
0.0000000000000000
  0
LINE
  5
1F0
100
AcDbEntity
  8
WAKU0
  6
BYBLOCK
 62
0
370
    -2
100
AcDbLine
 10
70.75000000000000
 20
263.7679491924309
 30
0.0000000000000000
 11
71.75000000000009
 21
265.5000000000001
 31
0.0000000000000000
  0
LINE
  5
1F1
100
AcDbEntity
  8
WAKU0
  6
BYBLOCK
 62
0
370
    -2
100
AcDbLine
 10
69.75000000000142
 20
265.4999999999974
 30
0.0000000000000000
 11
70.75000000000142
 21
263.7679491924286
 31
0.0000000000000000
  0
LINE
  5
1F2
100
AcDbEntity
  8
WAKU0
  6
BYBLOCK
 62
0
370
    -2
100
AcDbLine
 10
72.75000000000003
 20
263.7679491924308
 30
0.0000000000000000
 11
73.75000000000007
 21
265.4999999999999
 31
0.0000000000000000
  0
LINE
  5
1F3
100
AcDbEntity
  8
WAKU0
  6
BYBLOCK
 62
0
370
    -2
100
AcDbLine
 10
71.75000000000142
 20
265.4999999999974
 30
0.0000000000000000
 11
72.75000000000142
 21
263.7679491924285
 31
0.0000000000000000
  0
LINE
  5
1F4
100
AcDbEntity
  8
WAKU0
  6
BYBLOCK
 62
0
370
    -2
100
AcDbLine
 10
74.74999999999999
 20
263.7679491924309
 30
0.0000000000000000
 11
75.75000000000006
 21
265.5000000000001
 31
0.0000000000000000
  0
LINE
  5
1F5
100
AcDbEntity
  8
WAKU0
  6
BYBLOCK
 62
0
370
    -2
100
AcDbLine
 10
73.75000000000135
 20
265.4999999999974
 30
0.0000000000000000
 11
74.75000000000135
 21
263.7679491924284
 31
0.0000000000000000
  0
LINE
  5
1F6
100
AcDbEntity
  8
WAKU0
  6
BYBLOCK
 62
0
370
    -2
100
AcDbLine
 10
71.75000000000000
 20
256.7679491924309
 30
0.0000000000000000
 11
72.75000000000009
 21
258.5000000000000
 31
0.0000000000000000
  0
LINE
  5
1F7
100
AcDbEntity
  8
WAKU0
  6
BYBLOCK
 62
0
370
    -2
100
AcDbLine
 10
70.75000000000105
 20
258.4999999999980
 30
0.0000000000000000
 11
71.75000000000108
 21
256.7679491924292
 31
0.0000000000000000
  0
LINE
  5
1F8
100
AcDbEntity
  8
WAKU0
  6
BYBLOCK
 62
0
370
    -2
100
AcDbLine
 10
73.75000000000006
 20
256.7679491924309
 30
0.0000000000000000
 11
74.75000000000011
 21
258.5000000000000
 31
0.0000000000000000
  0
LINE
  5
1F9
100
AcDbEntity
  8
WAKU0
  6
BYBLOCK
 62
0
370
    -2
100
AcDbLine
 10
72.75000000000109
 20
258.4999999999980
 30
0.0000000000000000
 11
73.75000000000109
 21
256.7679491924291
 31
0.0000000000000000
  0
LINE
  5
1FA
100
AcDbEntity
  8
WAKU0
  6
BYBLOCK
 62
0
370
    -2
100
AcDbLine
 10
71.75000000000000
 20
251.5000000000000
 30
0.0000000000000000
 11
73.75000000000017
 21
251.5000000000000
 31
0.0000000000000000
  0
LINE
  5
1FB
100
AcDbEntity
  8
WAKU0
  6
BYBLOCK
 62
0
370
    -2
100
AcDbLine
 10
72.74999999999999
 20
249.7679491924309
 30
0.0000000000000000
 11
73.75000000000006
 21
251.5000000000000
 31
0.0000000000000000
  0
LINE
  5
1FC
100
AcDbEntity
  8
WAKU0
  6
BYBLOCK
 62
0
370
    -2
100
AcDbLine
 10
71.75000000000074
 20
251.4999999999986
 30
0.0000000000000000
 11
72.75000000000074
 21
249.7679491924297
 31
0.0000000000000000
  0
LINE
  5
1FD
100
AcDbEntity
  8
WAKU0
  6
BYBLOCK
 62
0
370
    -2
100
AcDbLine
 10
68.00000000000011
 20
282.4999999999999
 30
0.0000000000000000
 11
87.00000000000011
 21
282.4999999999999
 31
0.0000000000000000
  0
LINE
  5
1FE
100
AcDbEntity
  8
WAKU0
  6
BYBLOCK
 62
0
370
    -2
100
AcDbLine
 10
68.00000000000000
 20
247.5000000000000
 30
0.0000000000000000
 11
87.00000000000000
 21
247.5000000000000
 31
0.0000000000000000
  0
LINE
  5
1FF
100
AcDbEntity
  8
WAKU0
  6
BYBLOCK
 62
0
370
    -2
100
AcDbLine
 10
68.00000000000011
 20
275.4999999999999
 30
0.0000000000000000
 11
87.00000000000011
 21
275.4999999999999
 31
0.0000000000000000
  0
LINE
  5
200
100
AcDbEntity
  8
WAKU0
  6
BYBLOCK
 62
0
370
    -2
100
AcDbLine
 10
87.00000000000023
 20
286.9999999999963
 30
0.0000000000000000
 11
87.00000000000023
 21
247.5000000000001
 31
0.0000000000000000
  0
LINE
  5
201
100
AcDbEntity
  8
WAKU0
  6
BYBLOCK
 62
0
370
    -2
100
AcDbLine
 10
68.00000000000023
 20
286.9999999999963
 30
0.0000000000000000
 11
68.00000000000023
 21
247.5000000000001
 31
0.0000000000000000
  0
LINE
  5
202
100
AcDbEntity
  8
WAKU0
  6
BYBLOCK
 62
0
370
    -2
100
AcDbLine
 10
68.74999999999997
 20
272.4999999999990
 30
0.0000000000000000
 11
76.75000000000020
 21
272.4999999999990
 31
0.0000000000000000
  0
LINE
  5
203
100
AcDbEntity
  8
WAKU0
  6
BYBLOCK
 62
0
370
    -2
100
AcDbLine
 10
69.75000000000000
 20
265.5000000000000
 30
0.0000000000000000
 11
75.75000000000017
 21
265.5000000000000
 31
0.0000000000000000
  0
LINE
  5
204
100
AcDbEntity
  8
WAKU0
  6
BYBLOCK
 62
0
370
    -2
100
AcDbLine
 10
70.74999999999997
 20
258.5000000000000
 30
0.0000000000000000
 11
74.75000000000023
 21
258.5000000000000
 31
0.0000000000000000
  0
MTEXT
  5
205
100
AcDbEntity
  8
WAKU0
  6
BYBLOCK
 62
0
370
    -2
100
AcDbMText
 10
70.26144782313764
 20
285.8766443175372
 30
0.0000000000000000
 40
2.800000190734863
 41
0.0000000000000000
 44
0.6719999877384739
 71
     1
 72
     1
  1
{\H0.92x;表面アラサ}
 11
1.000000000000000
 21
0.0000000000000000
 31
0.0000000000000000
  7
KNJYOKO
  0
MTEXT
  5
206
100
AcDbEntity
  8
WAKU0
  6
BYBLOCK
 62
0
370
    -2
100
AcDbMText
 10
78.50000000000011
 20
279.9999999999999
 30
0.0000000000000000
 40
2.000000000000000
 41
0.0000000000000000
 44
0.6720000028610229
 71
     1
 72
     1
  1
{\H0.68x;Ｒｍａｘ}
 11
1.000000000000000
 21
0.0000000000000000
 31
0.0000000000000000
  7
KNJYOKO
  0
MTEXT
  5
207
100
AcDbEntity
  8
WAKU0
  6
BYBLOCK
 62
0
370
    -2
100
AcDbMText
 10
69.22739455422561
 20
280.1283395444224
 30
0.0000000000000000
 40
2.399999618530273
 41
0.0000000000000000
 44
0.6719999785423244
 71
     1
 72
     1
  1
{\H0.84x;記 号}
 11
1.000000000000000
 21
0.0000000000000000
 31
0.0000000000000000
  7
KNJYOKO
  0
MTEXT
  5
208
100
AcDbEntity
  8
WAKU0
  6
BYBLOCK
 62
0
370
    -2
100
AcDbMText
 10
78.60551812020117
 20
272.9979771011166
 30
0.0000000000000000
 40
2.000000000000000
 41
0.0000000000000000
 44
0.6720000028610229
 71
     1
 72
     1
  1
{\H0.91x;0.8S}
 11
1.000000000000000
 21
0.0000000000000000
 31
0.0000000000000000
  7
STANDARD
  0
MTEXT
  5
209
100
AcDbEntity
  8
WAKU0
  6
BYBLOCK
 62
0
370
    -2
100
AcDbMText
 10
78.54233874815691
 20
265.9536348845766
 30
0.0000000000000000
 40
2.000000000000000
 41
0.0000000000000000
 44
0.6720000028610229
 71
     1
 72
     1
  1
{\H0.91x;6.3S}
 11
1.000000000000000
 21
0.0000000000000000
 31
0.0000000000000000
  7
STANDARD
  0
MTEXT
  5
20A
100
AcDbEntity
  8
WAKU0
  6
BYBLOCK
 62
0
370
    -2
100
AcDbMText
 10
78.57394057005530
 20
259.0672775057741
 30
0.0000000000000000
 40
2.000000000000000
 41
0.0000000000000000
 44
0.6720000028610229
 71
     1
 72
     1
  1
{\H0.91x;25 S}
 11
1.000000000000000
 21
0.0000000000000000
 31
0.0000000000000000
  7
STANDARD
  0
MTEXT
  5
20B
100
AcDbEntity
  8
WAKU0
  6
BYBLOCK
 62
0
370
    -2
100
AcDbMText
 10
78.57394057005530
 20
252.0545371111307
 30
0.0000000000000000
 40
2.000000000000000
 41
0.0000000000000000
 44
0.6720000028610229
 71
     1
 72
     1
  1
{\H0.91x;100S}
 11
1.000000000000000
 21
0.0000000000000000
 31
0.0000000000000000
  7
STANDARD
  0
LINE
  5
20C
100
AcDbEntity
  8
WAKU0
  6
BYBLOCK
 62
0
370
    -2
100
AcDbLine
 10
68.00000000000023
 20
286.9999999999963
 30
0.0000000000000000
 11
87.00000000000023
 21
286.9999999999963
 31
0.0000000000000000
  0
ENDBLK
  5
20D
100
AcDbEntity
  8
WAKU0
  6
BYBLOCK
 62
12
100
AcDbBlockEnd
  0
BLOCK
  5
20F
100
AcDbEntity
  8
WAKU0
  6
BYBLOCK
 62
12
100
AcDbBlockBegin
  2
M5
 70
    64
 10
0.0
 20
0.0
 30
0.0
  0
LINE
  5
210
100
AcDbEntity
  8
WAKU0
  6
BYBLOCK
 62
0
370
    -2
100
AcDbLine
 10
91.00000000000011
 20
251.5000000000000
 30
0.0000000000000000
 11
91.00000000000011
 21
275.4999999999999
 31
0.0000000000000000
  0
LINE
  5
211
100
AcDbEntity
  8
WAKU0
  6
BYBLOCK
 62
0
370
    -2
100
AcDbLine
 10
100.0000000000001
 20
247.5000000000001
 30
0.0000000000000000
 11
100.0000000000001
 21
282.4999999999999
 31
0.0000000000000000
  0
LINE
  5
212
100
AcDbEntity
  8
WAKU0
  6
BYBLOCK
 62
0
370
    -2
100
AcDbLine
 10
110.5000000000001
 20
251.5000000000000
 30
0.0000000000000000
 11
110.5000000000001
 21
275.4999999999999
 31
0.0000000000000000
  0
LINE
  5
213
100
AcDbEntity
  8
WAKU0
  6
BYBLOCK
 62
0
370
    -2
100
AcDbLine
 10
119.5000000000001
 20
247.5000000000001
 30
0.0000000000000000
 11
119.5000000000001
 21
282.4999999999999
 31
0.0000000000000000
  0
LINE
  5
214
100
AcDbEntity
  8
WAKU0
  6
BYBLOCK
 62
0
370
    -2
100
AcDbLine
 10
126.0000000000001
 20
247.5000000000001
 30
0.0000000000000000
 11
126.0000000000001
 21
286.9999999999999
 31
0.0000000000000000
  0
LINE
  5
215
100
AcDbEntity
  8
WAKU0
  6
BYBLOCK
 62
0
370
    -2
100
AcDbLine
 10
110.5000000000001
 20
255.5000000000000
 30
0.0000000000000000
 11
126.0000000000001
 21
255.5000000000000
 31
0.0000000000000000
  0
LINE
  5
216
100
AcDbEntity
  8
WAKU0
  6
BYBLOCK
 62
0
370
    -2
100
AcDbLine
 10
110.5000000000001
 20
259.5000000000000
 30
0.0000000000000000
 11
126.0000000000001
 21
259.5000000000000
 31
0.0000000000000000
  0
LINE
  5
217
100
AcDbEntity
  8
WAKU0
  6
BYBLOCK
 62
0
370
    -2
100
AcDbLine
 10
110.5000000000001
 20
267.5000000000001
 30
0.0000000000000000
 11
126.0000000000001
 21
267.5000000000001
 31
0.0000000000000000
  0
LINE
  5
218
100
AcDbEntity
  8
WAKU0
  6
BYBLOCK
 62
0
370
    -2
100
AcDbLine
 10
110.5000000000001
 20
271.4999999999996
 30
0.0000000000000000
 11
126.0000000000016
 21
271.4999999999996
 31
0.0000000000000000
  0
LINE
  5
219
100
AcDbEntity
  8
WAKU0
  6
BYBLOCK
 62
0
370
    -2
100
AcDbLine
 10
91.00000000000011
 20
271.4999999999999
 30
0.0000000000000000
 11
106.5000000000001
 21
271.4999999999999
 31
0.0000000000000000
  0
LINE
  5
21A
100
AcDbEntity
  8
WAKU0
  6
BYBLOCK
 62
0
370
    -2
100
AcDbLine
 10
91.00000000000017
 20
267.5000000000000
 30
0.0000000000000000
 11
106.5000000000001
 21
267.5000000000000
 31
0.0000000000000000
  0
LINE
  5
21B
100
AcDbEntity
  8
WAKU0
  6
BYBLOCK
 62
0
370
    -2
100
AcDbLine
 10
91.50156144527961
 20
259.5000000000000
 30
0.0000000000000000
 11
106.5000000000001
 21
259.5000000000000
 31
0.0000000000000000
  0
LINE
  5
21C
100
AcDbEntity
  8
WAKU0
  6
BYBLOCK
 62
0
370
    -2
100
AcDbLine
 10
91.00000000000017
 20
255.5000000000000
 30
0.0000000000000000
 11
106.5000000000001
 21
255.5000000000000
 31
0.0000000000000000
  0
LINE
  5
21D
100
AcDbEntity
  8
WAKU0
  6
BYBLOCK
 62
0
370
    -2
100
AcDbLine
 10
87.00000000000014
 20
251.5000000000001
 30
0.0000000000000000
 11
126.0000000000001
 21
251.5000000000001
 31
0.0000000000000000
  0
LINE
  5
21E
100
AcDbEntity
  8
WAKU0
  6
BYBLOCK
 62
0
370
    -2
100
AcDbLine
 10
101.8311824646173
 20
273.3996670218928
 30
0.0000000000000000
 11
104.7310501077164
 21
273.3996670218929
 31
0.0000000000000000
  0
LINE
  5
21F
100
AcDbEntity
  8
WAKU0
  6
BYBLOCK
 62
0
370
    -2
100
AcDbLine
 10
102.0919983581146
 20
270.4618594058719
 30
0.0000000000000000
 11
105.1293399034055
 21
270.4618594058720
 31
0.0000000000000000
  0
LINE
  5
220
100
AcDbEntity
  8
WAKU0
  6
BYBLOCK
 62
0
370
    -2
100
AcDbLine
 10
101.3640578895821
 20
268.4618594058701
 30
0.0000000000000000
 11
104.4013994348764
 21
268.4618594058701
 31
0.0000000000000000
  0
LINE
  5
221
100
AcDbEntity
  8
WAKU0
  6
BYBLOCK
 62
0
370
    -2
100
AcDbLine
 10
121.9486663247603
 20
268.5982531923036
 30
0.0000000000000000
 11
123.8731735892201
 21
268.5982531923036
 31
0.0000000000000000
  0
LINE
  5
222
100
AcDbEntity
  8
WAKU0
  6
BYBLOCK
 62
0
370
    -2
100
AcDbLine
 10
124.0482517197916
 20
261.4999999999999
 30
0.0000000000000000
 11
121.4482517197915
 21
261.4999999999999
 31
0.0000000000000000
  0
LINE
  5
223
100
AcDbEntity
  8
WAKU0
  6
BYBLOCK
 62
0
370
    -2
100
AcDbLine
 10
101.3640578895821
 20
268.4618594058730
 30
0.0000000000000000
 11
102.0919983581144
 21
270.4618594058730
 31
0.0000000000000000
  0
LINE
  5
224
100
AcDbEntity
  8
WAKU0
  6
BYBLOCK
 62
0
370
    -2
100
AcDbLine
 10
104.4013994348729
 20
268.4618594058729
 30
0.0000000000000000
 11
105.1293399034054
 21
270.4618594058729
 31
0.0000000000000000
  0
LINE
  5
225
100
AcDbEntity
  8
WAKU0
  6
BYBLOCK
 62
0
370
    -2
100
AcDbLine
 10
103.7649213175704
 20
259.9999999999999
 30
0.0000000000000000
 11
104.7840379735158
 21
262.7999999999999
 31
0.0000000000000000
  0
LINE
  5
226
100
AcDbEntity
  8
WAKU0
  6
BYBLOCK
 62
0
370
    -2
100
AcDbLine
 10
101.6365657726185
 20
259.9999999999999
 30
0.0000000000000000
 11
102.6556824285639
 21
262.8000000000000
 31
0.0000000000000000
  0
LINE
  5
227
100
AcDbEntity
  8
WAKU0
  6
BYBLOCK
 62
0
370
    -2
100
AcDbLine
 10
101.6869054784107
 20
252.8031917354684
 30
0.0000000000000000
 11
104.6869054784103
 21
252.8031917354684
 31
0.0000000000000000
  0
LINE
  5
228
100
AcDbEntity
  8
WAKU0
  6
BYBLOCK
 62
0
370
    -2
100
AcDbLine
 10
102.1182444382657
 20
248.3715455417722
 30
0.0000000000000000
 11
104.3751533547217
 21
250.6284544582280
 31
0.0000000000000000
  0
LINE
  5
229
100
AcDbEntity
  8
WAKU0
  6
BYBLOCK
 62
0
370
    -2
100
AcDbLine
 10
103.8767565761340
 20
249.7652059153852
 30
0.0000000000000000
 11
104.3751533547218
 21
250.6284544582279
 31
0.0000000000000000
  0
LINE
  5
22A
100
AcDbEntity
  8
WAKU0
  6
BYBLOCK
 62
0
370
    -2
100
AcDbLine
 10
103.5119048118791
 20
250.1300576796402
 30
0.0000000000000000
 11
104.3751533547219
 21
250.6284544582281
 31
0.0000000000000000
  0
LINE
  5
22B
100
AcDbEntity
  8
WAKU0
  6
BYBLOCK
 62
0
370
    -2
100
AcDbLine
 10
121.0363038044183
 20
253.5000000000000
 30
0.0000000000000000
 11
124.5853922863337
 21
253.5000000000000
 31
0.0000000000000000
  0
LINE
  5
22C
100
AcDbEntity
  8
WAKU0
  6
BYBLOCK
 62
0
370
    -2
100
AcDbLine
 10
123.3108480453760
 20
254.2000000000000
 30
0.0000000000000000
 11
122.3108480453760
 21
254.2000000000000
 31
0.0000000000000000
  0
LINE
  5
22D
100
AcDbEntity
  8
WAKU0
  6
BYBLOCK
 62
0
370
    -2
100
AcDbLine
 10
123.3108480453760
 20
252.8000000000000
 30
0.0000000000000000
 11
122.3108480453760
 21
252.8000000000000
 31
0.0000000000000000
  0
LINE
  5
22E
100
AcDbEntity
  8
WAKU0
  6
BYBLOCK
 62
0
370
    -2
100
AcDbLine
 10
122.7482517197915
 20
262.8000000000000
 30
0.0000000000000000
 11
122.7482517197915
 21
260.1999999999999
 31
0.0000000000000000
  0
LINE
  5
22F
100
AcDbEntity
  8
WAKU0
  6
BYBLOCK
 62
0
370
    -2
100
AcDbLine
 10
121.3073979988184
 20
264.0744111255647
 30
0.0000000000000000
 11
124.1355153517043
 21
266.9025284784506
 31
0.0000000000000000
  0
LINE
  5
230
100
AcDbEntity
  8
WAKU0
  6
BYBLOCK
 62
0
370
    -2
100
AcDbLine
 10
121.3073979988185
 20
264.0744111255648
 30
0.0000000000000000
 11
124.1355153517043
 21
264.0744111255648
 31
0.0000000000000000
  0
LINE
  5
231
100
AcDbEntity
  8
WAKU0
  6
BYBLOCK
 62
0
370
    -2
100
AcDbLine
 10
122.8984442761485
 20
268.5982531923036
 30
0.0000000000000000
 11
122.8984442761485
 21
270.6363937864297
 31
0.0000000000000000
  0
LINE
  5
232
100
AcDbEntity
  8
WAKU0
  6
BYBLOCK
 62
0
370
    -2
100
AcDbLine
 10
123.2223783672457
 20
274.7716521099359
 30
0.0000000000000000
 11
122.2126209892780
 21
271.9973665148419
 31
0.0000000000000000
  0
LINE
  5
233
100
AcDbEntity
  8
WAKU0
  6
BYBLOCK
 62
0
370
    -2
100
AcDbLine
 10
124.2865561397216
 20
274.7716521099358
 30
0.0000000000000000
 11
123.2767987617539
 21
271.9973665148418
 31
0.0000000000000000
  0
LINE
  5
234
100
AcDbEntity
  8
WAKU0
  6
BYBLOCK
 62
0
370
    -2
100
AcDbLine
 10
87.00000000000011
 20
282.4999999999997
 30
0.0000000000000000
 11
126.0000000000001
 21
282.4999999999998
 31
0.0000000000000000
  0
LINE
  5
235
100
AcDbEntity
  8
WAKU0
  6
BYBLOCK
 62
0
370
    -2
100
AcDbLine
 10
87.00000000000000
 20
247.5000000000000
 30
0.0000000000000000
 11
126.0000000000000
 21
247.5000000000001
 31
0.0000000000000000
  0
LINE
  5
236
100
AcDbEntity
  8
WAKU0
  6
BYBLOCK
 62
0
370
    -2
100
AcDbLine
 10
87.00000000000013
 20
275.4999999999997
 30
0.0000000000000000
 11
125.9999999999998
 21
275.4999999999998
 31
0.0000000000000000
  0
LINE
  5
237
100
AcDbEntity
  8
WAKU0
  6
BYBLOCK
 62
0
370
    -2
100
AcDbLine
 10
87.00000000000023
 20
286.9999999999963
 30
0.0000000000000000
 11
87.00000000000023
 21
247.5000000000001
 31
0.0000000000000000
  0
LINE
  5
238
100
AcDbEntity
  8
WAKU0
  6
BYBLOCK
 62
0
370
    -2
100
AcDbLine
 10
106.5000000000001
 20
247.5000000000001
 30
0.0000000000000000
 11
106.5000000000001
 21
282.4999999999999
 31
0.0000000000000000
  0
LINE
  5
239
100
AcDbEntity
  8
WAKU0
  6
BYBLOCK
 62
0
370
    -2
100
AcDbLine
 10
91.00000000000020
 20
263.5000000000001
 30
0.0000000000000000
 11
125.9999999999999
 21
263.5000000000001
 31
0.0000000000000000
  0
ARC
  5
23A
100
AcDbEntity
  8
WAKU0
  6
BYBLOCK
 62
0
370
    -2
100
AcDbCircle
 10
103.2579731700531
 20
256.7305554818134
 30
0.0000000000000000
 40
1.499999999999986
100
AcDbArc
 50
0.0000000000000000
 51
179.9999999999998
  0
CIRCLE
  5
23B
100
AcDbEntity
  8
WAKU0
  6
BYBLOCK
 62
0
370
    -2
100
AcDbCircle
 10
103.2466988964938
 20
261.4999999999999
 30
0.0000000000000000
 40
1.000000000000000
  0
CIRCLE
  5
23C
100
AcDbEntity
  8
WAKU0
  6
BYBLOCK
 62
0
370
    -2
100
AcDbCircle
 10
103.2466988964938
 20
265.5152648465381
 30
0.0000000000000000
 40
1.440256591413231
  0
ARC
  5
23D
100
AcDbEntity
  8
WAKU0
  6
BYBLOCK
 62
0
370
    -2
100
AcDbCircle
 10
103.1869054784105
 20
252.8031917354684
 30
0.0000000000000000
 40
1.499999999999986
100
AcDbArc
 50
0.0000000000000000
 51
179.9999999999998
  0
CIRCLE
  5
23E
100
AcDbEntity
  8
WAKU0
  6
BYBLOCK
 62
0
370
    -2
100
AcDbCircle
 10
122.7482517197916
 20
257.4999999999999
 30
0.0000000000000000
 40
1.104676391049921
  0
CIRCLE
  5
23F
100
AcDbEntity
  8
WAKU0
  6
BYBLOCK
 62
0
370
    -2
100
AcDbCircle
 10
122.7482517197916
 20
257.4999999999999
 30
0.0000000000000000
 40
0.7364509273666198
  0
CIRCLE
  5
240
100
AcDbEntity
  8
WAKU0
  6
BYBLOCK
 62
0
370
    -2
100
AcDbCircle
 10
122.7482517197916
 20
261.4999999999999
 30
0.0000000000000000
 40
1.000000000000000
  0
MTEXT
  5
241
100
AcDbEntity
  8
WAKU0
  6
BYBLOCK
 62
0
370
    -2
100
AcDbMText
 10
88.00000000000011
 20
285.7999990463248
 30
0.0000000000000000
 40
2.499999046325684
 41
0.0000000000000000
 44
0.6720000160217347
 71
     1
 72
     1
  1
{\H0.91x;形状・位置の精度の種類と記号}
 11
1.000000000000000
 21
0.0000000000000000
 31
0.0000000000000000
  7
KNJYOKO
  0
MTEXT
  5
242
100
AcDbEntity
  8
WAKU0
  6
BYBLOCK
 62
0
370
    -2
100
AcDbMText
 10
88.43579068439806
 20
280.1964218104948
 30
0.0000000000000000
 40
2.399999618530273
 41
0.0000000000000000
 44
0.6719999785423244
 71
     1
 72
     1
  1
{\H0.88x;種  類}
 11
1.000000000000000
 21
0.0000000000000000
 31
0.0000000000000000
  7
KNJYOKO
  0
MTEXT
  5
243
100
AcDbEntity
  8
WAKU0
  6
BYBLOCK
 62
0
370
    -2
100
AcDbMText
 10
101.1685393466073
 20
280.4006443369580
 30
0.0000000000000000
 40
2.399999618530273
 41
0.0000000000000000
 44
0.6719999785423244
 71
     1
 72
     1
  1
{\H0.76x;記号}
 11
1.000000000000000
 21
0.0000000000000000
 31
0.0000000000000000
  7
KNJYOKO
  0
MTEXT
  5
244
100
AcDbEntity
  8
WAKU0
  6
BYBLOCK
 62
0
370
    -2
100
AcDbMText
 10
120.6726886785652
 20
280.3325863426397
 30
0.0000000000000000
 40
2.399999618530273
 41
0.0000000000000000
 44
0.6719999785423244
 71
     1
 72
     1
  1
{\H0.76x;記号}
 11
1.000000000000000
 21
0.0000000000000000
 31
0.0000000000000000
  7
KNJYOKO
  0
MTEXT
  5
245
100
AcDbEntity
  8
WAKU0
  6
BYBLOCK
 62
0
370
    -2
100
AcDbMText
 10
107.9357906843981
 20
280.1964218104948
 30
0.0000000000000000
 40
2.399999618530273
 41
0.0000000000000000
 44
0.6719999785423244
 71
     1
 72
     1
  1
{\H0.88x;種  類}
 11
1.000000000000000
 21
0.0000000000000000
 31
0.0000000000000000
  7
KNJYOKO
  0
MTEXT
  5
246
100
AcDbEntity
  8
WAKU0
  6
BYBLOCK
 62
0
370
    -2
100
AcDbMText
 10
92.00000000000011
 20
274.4999990463256
 30
0.0000000000000000
 40
2.499999046325684
 41
0.0000000000000000
 44
0.6720000160217347
 71
     1
 72
     1
  1
{\H0.75x;真直度}
 11
1.000000000000000
 21
0.0000000000000000
 31
0.0000000000000000
  7
KNJYOKO
  0
MTEXT
  5
247
100
AcDbEntity
  8
WAKU0
  6
BYBLOCK
 62
0
370
    -2
100
AcDbMText
 10
92.00000000000011
 20
270.4999990463256
 30
0.0000000000000000
 40
2.499999046325684
 41
0.0000000000000000
 44
0.6720000160217347
 71
     1
 72
     1
  1
{\H0.75x;平面度}
 11
1.000000000000000
 21
0.0000000000000000
 31
0.0000000000000000
  7
KNJYOKO
  0
MTEXT
  5
248
100
AcDbEntity
  8
WAKU0
  6
BYBLOCK
 62
0
370
    -2
100
AcDbMText
 10
92.00000000000011
 20
266.4999990463257
 30
0.0000000000000000
 40
2.499999046325684
 41
0.0000000000000000
 44
0.6720000160217347
 71
     1
 72
     1
  1
{\H0.75x;真円度}
 11
1.000000000000000
 21
0.0000000000000000
 31
0.0000000000000000
  7
KNJYOKO
  0
MTEXT
  5
249
100
AcDbEntity
  8
WAKU0
  6
BYBLOCK
 62
0
370
    -2
100
AcDbMText
 10
92.00000000000011
 20
262.4999990463257
 30
0.0000000000000000
 40
2.499999046325684
 41
0.0000000000000000
 44
0.6720000160217347
 71
     1
 72
     1
  1
{\H0.75x;円筒度}
 11
1.000000000000000
 21
0.0000000000000000
 31
0.0000000000000000
  7
KNJYOKO
  0
MTEXT
  5
24A
100
AcDbEntity
  8
WAKU0
  6
BYBLOCK
 62
0
370
    -2
100
AcDbMText
 10
92.00000000000011
 20
258.4999990463257
 30
0.0000000000000000
 40
2.499999046325684
 41
0.0000000000000000
 44
0.6720000160217347
 71
     1
 72
     1
  1
{\H0.75x;線輪郭}
 11
1.000000000000000
 21
0.0000000000000000
 31
0.0000000000000000
  7
KNJYOKO
  0
MTEXT
  5
24B
100
AcDbEntity
  8
WAKU0
  6
BYBLOCK
 62
0
370
    -2
100
AcDbMText
 10
92.17466758489525
 20
254.9832890823921
 30
0.0000000000000000
 40
2.499999046325684
 41
0.0000000000000000
 44
0.6720000160217347
 71
     1
 72
     1
  1
{\H0.75x;面輪郭}
 11
1.000000000000000
 21
0.0000000000000000
 31
0.0000000000000000
  7
KNJYOKO
  0
MTEXT
  5
24C
100
AcDbEntity
  8
WAKU0
  6
BYBLOCK
 62
0
370
    -2
100
AcDbMText
 10
88.91256640961143
 20
250.7722609840460
 30
0.0000000000000000
 40
2.499999046325684
 41
0.0000000000000000
 44
0.6720000160217347
 71
     1
 72
     1
  1
{\H0.85x;振  レ}
 11
1.000000000000000
 21
0.0000000000000000
 31
0.0000000000000000
  7
KNJYOKO
  0
MTEXT
  5
24D
100
AcDbEntity
  8
WAKU0
  6
BYBLOCK
 62
0
370
    -2
100
AcDbMText
 10
111.5000000000001
 20
274.4999990463256
 30
0.0000000000000000
 40
2.499999046325684
 41
0.0000000000000000
 44
0.6720000160217347
 71
     1
 72
     1
  1
{\H0.75x;平行度}
 11
1.000000000000000
 21
0.0000000000000000
 31
0.0000000000000000
  7
KNJYOKO
  0
MTEXT
  5
24E
100
AcDbEntity
  8
WAKU0
  6
BYBLOCK
 62
0
370
    -2
100
AcDbMText
 10
111.5000000000001
 20
270.4999990463256
 30
0.0000000000000000
 40
2.499999046325684
 41
0.0000000000000000
 44
0.6720000160217347
 71
     1
 72
     1
  1
{\H0.75x;直角度}
 11
1.000000000000000
 21
0.0000000000000000
 31
0.0000000000000000
  7
KNJYOKO
  0
MTEXT
  5
24F
100
AcDbEntity
  8
WAKU0
  6
BYBLOCK
 62
0
370
    -2
100
AcDbMText
 10
111.5000000000001
 20
266.4999990463257
 30
0.0000000000000000
 40
2.499999046325684
 41
0.0000000000000000
 44
0.6720000160217347
 71
     1
 72
     1
  1
{\H0.75x;傾斜度}
 11
1.000000000000000
 21
0.0000000000000000
 31
0.0000000000000000
  7
KNJYOKO
  0
MTEXT
  5
250
100
AcDbEntity
  8
WAKU0
  6
BYBLOCK
 62
0
370
    -2
100
AcDbMText
 10
111.5000000000001
 20
262.4999990463257
 30
0.0000000000000000
 40
2.499999046325684
 41
0.0000000000000000
 44
0.6720000160217347
 71
     1
 72
     1
  1
{\H0.75x;位置度}
 11
1.000000000000000
 21
0.0000000000000000
 31
0.0000000000000000
  7
KNJYOKO
  0
MTEXT
  5
251
100
AcDbEntity
  8
WAKU0
  6
BYBLOCK
 62
0
370
    -2
100
AcDbMText
 10
111.5000000000001
 20
258.4999990463257
 30
0.0000000000000000
 40
2.499999046325684
 41
0.0000000000000000
 44
0.6720000160217347
 71
     1
 72
     1
  1
{\H0.75x;同軸度}
 11
1.000000000000000
 21
0.0000000000000000
 31
0.0000000000000000
  7
KNJYOKO
  0
MTEXT
  5
252
100
AcDbEntity
  8
WAKU0
  6
BYBLOCK
 62
0
370
    -2
100
AcDbMText
 10
111.5000000000001
 20
254.4999990463257
 30
0.0000000000000000
 40
2.499999046325684
 41
0.0000000000000000
 44
0.6720000160217347
 71
     1
 72
     1
  1
{\H0.75x;対称度}
 11
1.000000000000000
 21
0.0000000000000000
 31
0.0000000000000000
  7
KNJYOKO
  0
MTEXT
  5
253
100
AcDbEntity
  8
WAKU0
  6
BYBLOCK
 62
0
370
    -2
100
AcDbMText
 10
107.1049712472752
 20
250.8043725127493
 30
0.0000000000000000
 40
2.499999046325684
 41
0.0000000000000000
 44
0.6720000160217347
 71
     1
 72
     1
  1
{\H0.77x;基準線・面}
 11
1.000000000000000
 21
0.0000000000000000
 31
0.0000000000000000
  7
KNJYOKO
  0
LINE
  5
254
100
AcDbEntity
  8
WAKU0
  6
BYBLOCK
 62
0
370
    -2
100
AcDbLine
 10
91.00000000000011
 20
251.5000000000000
 30
0.0000000000000000
 11
91.00000000000011
 21
275.4999999999999
 31
0.0000000000000000
  0
LINE
  5
255
100
AcDbEntity
  8
WAKU0
  6
BYBLOCK
 62
0
370
    -2
100
AcDbLine
 10
100.0000000000001
 20
247.5000000000001
 30
0.0000000000000000
 11
100.0000000000001
 21
282.4999999999999
 31
0.0000000000000000
  0
LINE
  5
256
100
AcDbEntity
  8
WAKU0
  6
BYBLOCK
 62
0
370
    -2
100
AcDbLine
 10
110.5000000000001
 20
251.5000000000000
 30
0.0000000000000000
 11
110.5000000000001
 21
275.4999999999999
 31
0.0000000000000000
  0
LINE
  5
257
100
AcDbEntity
  8
WAKU0
  6
BYBLOCK
 62
0
370
    -2
100
AcDbLine
 10
119.5000000000001
 20
247.5000000000001
 30
0.0000000000000000
 11
119.5000000000001
 21
282.4999999999999
 31
0.0000000000000000
  0
LINE
  5
258
100
AcDbEntity
  8
WAKU0
  6
BYBLOCK
 62
0
370
    -2
100
AcDbLine
 10
126.0000000000001
 20
247.5000000000001
 30
0.0000000000000000
 11
126.0000000000001
 21
286.9999999999999
 31
0.0000000000000000
  0
LINE
  5
259
100
AcDbEntity
  8
WAKU0
  6
BYBLOCK
 62
0
370
    -2
100
AcDbLine
 10
110.5000000000001
 20
255.5000000000000
 30
0.0000000000000000
 11
126.0000000000001
 21
255.5000000000000
 31
0.0000000000000000
  0
LINE
  5
25A
100
AcDbEntity
  8
WAKU0
  6
BYBLOCK
 62
0
370
    -2
100
AcDbLine
 10
110.5000000000001
 20
259.5000000000000
 30
0.0000000000000000
 11
126.0000000000001
 21
259.5000000000000
 31
0.0000000000000000
  0
LINE
  5
25B
100
AcDbEntity
  8
WAKU0
  6
BYBLOCK
 62
0
370
    -2
100
AcDbLine
 10
110.5000000000001
 20
267.5000000000001
 30
0.0000000000000000
 11
126.0000000000001
 21
267.5000000000001
 31
0.0000000000000000
  0
LINE
  5
25C
100
AcDbEntity
  8
WAKU0
  6
BYBLOCK
 62
0
370
    -2
100
AcDbLine
 10
110.5000000000001
 20
271.4999999999996
 30
0.0000000000000000
 11
126.0000000000016
 21
271.4999999999996
 31
0.0000000000000000
  0
LINE
  5
25D
100
AcDbEntity
  8
WAKU0
  6
BYBLOCK
 62
0
370
    -2
100
AcDbLine
 10
91.00000000000011
 20
271.4999999999999
 30
0.0000000000000000
 11
106.5000000000001
 21
271.4999999999999
 31
0.0000000000000000
  0
LINE
  5
25E
100
AcDbEntity
  8
WAKU0
  6
BYBLOCK
 62
0
370
    -2
100
AcDbLine
 10
91.00000000000017
 20
267.5000000000000
 30
0.0000000000000000
 11
106.5000000000001
 21
267.5000000000000
 31
0.0000000000000000
  0
LINE
  5
25F
100
AcDbEntity
  8
WAKU0
  6
BYBLOCK
 62
0
370
    -2
100
AcDbLine
 10
91.50156144527961
 20
259.5000000000000
 30
0.0000000000000000
 11
106.5000000000001
 21
259.5000000000000
 31
0.0000000000000000
  0
LINE
  5
260
100
AcDbEntity
  8
WAKU0
  6
BYBLOCK
 62
0
370
    -2
100
AcDbLine
 10
91.00000000000017
 20
255.5000000000000
 30
0.0000000000000000
 11
106.5000000000001
 21
255.5000000000000
 31
0.0000000000000000
  0
LINE
  5
261
100
AcDbEntity
  8
WAKU0
  6
BYBLOCK
 62
0
370
    -2
100
AcDbLine
 10
87.00000000000014
 20
251.5000000000001
 30
0.0000000000000000
 11
126.0000000000001
 21
251.5000000000001
 31
0.0000000000000000
  0
LINE
  5
262
100
AcDbEntity
  8
WAKU0
  6
BYBLOCK
 62
0
370
    -2
100
AcDbLine
 10
101.8311824646173
 20
273.3996670218928
 30
0.0000000000000000
 11
104.7310501077164
 21
273.3996670218929
 31
0.0000000000000000
  0
LINE
  5
263
100
AcDbEntity
  8
WAKU0
  6
BYBLOCK
 62
0
370
    -2
100
AcDbLine
 10
102.0919983581146
 20
270.4618594058719
 30
0.0000000000000000
 11
105.1293399034055
 21
270.4618594058720
 31
0.0000000000000000
  0
LINE
  5
264
100
AcDbEntity
  8
WAKU0
  6
BYBLOCK
 62
0
370
    -2
100
AcDbLine
 10
101.3640578895821
 20
268.4618594058701
 30
0.0000000000000000
 11
104.4013994348764
 21
268.4618594058701
 31
0.0000000000000000
  0
LINE
  5
265
100
AcDbEntity
  8
WAKU0
  6
BYBLOCK
 62
0
370
    -2
100
AcDbLine
 10
121.9486663247603
 20
268.5982531923036
 30
0.0000000000000000
 11
123.8731735892201
 21
268.5982531923036
 31
0.0000000000000000
  0
LINE
  5
266
100
AcDbEntity
  8
WAKU0
  6
BYBLOCK
 62
0
370
    -2
100
AcDbLine
 10
124.0482517197916
 20
261.4999999999999
 30
0.0000000000000000
 11
121.4482517197915
 21
261.4999999999999
 31
0.0000000000000000
  0
LINE
  5
267
100
AcDbEntity
  8
WAKU0
  6
BYBLOCK
 62
0
370
    -2
100
AcDbLine
 10
101.3640578895821
 20
268.4618594058730
 30
0.0000000000000000
 11
102.0919983581144
 21
270.4618594058730
 31
0.0000000000000000
  0
LINE
  5
268
100
AcDbEntity
  8
WAKU0
  6
BYBLOCK
 62
0
370
    -2
100
AcDbLine
 10
104.4013994348729
 20
268.4618594058729
 30
0.0000000000000000
 11
105.1293399034054
 21
270.4618594058729
 31
0.0000000000000000
  0
LINE
  5
269
100
AcDbEntity
  8
WAKU0
  6
BYBLOCK
 62
0
370
    -2
100
AcDbLine
 10
103.7649213175704
 20
259.9999999999999
 30
0.0000000000000000
 11
104.7840379735158
 21
262.7999999999999
 31
0.0000000000000000
  0
LINE
  5
26A
100
AcDbEntity
  8
WAKU0
  6
BYBLOCK
 62
0
370
    -2
100
AcDbLine
 10
101.6365657726185
 20
259.9999999999999
 30
0.0000000000000000
 11
102.6556824285639
 21
262.8000000000000
 31
0.0000000000000000
  0
LINE
  5
26B
100
AcDbEntity
  8
WAKU0
  6
BYBLOCK
 62
0
370
    -2
100
AcDbLine
 10
101.6869054784107
 20
252.8031917354684
 30
0.0000000000000000
 11
104.6869054784103
 21
252.8031917354684
 31
0.0000000000000000
  0
LINE
  5
26C
100
AcDbEntity
  8
WAKU0
  6
BYBLOCK
 62
0
370
    -2
100
AcDbLine
 10
102.1182444382657
 20
248.3715455417722
 30
0.0000000000000000
 11
104.3751533547217
 21
250.6284544582280
 31
0.0000000000000000
  0
LINE
  5
26D
100
AcDbEntity
  8
WAKU0
  6
BYBLOCK
 62
0
370
    -2
100
AcDbLine
 10
103.8767565761340
 20
249.7652059153852
 30
0.0000000000000000
 11
104.3751533547218
 21
250.6284544582279
 31
0.0000000000000000
  0
LINE
  5
26E
100
AcDbEntity
  8
WAKU0
  6
BYBLOCK
 62
0
370
    -2
100
AcDbLine
 10
103.5119048118791
 20
250.1300576796402
 30
0.0000000000000000
 11
104.3751533547219
 21
250.6284544582281
 31
0.0000000000000000
  0
LINE
  5
26F
100
AcDbEntity
  8
WAKU0
  6
BYBLOCK
 62
0
370
    -2
100
AcDbLine
 10
121.0363038044183
 20
253.5000000000000
 30
0.0000000000000000
 11
124.5853922863337
 21
253.5000000000000
 31
0.0000000000000000
  0
LINE
  5
270
100
AcDbEntity
  8
WAKU0
  6
BYBLOCK
 62
0
370
    -2
100
AcDbLine
 10
123.3108480453760
 20
254.2000000000000
 30
0.0000000000000000
 11
122.3108480453760
 21
254.2000000000000
 31
0.0000000000000000
  0
LINE
  5
271
100
AcDbEntity
  8
WAKU0
  6
BYBLOCK
 62
0
370
    -2
100
AcDbLine
 10
123.3108480453760
 20
252.8000000000000
 30
0.0000000000000000
 11
122.3108480453760
 21
252.8000000000000
 31
0.0000000000000000
  0
LINE
  5
272
100
AcDbEntity
  8
WAKU0
  6
BYBLOCK
 62
0
370
    -2
100
AcDbLine
 10
122.7482517197915
 20
262.8000000000000
 30
0.0000000000000000
 11
122.7482517197915
 21
260.1999999999999
 31
0.0000000000000000
  0
LINE
  5
273
100
AcDbEntity
  8
WAKU0
  6
BYBLOCK
 62
0
370
    -2
100
AcDbLine
 10
121.3073979988184
 20
264.0744111255647
 30
0.0000000000000000
 11
124.1355153517043
 21
266.9025284784506
 31
0.0000000000000000
  0
LINE
  5
274
100
AcDbEntity
  8
WAKU0
  6
BYBLOCK
 62
0
370
    -2
100
AcDbLine
 10
121.3073979988185
 20
264.0744111255648
 30
0.0000000000000000
 11
124.1355153517043
 21
264.0744111255648
 31
0.0000000000000000
  0
LINE
  5
275
100
AcDbEntity
  8
WAKU0
  6
BYBLOCK
 62
0
370
    -2
100
AcDbLine
 10
122.8984442761485
 20
268.5982531923036
 30
0.0000000000000000
 11
122.8984442761485
 21
270.6363937864297
 31
0.0000000000000000
  0
LINE
  5
276
100
AcDbEntity
  8
WAKU0
  6
BYBLOCK
 62
0
370
    -2
100
AcDbLine
 10
123.2223783672457
 20
274.7716521099359
 30
0.0000000000000000
 11
122.2126209892780
 21
271.9973665148419
 31
0.0000000000000000
  0
LINE
  5
277
100
AcDbEntity
  8
WAKU0
  6
BYBLOCK
 62
0
370
    -2
100
AcDbLine
 10
124.2865561397216
 20
274.7716521099358
 30
0.0000000000000000
 11
123.2767987617539
 21
271.9973665148418
 31
0.0000000000000000
  0
LINE
  5
278
100
AcDbEntity
  8
WAKU0
  6
BYBLOCK
 62
0
370
    -2
100
AcDbLine
 10
87.00000000000011
 20
282.4999999999997
 30
0.0000000000000000
 11
126.0000000000001
 21
282.4999999999998
 31
0.0000000000000000
  0
LINE
  5
279
100
AcDbEntity
  8
WAKU0
  6
BYBLOCK
 62
0
370
    -2
100
AcDbLine
 10
87.00000000000000
 20
247.5000000000000
 30
0.0000000000000000
 11
126.0000000000000
 21
247.5000000000001
 31
0.0000000000000000
  0
LINE
  5
27A
100
AcDbEntity
  8
WAKU0
  6
BYBLOCK
 62
0
370
    -2
100
AcDbLine
 10
87.00000000000013
 20
275.4999999999997
 30
0.0000000000000000
 11
125.9999999999998
 21
275.4999999999998
 31
0.0000000000000000
  0
LINE
  5
27B
100
AcDbEntity
  8
WAKU0
  6
BYBLOCK
 62
0
370
    -2
100
AcDbLine
 10
106.5000000000001
 20
247.5000000000001
 30
0.0000000000000000
 11
106.5000000000001
 21
282.4999999999999
 31
0.0000000000000000
  0
LINE
  5
27C
100
AcDbEntity
  8
WAKU0
  6
BYBLOCK
 62
0
370
    -2
100
AcDbLine
 10
91.00000000000020
 20
263.5000000000001
 30
0.0000000000000000
 11
125.9999999999999
 21
263.5000000000001
 31
0.0000000000000000
  0
MTEXT
  5
27D
100
AcDbEntity
  8
WAKU0
  6
BYBLOCK
 62
0
370
    -2
100
AcDbMText
 10
87.50000000000011
 20
271.3000001907348
 30
0.0000000000000000
 40
2.800000190734863
 41
0.0000000000000000
 71
     1
 72
     3
  1
形　　　状
 11
1.000000000000000
 21
0.0000000000000000
 31
0.0000000000000000
  7
KNJTATE
  0
MTEXT
  5
27E
100
AcDbEntity
  8
WAKU0
  6
BYBLOCK
 62
0
370
    -2
100
AcDbMText
 10
107.0000000000001
 20
273.8000001907348
 30
0.0000000000000000
 40
2.800000190734863
 41
0.0000000000000000
 71
     1
 72
     3
  1
方　向
 11
1.000000000000000
 21
0.0000000000000000
 31
0.0000000000000000
  7
KNJTATE
  0
MTEXT
  5
27F
100
AcDbEntity
  8
WAKU0
  6
BYBLOCK
 62
0
370
    -2
100
AcDbMText
 10
107.0000000000001
 20
261.8000001907349
 30
0.0000000000000000
 40
2.800000190734863
 41
0.0000000000000000
 71
     1
 72
     3
  1
位　置
 11
1.000000000000000
 21
0.0000000000000000
 31
0.0000000000000000
  7
KNJTATE
  0
LINE
  5
280
100
AcDbEntity
  8
WAKU0
  6
BYBLOCK
 62
0
370
    -2
100
AcDbLine
 10
123.8713639848459
 20
248.2815045122796
 30
0.0000000000000000
 11
121.6254053952216
 21
248.2815045122794
 31
0.0000000000000000
  0
POLYLINE
  5
281
100
AcDbEntity
  8
WAKU0
  6
BYBLOCK
 62
0
370
    -2
100
AcDb2dPolyline
 66
     1
 10
0.0000000000000000
 20
0.0000000000000000
 30
0.0000000000000000
 70
     1
 40
0.5000000000000000
 41
0.5000000000000000
  0
VERTEX
  5
282
100
AcDbEntity
  8
WAKU0
  6
BYBLOCK
 62
0
370
    -2
100
AcDbVertex
100
AcDb2dVertex
 10
122.9983846900337
 20
248.9298569104337
 30
0.0000000000000000
 42
1.000000000000000
  0
VERTEX
  5
283
100
AcDbEntity
  8
WAKU0
  6
BYBLOCK
 62
0
370
    -2
100
AcDbVertex
100
AcDb2dVertex
 10
122.4983846900337
 20
248.9298569104337
 30
0.0000000000000000
 42
1.000000000000000
  0
SEQEND
  5
284
100
AcDbEntity
  8
WAKU0
  6
BYBLOCK
 62
0
370
    -2
  0
LINE
  5
285
100
AcDbEntity
  8
WAKU0
  6
BYBLOCK
 62
0
370
    -2
100
AcDbLine
 10
123.5249538052654
 20
248.4815045227105
 30
0.0000000000000000
 11
122.7483846900338
 21
249.8265616858805
 31
0.0000000000000000
  0
LINE
  5
286
100
AcDbEntity
  8
WAKU0
  6
BYBLOCK
 62
0
370
    -2
100
AcDbLine
 10
122.7483846900338
 20
249.8265616858803
 30
0.0000000000000000
 11
121.9718155748021
 21
248.4815045227102
 31
0.0000000000000000
  0
LINE
  5
287
100
AcDbEntity
  8
WAKU0
  6
BYBLOCK
 62
0
370
    -2
100
AcDbLine
 10
121.9718155748021
 20
248.4815045227103
 30
0.0000000000000000
 11
123.5249538052654
 21
248.4815045227104
 31
0.0000000000000000
  0
LINE
  5
288
100
AcDbEntity
  8
WAKU0
  6
BYBLOCK
 62
0
370
    -2
100
AcDbLine
 10
123.8713639728014
 20
248.2815045122796
 30
0.0000000000000000
 11
122.7483846900338
 21
250.2265616858805
 31
0.0000000000000000
  0
LINE
  5
289
100
AcDbEntity
  8
WAKU0
  6
BYBLOCK
 62
0
370
    -2
100
AcDbLine
 10
122.7483846900338
 20
250.2265616858805
 30
0.0000000000000000
 11
121.6254054072661
 21
248.2815045122795
 31
0.0000000000000000
  0
LINE
  5
28A
100
AcDbEntity
  8
WAKU0
  6
BYBLOCK
 62
0
370
    -2
100
AcDbLine
 10
87.00000000000023
 20
286.9999999999963
 30
0.0000000000000000
 11
126.0000000000001
 21
286.9999999999999
 31
0.0000000000000000
  0
ENDBLK
  5
28B
100
AcDbEntity
  8
WAKU0
  6
BYBLOCK
 62
12
100
AcDbBlockEnd
  0
ENDSEC
  0
SECTION
  2
ENTITIES
  0
LINE
  5
46
100
AcDbEntity
  8
MAIN0
  6
CONTINUOUS
 62
3
100
AcDbLine
 10
151.6155315933087
 20
158.5546563530077
 30
0.0000000000000000
 11
151.6155315933087
 21
171.2546563530077
 31
0.0000000000000000
  0
LINE
  5
47
100
AcDbEntity
  8
MAIN0
  6
CONTINUOUS
 62
3
100
AcDbLine
 10
151.6155315933087
 20
185.0546563530077
 30
0.0000000000000000
 11
151.6155315933087
 21
197.7546563530077
 31
0.0000000000000000
  0
ARC
  5
48
100
AcDbEntity
  8
MAIN0
  6
CONTINUOUS
 62
3
100
AcDbCircle
 10
151.2155315933086
 20
171.2546563530077
 30
0.0000000000000000
 40
0.4000000000000000
100
AcDbArc
 50
0.0000000000000000
 51
90.00000000000000
  0
ARC
  5
49
100
AcDbEntity
  8
MAIN0
  6
CONTINUOUS
 62
3
100
AcDbCircle
 10
151.2155315933086
 20
185.0546563530077
 30
0.0000000000000000
 40
0.4000000000000000
100
AcDbArc
 50
270.0000000000000
 51
360.0000000000000
  0
LINE
  5
4A
100
AcDbEntity
  8
MAIN0
  6
CENTER
 62
3
100
AcDbLine
 10
145.1155315933087
 20
181.2462025585708
 30
0.0000000000000000
 11
145.1155315933087
 21
185.8574534271914
 31
0.0000000000000000
  0
LINE
  5
4B
100
AcDbEntity
  8
MAIN0
  6
CONTINUOUS
 62
3
100
AcDbLine
 10
144.4084248121221
 20
183.6117631341942
 30
0.0000000000000000
 11
143.3655315933087
 21
184.6546563530077
 31
0.0000000000000000
  0
LINE
  5
4C
100
AcDbEntity
  8
MAIN0
  6
CONTINUOUS
 62
3
100
AcDbLine
 10
145.8226383744952
 20
183.6117631341942
 30
0.0000000000000000
 11
146.8655315933087
 21
184.6546563530077
 31
0.0000000000000000
  0
ARC
  5
4D
100
AcDbEntity
  8
MAIN0
  6
CONTINUOUS
 62
3
100
AcDbCircle
 10
145.1155315933087
 20
184.3188699153808
 30
0.0000000000000000
 40
1.000000000000000
100
AcDbArc
 50
225.0000000000000
 51
315.0000000000001
  0
LINE
  5
4E
100
AcDbEntity
  8
MAIN0
  6
CONTINUOUS
 62
3
100
AcDbLine
 10
130.5155315933087
 20
184.6546563530077
 30
0.0000000000000000
 11
143.3655315933087
 21
184.6546563530077
 31
0.0000000000000000
  0
LINE
  5
4F
100
AcDbEntity
  8
MAIN0
  6
CONTINUOUS
 62
3
100
AcDbLine
 10
146.8655315933087
 20
184.6546563530077
 30
0.0000000000000000
 11
151.2155315933086
 21
184.6546563530077
 31
0.0000000000000000
  0
LINE
  5
50
100
AcDbEntity
  8
MAIN0
  6
CONTINUOUS
 62
3
100
AcDbLine
 10
144.4084248121221
 20
172.6975495718211
 30
0.0000000000000000
 11
143.3655315933087
 21
171.6546563530077
 31
0.0000000000000000
  0
ARC
  5
51
100
AcDbEntity
  8
MAIN0
  6
CONTINUOUS
 62
3
100
AcDbCircle
 10
145.1155315933087
 20
171.9904427906346
 30
0.0000000000000000
 40
1.000000000000000
100
AcDbArc
 50
44.99999999999990
 51
135.0000000000000
  0
LINE
  5
52
100
AcDbEntity
  8
MAIN0
  6
CONTINUOUS
 62
3
100
AcDbLine
 10
145.8226383744952
 20
172.6975495718211
 30
0.0000000000000000
 11
146.8655315933087
 21
171.6546563530077
 31
0.0000000000000000
  0
LINE
  5
53
100
AcDbEntity
  8
MAIN0
  6
CONTINUOUS
 62
3
100
AcDbLine
 10
130.5155315933087
 20
171.6546563530077
 30
0.0000000000000000
 11
143.3655315933087
 21
171.6546563530077
 31
0.0000000000000000
  0
LINE
  5
54
100
AcDbEntity
  8
MAIN0
  6
CONTINUOUS
 62
3
100
AcDbLine
 10
146.8655315933087
 20
171.6546563530077
 30
0.0000000000000000
 11
151.2155315933086
 21
171.6546563530077
 31
0.0000000000000000
  0
LINE
  5
55
100
AcDbEntity
  8
MAIN0
  6
CONTINUOUS
 62
3
100
AcDbLine
 10
130.1155315933087
 20
172.0546563530077
 30
0.0000000000000000
 11
130.1155315933087
 21
184.2546563530077
 31
0.0000000000000000
  0
LINE
  5
56
100
AcDbEntity
  8
MAIN0
  6
CONTINUOUS
 62
3
100
AcDbLine
 10
130.1155315933087
 20
172.0546563530077
 30
0.0000000000000000
 11
130.5155315933087
 21
171.6546563530077
 31
0.0000000000000000
  0
LINE
  5
57
100
AcDbEntity
  8
MAIN0
  6
CONTINUOUS
 62
3
100
AcDbLine
 10
130.1155315933087
 20
184.2546563530077
 30
0.0000000000000000
 11
130.5155315933087
 21
184.6546563530077
 31
0.0000000000000000
  0
LINE
  5
58
100
AcDbEntity
  8
MAIN0
  6
CONTINUOUS
 62
3
100
AcDbLine
 10
175.6155315933087
 20
148.5546563530077
 30
0.0000000000000000
 11
175.6155315933087
 21
207.7546563530077
 31
0.0000000000000000
  0
LINE
  5
59
100
AcDbEntity
  8
MAIN0
  6
CONTINUOUS
 62
3
100
AcDbLine
 10
156.0155315933087
 20
148.1546563530077
 30
0.0000000000000000
 11
175.2155315933086
 21
148.1546563530077
 31
0.0000000000000000
  0
LINE
  5
5A
100
AcDbEntity
  8
MAIN0
  6
CONTINUOUS
 62
3
100
AcDbLine
 10
156.0155315933087
 20
208.1546563530077
 30
0.0000000000000000
 11
175.2155315933086
 21
208.1546563530077
 31
0.0000000000000000
  0
LINE
  5
5B
100
AcDbEntity
  8
MAIN0
  6
CONTINUOUS
 62
3
100
AcDbLine
 10
175.2155315933086
 20
208.1546563530077
 30
0.0000000000000000
 11
175.6155315933087
 21
207.7546563530077
 31
0.0000000000000000
  0
LINE
  5
5C
100
AcDbEntity
  8
MAIN0
  6
CONTINUOUS
 62
3
100
AcDbLine
 10
175.2155315933086
 20
148.1546563530077
 30
0.0000000000000000
 11
175.6155315933087
 21
148.5546563530077
 31
0.0000000000000000
  0
LINE
  5
5D
100
AcDbEntity
  8
MAIN0
  6
CONTINUOUS
 62
3
100
AcDbLine
 10
155.6155315933087
 20
207.7546563530077
 30
0.0000000000000000
 11
156.0155315933087
 21
208.1546563530077
 31
0.0000000000000000
  0
LINE
  5
5E
100
AcDbEntity
  8
MAIN0
  6
CONTINUOUS
 62
3
100
AcDbLine
 10
155.6155315933087
 20
148.5546563530077
 30
0.0000000000000000
 11
156.0155315933087
 21
148.1546563530077
 31
0.0000000000000000
  0
LINE
  5
5F
100
AcDbEntity
  8
MAIN0
  6
CENTER
 62
3
100
AcDbLine
 10
82.59364399425650
 20
138.2626857702698
 30
0.0000000000000000
 11
82.59364399425650
 21
213.4389184429946
 31
0.0000000000000000
  0
CIRCLE
  5
60
100
AcDbEntity
  8
MAIN0
  6
CONTINUOUS
 62
3
100
AcDbCircle
 10
82.59364399425650
 20
178.1546563530077
 30
0.0000000000000000
 40
6.500000000000000
  0
LINE
  5
61
100
AcDbEntity
  8
MAIN0
  6
CONTINUOUS
 62
3
100
AcDbLine
 10
80.09364399425650
 20
189.6546563530077
 30
0.0000000000000000
 11
80.09364399425650
 21
190.6546563530077
 31
0.0000000000000000
  0
LINE
  5
62
100
AcDbEntity
  8
MAIN0
  6
CONTINUOUS
 62
3
100
AcDbLine
 10
85.09364399425650
 20
189.6546563530077
 30
0.0000000000000000
 11
85.09364399425650
 21
190.6546563530077
 31
0.0000000000000000
  0
ARC
  5
63
100
AcDbEntity
  8
MAIN0
  6
CONTINUOUS
 62
3
100
AcDbCircle
 10
82.59364399425650
 20
189.6546563530077
 30
0.0000000000000000
 40
2.500000000000000
100
AcDbArc
 50
180.0000000000000
 51
360.0000000000000
  0
ARC
  5
64
100
AcDbEntity
  8
MAIN0
  6
CONTINUOUS
 62
3
100
AcDbCircle
 10
82.59364399425650
 20
190.6546563530077
 30
0.0000000000000000
 40
2.500000000000000
100
AcDbArc
 50
0.0000000000000000
 51
180.0000000000000
  0
LINE
  5
65
100
AcDbEntity
  8
MAIN0
  6
CONTINUOUS
 62
3
100
AcDbLine
 10
63.59364399425652
 20
198.1546563530077
 30
0.0000000000000000
 11
101.5936439942565
 21
198.1546563530077
 31
0.0000000000000000
  0
LINE
  5
66
100
AcDbEntity
  8
MAIN0
  6
CONTINUOUS
 62
3
100
AcDbLine
 10
62.59364399425652
 20
159.1546563530077
 30
0.0000000000000000
 11
62.59364399425652
 21
197.1546563530077
 31
0.0000000000000000
  0
LINE
  5
67
100
AcDbEntity
  8
MAIN0
  6
CONTINUOUS
 62
3
100
AcDbLine
 10
101.5936439942565
 20
158.1546563530077
 30
0.0000000000000000
 11
63.59364399425652
 21
158.1546563530077
 31
0.0000000000000000
  0
LINE
  5
68
100
AcDbEntity
  8
MAIN0
  6
CONTINUOUS
 62
3
100
AcDbLine
 10
102.5936439942565
 20
197.1546563530076
 30
0.0000000000000000
 11
102.5936439942565
 21
159.1546563530077
 31
0.0000000000000000
  0
LINE
  5
69
100
AcDbEntity
  8
MAIN0
  6
CONTINUOUS
 62
3
100
AcDbLine
 10
62.59364399425652
 20
159.1546563530077
 30
0.0000000000000000
 11
63.59364399425652
 21
158.1546563530077
 31
0.0000000000000000
  0
LINE
  5
6A
100
AcDbEntity
  8
MAIN0
  6
CONTINUOUS
 62
3
100
AcDbLine
 10
101.5936439942565
 20
158.1546563530077
 30
0.0000000000000000
 11
102.5936439942565
 21
159.1546563530077
 31
0.0000000000000000
  0
LINE
  5
6B
100
AcDbEntity
  8
MAIN0
  6
CONTINUOUS
 62
3
100
AcDbLine
 10
102.5936439942565
 20
197.1546563530076
 30
0.0000000000000000
 11
101.5936439942565
 21
198.1546563530076
 31
0.0000000000000000
  0
LINE
  5
6C
100
AcDbEntity
  8
MAIN0
  6
CONTINUOUS
 62
3
100
AcDbLine
 10
63.59364399425654
 20
198.1546563530077
 30
0.0000000000000000
 11
62.59364399425652
 21
197.1546563530077
 31
0.0000000000000000
  0
CIRCLE
  5
6D
100
AcDbEntity
  8
MAIN0
  6
CONTINUOUS
 62
3
100
AcDbCircle
 10
82.59364399425650
 20
178.1546563530077
 30
0.0000000000000000
 40
30.00000000000000
  0
LINE
  5
6E
100
AcDbEntity
  8
MAIN0
  6
CONTINUOUS
 62
3
100
AcDbLine
 10
152.0155315933087
 20
198.1546563530077
 30
0.0000000000000000
 11
155.6155315933087
 21
198.1546563530077
 31
0.0000000000000000
  0
LINE
  5
6F
100
AcDbEntity
  8
MAIN0
  6
CONTINUOUS
 62
3
100
AcDbLine
 10
155.6155315933087
 20
148.5546563530077
 30
0.0000000000000000
 11
155.6155315933087
 21
158.1546563530077
 31
0.0000000000000000
  0
LINE
  5
70
100
AcDbEntity
  8
MAIN0
  6
CONTINUOUS
 62
3
100
AcDbLine
 10
155.6155315933087
 20
198.1546563530077
 30
0.0000000000000000
 11
155.6155315933087
 21
207.7546563530077
 31
0.0000000000000000
  0
LINE
  5
71
100
AcDbEntity
  8
MAIN0
  6
CONTINUOUS
 62
3
100
AcDbLine
 10
151.6155315933087
 20
197.7546563530077
 30
0.0000000000000000
 11
152.0155315933087
 21
198.1546563530077
 31
0.0000000000000000
  0
LINE
  5
72
100
AcDbEntity
  8
MAIN0
  6
CONTINUOUS
 62
3
100
AcDbLine
 10
152.0155315933087
 20
158.1546563530077
 30
0.0000000000000000
 11
155.6155315933087
 21
158.1546563530077
 31
0.0000000000000000
  0
LINE
  5
73
100
AcDbEntity
  8
MAIN0
  6
CONTINUOUS
 62
3
100
AcDbLine
 10
152.0155315933087
 20
158.1546563530077
 30
0.0000000000000000
 11
151.6155315933087
 21
158.5546563530077
 31
0.0000000000000000
  0
LINE
  5
74
100
AcDbEntity
  8
MAIN0
  6
CONTINUOUS
 62
3
100
AcDbLine
 10
151.6155315933087
 20
169.1546563530077
 30
0.0000000000000000
 11
154.6155315933087
 21
169.1546563530077
 31
0.0000000000000000
  0
LINE
  5
75
100
AcDbEntity
  8
MAIN0
  6
CONTINUOUS
 62
3
100
AcDbLine
 10
151.6155315933087
 20
163.1546563530077
 30
0.0000000000000000
 11
154.6155315933087
 21
163.1546563530077
 31
0.0000000000000000
  0
LINE
  5
76
100
AcDbEntity
  8
MAIN0
  6
CONTINUOUS
 62
3
100
AcDbLine
 10
154.6155315933087
 20
163.1546563530077
 30
0.0000000000000000
 11
154.6155315933087
 21
169.1546563530077
 31
0.0000000000000000
  0
LINE
  5
77
100
AcDbEntity
  8
MAIN0
  6
CONTINUOUS
 62
3
100
AcDbLine
 10
151.6155315933087
 20
187.1546563530077
 30
0.0000000000000000
 11
154.6155315933087
 21
187.1546563530077
 31
0.0000000000000000
  0
LINE
  5
78
100
AcDbEntity
  8
MAIN0
  6
CONTINUOUS
 62
3
100
AcDbLine
 10
151.6155315933087
 20
193.1546563530077
 30
0.0000000000000000
 11
154.6155315933087
 21
193.1546563530077
 31
0.0000000000000000
  0
LINE
  5
79
100
AcDbEntity
  8
MAIN0
  6
CONTINUOUS
 62
3
100
AcDbLine
 10
154.6155315933087
 20
193.1546563530077
 30
0.0000000000000000
 11
154.6155315933087
 21
187.1546563530077
 31
0.0000000000000000
  0
LINE
  5
7A
100
AcDbEntity
  8
MAIN0
  6
CENTER
 62
3
100
AcDbLine
 10
49.31990318503651
 20
178.1546563530077
 30
0.0000000000000000
 11
115.9955030678211
 21
178.1546563530077
 31
0.0000000000000000
  0
ARC
  5
7B
100
AcDbEntity
  8
MAIN0
  6
CONTINUOUS
 62
3
100
AcDbCircle
 10
71.09364399425650
 20
178.1546563530077
 30
0.0000000000000000
 40
2.500000000000000
100
AcDbArc
 50
270.0000000000000
 51
450.0000000000000
  0
LINE
  5
7C
100
AcDbEntity
  8
MAIN0
  6
CONTINUOUS
 62
3
100
AcDbLine
 10
71.09364399425650
 20
175.6546563530077
 30
0.0000000000000000
 11
70.09364399425650
 21
175.6546563530077
 31
0.0000000000000000
  0
ARC
  5
7D
100
AcDbEntity
  8
MAIN0
  6
CONTINUOUS
 62
3
100
AcDbCircle
 10
70.09364399425650
 20
178.1546563530077
 30
0.0000000000000000
 40
2.500000000000000
100
AcDbArc
 50
90.00000000000000
 51
270.0000000000000
  0
LINE
  5
7E
100
AcDbEntity
  8
MAIN0
  6
CONTINUOUS
 62
3
100
AcDbLine
 10
71.09364399425650
 20
180.6546563530077
 30
0.0000000000000000
 11
70.09364399425650
 21
180.6546563530077
 31
0.0000000000000000
  0
ARC
  5
7F
100
AcDbEntity
  8
MAIN0
  6
CONTINUOUS
 62
3
100
AcDbCircle
 10
82.59364399425650
 20
166.6546563530077
 30
0.0000000000000000
 40
2.500000000000000
100
AcDbArc
 50
0.0000000000000000
 51
180.0000000000000
  0
LINE
  5
80
100
AcDbEntity
  8
MAIN0
  6
CONTINUOUS
 62
3
100
AcDbLine
 10
85.09364399425650
 20
166.6546563530077
 30
0.0000000000000000
 11
85.09364399425650
 21
165.6546563530077
 31
0.0000000000000000
  0
ARC
  5
81
100
AcDbEntity
  8
MAIN0
  6
CONTINUOUS
 62
3
100
AcDbCircle
 10
82.59364399425650
 20
165.6546563530077
 30
0.0000000000000000
 40
2.500000000000000
100
AcDbArc
 50
180.0000000000000
 51
360.0000000000000
  0
LINE
  5
82
100
AcDbEntity
  8
MAIN0
  6
CONTINUOUS
 62
3
100
AcDbLine
 10
80.09364399425650
 20
166.6546563530077
 30
0.0000000000000000
 11
80.09364399425650
 21
165.6546563530077
 31
0.0000000000000000
  0
ARC
  5
83
100
AcDbEntity
  8
MAIN0
  6
CONTINUOUS
 62
3
100
AcDbCircle
 10
94.09364399425650
 20
178.1546563530077
 30
0.0000000000000000
 40
2.500000000000000
100
AcDbArc
 50
90.00000000000000
 51
270.0000000000000
  0
LINE
  5
84
100
AcDbEntity
  8
MAIN0
  6
CONTINUOUS
 62
3
100
AcDbLine
 10
94.09364399425650
 20
180.6546563530077
 30
0.0000000000000000
 11
95.09364399425650
 21
180.6546563530077
 31
0.0000000000000000
  0
ARC
  5
85
100
AcDbEntity
  8
MAIN0
  6
CONTINUOUS
 62
3
100
AcDbCircle
 10
95.09364399425650
 20
178.1546563530077
 30
0.0000000000000000
 40
2.500000000000000
100
AcDbArc
 50
270.0000000000000
 51
450.0000000000000
  0
LINE
  5
86
100
AcDbEntity
  8
MAIN0
  6
CONTINUOUS
 62
3
100
AcDbLine
 10
94.09364399425650
 20
175.6546563530077
 30
0.0000000000000000
 11
95.09364399425650
 21
175.6546563530077
 31
0.0000000000000000
  0
DIMENSION
  5
91
100
AcDbEntity
  8
MAIN0
  6
CONTINUOUS
 62
3
100
AcDbDimension
  2
*D0
 10
143.3655315933087
 20
206.7462313331664
 30
0.0000000000000000
 11
138.9163796387102
 21
207.2462313331664
 31
0.0000000000000000
 70
160
 71
5
 42
3.500000
  3
MAIN001
100
AcDbAlignedDimension
 13
146.8655315933087
 23
184.6546563530077
 33
0.0000000000000000
 14
143.3655315933087
 24
184.6546563530077
 34
0.0000000000000000
100
AcDbRotatedDimension
1001
ACAD
1000
DSTYLE
1002
{
1070
   173
1070
     1
1070
     6
1000
_OPEN
1070
     7
1000
_OPEN
1070
    41
1040
2.000000
1070
   289
1070
     0
1002
}
  0
DIMENSION
  5
9C
100
AcDbEntity
  8
MAIN0
  6
CONTINUOUS
 62
3
100
AcDbDimension
  2
*D1
 10
151.6155315933087
 20
214.4869651956627
 30
0.0000000000000000
 11
139.8139870511217
 21
214.9869651956627
 31
0.0000000000000000
 70
160
 71
5
 42
6.500000
  3
MAIN001
100
AcDbAlignedDimension
 13
145.1155315933087
 23
185.8574534271914
 33
0.0000000000000000
 14
151.6155315933087
 24
197.7546563530077
 34
0.0000000000000000
100
AcDbRotatedDimension
1001
ACAD
1000
DSTYLE
1002
{
1070
   173
1070
     1
1070
     6
1000
_OPEN
1070
     7
1000
_OPEN
1070
    41
1040
2.000000
1070
   289
1070
     0
1002
}
  0
DIMENSION
  5
A5
100
AcDbEntity
  8
MAIN0
  6
CONTINUOUS
 62
3
100
AcDbDimension
  2
*D2
 10
130.1155315933087
 20
222.5939212474561
 30
0.0000000000000000
 11
140.8655315933087
 21
223.0939212474561
 31
0.0000000000000000
 70
32
 71
5
 42
21.500000
  3
MAIN001
100
AcDbAlignedDimension
 13
151.6155315933087
 23
197.7546563530077
 33
0.0000000000000000
 14
130.1155315933087
 24
184.2546563530077
 34
0.0000000000000000
100
AcDbRotatedDimension
1001
ACAD
1000
DSTYLE
1002
{
1070
   173
1070
     1
1070
     6
1000
_OPEN
1070
     7
1000
_OPEN
1070
    41
1040
2.000000
1002
}
  0
DIMENSION
  5
B0
100
AcDbEntity
  8
MAIN0
  6
CONTINUOUS
 62
3
100
AcDbDimension
  2
*D3
 10
151.6155315933087
 20
222.5939212474561
 30
0.0000000000000000
 11
153.6155315933087
 21
223.0939212474561
 31
0.0000000000000000
 70
32
 71
5
 42
4.000000
  3
MAIN001
100
AcDbAlignedDimension
 13
155.6155315933087
 23
207.7546563530077
 33
0.0000000000000000
 14
151.6155315933087
 24
197.7546563530077
 34
0.0000000000000000
100
AcDbRotatedDimension
1001
ACAD
1000
DSTYLE
1002
{
1070
   173
1070
     1
1070
     6
1000
_OPEN
1070
     7
1000
_OPEN
1070
    41
1040
2.000000
1070
   289
1070
     0
1002
}
  0
DIMENSION
  5
B9
100
AcDbEntity
  8
MAIN0
  6
CONTINUOUS
 62
3
100
AcDbDimension
  2
*D4
 10
155.6155315933087
 20
222.5939212474561
 30
0.0000000000000000
 11
165.6155315933087
 21
223.0939212474561
 31
0.0000000000000000
 70
32
 71
5
 42
20.000000
  3
MAIN001
100
AcDbAlignedDimension
 13
175.6155315933087
 23
207.7546563530077
 33
0.0000000000000000
 14
155.6155315933087
 24
207.7546563530077
 34
0.0000000000000000
100
AcDbRotatedDimension
1001
ACAD
1000
DSTYLE
1002
{
1070
   173
1070
     1
1070
     6
1000
_OPEN
1070
     7
1000
_OPEN
1070
    41
1040
2.000000
1002
}
  0
DIMENSION
  5
C3
100
AcDbEntity
  8
MAIN0
  6
CONTINUOUS
 62
3
100
AcDbDimension
  2
*D5
 10
124.0180539127372
 20
171.6546563530077
 30
0.0000000000000000
 11
123.5180539127372
 21
189.2732519778192
 31
0.0000000000000000
 70
160
 71
5
  1
\A1;\U+220513g7
 42
13.000000
  3
MAIN001
100
AcDbAlignedDimension
 13
130.5155315933087
 23
184.6546563530077
 33
0.0000000000000000
 14
130.5155315933087
 24
171.6546563530077
 34
0.0000000000000000
 50
90.00000000000000
100
AcDbRotatedDimension
1001
ACAD
1000
DSTYLE
1002
{
1070
   173
1070
     1
1070
     6
1000
_OPEN
1070
     7
1000
_OPEN
1070
    41
1040
2.000000
1002
}
  0
DIMENSION
  5
CC
100
AcDbEntity
  8
MAIN0
  6
CONTINUOUS
 62
3
100
AcDbDimension
  2
*D6
 10
151.6155315933087
 20
164.5458413856331
 30
0.0000000000000000
 11
146.9680996888291
 21
165.0458413856331
 31
0.0000000000000000
 70
160
 71
5
 42
3.000000
  3
MAIN001
100
AcDbAlignedDimension
 13
154.6155315933087
 23
163.1546563530077
 33
0.0000000000000000
 14
151.6155315933087
 24
158.5546563530077
 34
0.0000000000000000
100
AcDbRotatedDimension
1001
ACAD
1000
DSTYLE
1002
{
1070
   173
1070
     1
1070
     6
1000
_OPEN
1070
     7
1000
_OPEN
1070
    41
1040
2.000000
1070
   289
1070
     0
1002
}
  0
DIMENSION
  5
D5
100
AcDbEntity
  8
MAIN0
  6
CONTINUOUS
 62
3
100
AcDbDimension
  2
*D7
 10
130.1155315933087
 20
230.3325408696534
 30
0.0000000000000000
 11
152.8655315933087
 21
230.8325408696534
 31
0.0000000000000000
 70
32
 71
5
  1
\A1;（45.5）
 42
45.500000
  3
MAIN001
100
AcDbAlignedDimension
 13
175.6155315933087
 23
207.7546563530077
 33
0.0000000000000000
 14
130.1155315933087
 24
184.2546563530077
 34
0.0000000000000000
100
AcDbRotatedDimension
1001
ACAD
1000
DSTYLE
1002
{
1070
   173
1070
     1
1070
     6
1000
_OPEN
1070
     7
1000
_OPEN
1070
    41
1040
2.000000
1070
   340
1005
D6
1002
}
  0
DIMENSION
  5
DF
100
AcDbEntity
  8
MAIN0
  6
CONTINUOUS
 62
3
100
AcDbDimension
  2
*D8
 10
62.59364399425652
 20
125.5630417715819
 30
0.0000000000000000
 11
82.59364399425650
 21
126.0630417715819
 31
0.0000000000000000
 70
32
 71
5
 42
40.000000
  3
MAIN001
100
AcDbAlignedDimension
 13
102.5936439942565
 23
159.1546563530077
 33
0.0000000000000000
 14
62.59364399425652
 24
159.1546563530077
 34
0.0000000000000000
100
AcDbRotatedDimension
1001
ACAD
1000
DSTYLE
1002
{
1070
   173
1070
     1
1070
     6
1000
_OPEN
1070
     7
1000
_OPEN
1070
    41
1040
2.000000
1002
}
  0
DIMENSION
  5
E8
100
AcDbEntity
  8
MAIN0
  6
CONTINUOUS
 62
3
100
AcDbDimension
  2
*D9
 10
39.49832720910430
 20
158.1546563530077
 30
0.0000000000000000
 11
38.99832720910430
 21
178.1546563530077
 31
0.0000000000000000
 70
160
 71
5
 42
40.000000
  3
MAIN001
100
AcDbAlignedDimension
 13
63.59364399425652
 23
198.1546563530077
 33
0.0000000000000000
 14
63.59364399425652
 24
158.1546563530077
 34
0.0000000000000000
 50
90.00000000000000
100
AcDbRotatedDimension
1001
ACAD
1000
DSTYLE
1002
{
1070
   173
1070
     1
1070
     6
1000
_OPEN
1070
     7
1000
_OPEN
1070
    41
1040
2.000000
1002
}
  0
DIMENSION
  5
F3
100
AcDbEntity
  8
MAIN0
  6
CONTINUOUS
 62
3
100
AcDbDimension
  2
*D10
 10
80.09364399425650
 20
133.0618789496391
 30
0.0000000000000000
 11
92.53442370802571
 21
133.5618789496391
 31
0.0000000000000000
 70
160
 71
5
  1
\A1;4-5
 42
5.000000
  3
MAIN001
100
AcDbAlignedDimension
 13
85.09364399425650
 23
165.6546563530077
 33
0.0000000000000000
 14
80.09364399425650
 24
165.6546563530077
 34
0.0000000000000000
100
AcDbRotatedDimension
1001
ACAD
1000
DSTYLE
1002
{
1070
   173
1070
     1
1070
     6
1000
_OPEN
1070
     7
1000
_OPEN
1070
    41
1040
2.000000
1070
   289
1070
     0
1002
}
  0
DIMENSION
  5
FC
100
AcDbEntity
  8
MAIN0
  6
CONTINUOUS
 62
3
100
AcDbDimension
  2
*D11
 10
188.7564962017112
 20
148.1546563530077
 30
0.0000000000000000
 11
188.2564962017112
 21
178.1546563530077
 31
0.0000000000000000
 70
32
 71
5
  1
\A1;\U+220560
 42
60.000000
  3
MAIN001
100
AcDbAlignedDimension
 13
175.2155315933086
 23
208.1546563530077
 33
0.0000000000000000
 14
175.2155315933086
 24
148.1546563530077
 34
0.0000000000000000
 50
90.00000000000000
100
AcDbRotatedDimension
1001
ACAD
1000
DSTYLE
1002
{
1070
   173
1070
     1
1070
     6
1000
_OPEN
1070
     7
1000
_OPEN
1070
    41
1040
2.000000
1002
}
  0
LINE
  5
FD
100
AcDbEntity
  8
MAIN0
  6
CENTER
 62
3
100
AcDbLine
 10
127.7123623830318
 20
178.1546563530077
 30
0.0000000000000000
 11
153.0107026775917
 21
178.1546563530077
 31
0.0000000000000000
  0
LINE
  5
FE
100
AcDbEntity
  8
MAIN0
  6
CENTER
 62
3
100
AcDbLine
 10
160.2346132075406
 20
178.1546563530077
 30
0.0000000000000000
 11
180.8935253352350
 21
178.1546563530077
 31
0.0000000000000000
  0
LINE
  5
FF
100
AcDbEntity
  8
MAIN0
  6
CENTER
 62
3
100
AcDbLine
 10
77.83615352324030
 20
166.6546563530077
 30
0.0000000000000000
 11
86.77726146721224
 21
166.6546563530077
 31
0.0000000000000000
  0
LINE
  5
100
100
AcDbEntity
  8
MAIN0
  6
CENTER
 62
3
100
AcDbLine
 10
77.83615352324030
 20
165.6546563530077
 30
0.0000000000000000
 11
86.77726146721224
 21
165.6546563530077
 31
0.0000000000000000
  0
DIMENSION
  5
109
100
AcDbEntity
  8
MAIN0
  6
CONTINUOUS
 62
3
100
AcDbDimension
  2
*D12
 10
48.84251356561444
 20
178.1546563530077
 30
0.0000000000000000
 11
48.34251356561444
 21
172.4046563530077
 31
0.0000000000000000
 70
32
 71
5
 42
11.500000
  3
MAIN001
100
AcDbAlignedDimension
 13
77.83615352324030
 23
166.6546563530077
 33
0.0000000000000000
 14
49.31990318503651
 24
178.1546563530077
 34
0.0000000000000000
 50
90.00000000000000
100
AcDbRotatedDimension
1001
ACAD
1000
DSTYLE
1002
{
1070
   173
1070
     1
1070
     6
1000
_OPEN
1070
     7
1000
_OPEN
1070
    41
1040
2.000000
1002
}
  0
DIMENSION
  5
114
100
AcDbEntity
  8
MAIN0
  6
CONTINUOUS
 62
3
100
AcDbDimension
  2
*D13
 10
48.84251356561444
 20
166.6546563530077
 30
0.0000000000000000
 11
48.34251356561444
 21
160.7996416571137
 31
0.0000000000000000
 70
160
 71
5
 42
1.000000
  3
MAIN001
100
AcDbAlignedDimension
 13
77.83615352324030
 23
165.6546563530077
 33
0.0000000000000000
 14
77.83615352324030
 24
166.6546563530077
 34
0.0000000000000000
 50
90.00000000000000
100
AcDbRotatedDimension
1001
ACAD
1000
DSTYLE
1002
{
1070
   173
1070
     1
1070
     6
1000
_OPEN
1070
     7
1000
_OPEN
1070
    41
1040
2.000000
1070
   289
1070
     0
1002
}
  0
MTEXT
  5
115
100
AcDbEntity
  8
MAIN0
  6
CONTINUOUS
 62
3
100
AcDbMText
 10
88.03239466948780
 20
146.9839047235871
 30
0.0000000000000000
 40
3.099999904632568
 41
0.0000000000000000
 44
0.6677419652551825
 71
     1
 72
     1
  1
{\H0.81x;{A}}
 11
1.000000000000000
 21
0.0000000000000000
 31
0.0000000000000000
  7
STANDARD
  0
INSERT
  5
11C
100
AcDbEntity
  8
MAIN0
  6
CONTINUOUS
 62
2
100
AcDbBlockReference
  2
M0
 10
0.0000000000000000
 20
0.0000000000000000
 30
0.0000000000000000
 50
0.0000000000000000
  0
MTEXT
  5
11D
100
AcDbEntity
  8
MAIN0
  6
CONTINUOUS
 62
3
100
AcDbMText
 10
88.03239466948784
 20
218.8161417731251
 30
0.0000000000000000
 40
3.099999904632568
 41
0.0000000000000000
 44
0.6677419652551825
 71
     1
 72
     1
  1
{\H0.81x;{A}}
 11
1.000000000000000
 21
0.0000000000000000
 31
0.0000000000000000
  7
STANDARD
  0
INSERT
  5
124
100
AcDbEntity
  8
MAIN0
  6
CONTINUOUS
 62
2
100
AcDbBlockReference
  2
M1
 10
0.0000000000000000
 20
0.0000000000000000
 30
0.0000000000000000
 50
0.0000000000000000
  0
DIMENSION
  5
12D
100
AcDbEntity
  8
MAIN0
  6
CONTINUOUS
 62
3
100
AcDbDimension
  2
*D14
 10
143.3655315933086
 20
184.6546563530077
 30
0.0000000000000000
 11
138.6170138212712
 21
198.0890483510453
 31
0.0000000000000000
 70
162
 71
5
 42
1.570796
  3
MAIN001
100
AcDb2LineAngularDimension
 13
146.8655315933087
 23
184.6546563530077
 33
0.0000000000000000
 14
146.1584248121221
 24
183.9475495718211
 34
0.0000000000000000
 15
144.0726383744952
 25
183.9475495718211
 35
0.0000000000000000
 16
145.1155315933086
 26
198.9212084624388
 36
0.0000000000000000
1001
ACAD
1000
DSTYLE
1002
{
1070
   173
1070
     1
1070
     6
1000
_OPEN
1070
     7
1000
_OPEN
1070
    41
1040
2.000000
1002
}
  0
MTEXT
  5
12E
100
AcDbEntity
  8
MAIN0
  6
CONTINUOUS
 62
3
100
AcDbMText
 10
145.0926650938982
 20
135.9927926641060
 30
0.0000000000000000
 40
3.000000000000000
 41
0.0000000000000000
 44
0.8000000000000000
 71
     1
 72
     1
  1
{\H0.63x;{Section A-A}}
 11
1.000000000000000
 21
0.0000000000000000
 31
0.0000000000000000
  7
STANDARD
  0
POINT
  5
12F
100
AcDbEntity
  8
MAIN0
  6
CONTINUOUS
 62
3
100
AcDbPoint
 10
145.0926650938982
 20
132.9927926641060
 30
0.0000000000000000
  0
LINE
  5
130
100
AcDbEntity
  8
MAIN0
  6
CONTINUOUS
 62
3
100
AcDbLine
 10
143.1389398253203
 20
136.4927926641369
 30
0.0000000000000000
 11
166.8564391485227
 21
136.4927926641337
 31
0.0000000000000000
  0
POINT
  5
131
100
AcDbEntity
  8
MAIN0
  6
CONTINUOUS
 62
3
100
AcDbPoint
 10
144.0926650938982
 20
136.9927926641060
 30
0.0000000000000000
  0
MTEXT
  5
132
100
AcDbEntity
  8
MAIN0
  6
CONTINUOUS
 62
3
100
AcDbMText
 10
144.0926650938982
 20
140.9927926641060
 30
0.0000000000000000
 40
4.000000000000000
 41
0.0000000000000000
 44
0.6749999999999999
 71
     1
 72
     1
  1
{\H0.93x;{断面Ａ－Ａ}}
 11
1.000000000000000
 21
0.0000000000000000
 31
0.0000000000000000
  7
KNJYOKO
  0
LEADER
  5
133
100
AcDbEntity
  8
MAIN0
  6
CONTINUOUS
 62
3
100
AcDbLeader
  3
MAIN001
 73
     0
 74
     0
 75
     1
 40
3.099999904632568
 41
27.46100063419341
 76
     3
 10
102.5936439942565
 20
133.0525918044301
 30
0.0000000000000000
 10
109.7942141235859
 20
125.6747046819845
 30
0.0000000000000000
 10
111.7192140677959
 20
125.6747046819845
 30
0.0000000000000000
340
134
213
0.0000000000000000
223
-0.5000000000000000
233
0.0000000000000000
1001
ACAD
1000
DSTYLE
1002
{
1070
   147
1040
0.0
1070
    77
1070
     1
1070
   341
1005
13
1070
    41
1040
2.000000
1002
}
  0
MTEXT
  5
134
102
{ACAD_REACTORS
330
133
102
}
100
AcDbEntity
  8
MAIN0
  6
CONTINUOUS
 62
3
100
AcDbMText
 10
111.7202140677959
 20
129.2747045866170
 30
0.0000000000000000
 40
3.099999904632568
 41
0.0000000000000000
 44
0.6677419652551825
 71
     1
 72
     1
  1
{\H0.93x;{ジョー成型基準面}}
 11
1.000000000000000
 21
0.0000000000000000
 31
0.0000000000000000
  7
KNJYOKO
  0
LEADER
  5
135
100
AcDbEntity
  8
MAIN0
  6
CONTINUOUS
 62
3
100
AcDbLeader
  3
MAIN001
 73
     0
 74
     0
 75
     1
 40
3.099999904632568
 41
27.46100063419342
 76
     3
 10
45.97546521641129
 20
198.1546563530077
 30
0.0000000000000000
 10
37.35422346865977
 20
211.7449277643354
 30
0.0000000000000000
 10
39.27922341286982
 20
211.7449277643354
 30
0.0000000000000000
340
136
213
-0.001000000000004775
223
-0.5000000000000000
233
0.0000000000000000
1001
ACAD
1000
DSTYLE
1002
{
1070
   147
1040
0.0
1070
    77
1070
     1
1070
   341
1005
13
1070
    41
1040
2.000000
1002
}
  0
MTEXT
  5
136
102
{ACAD_REACTORS
330
135
102
}
100
AcDbEntity
  8
MAIN0
  6
CONTINUOUS
 62
3
100
AcDbMText
 10
39.28022341286982
 20
215.3449276689680
 30
0.0000000000000000
 40
3.099999904632568
 41
0.0000000000000000
 44
0.6677419652551825
 71
     1
 72
     1
  1
{\H0.93x;{ジョー成型基準面}}
 11
1.000000000000000
 21
0.0000000000000000
 31
0.0000000000000000
  7
KNJYOKO
  0
LEADER
  5
137
100
AcDbEntity
  8
MAIN0
  6
CONTINUOUS
 62
3
100
AcDbLeader
  3
MAIN001
 73
     0
 75
     1
 40
3.099999904632568
 41
27.45900063419342
 76
     3
 10
62.59364399425652
 20
130.0246348189184
 30
0.0000000000000000
 10
55.64204106182632
 20
141.5420014968742
 30
0.0000000000000000
 10
53.71504111761627
 20
141.5420014968742
 30
0.0000000000000000
340
138
213
0.0000000000000000
223
-0.5000000000000000
233
0.0000000000000000
1001
ACAD
1000
DSTYLE
1002
{
1070
   147
1040
0.0
1070
    77
1070
     1
1070
   341
1005
13
1070
    41
1040
2.000000
1002
}
  0
MTEXT
  5
138
102
{ACAD_REACTORS
330
137
102
}
100
AcDbEntity
  8
MAIN0
  6
CONTINUOUS
 62
3
100
AcDbMText
 10
26.25604048342285
 20
145.1420014015068
 30
0.0000000000000000
 40
3.099999904632568
 41
0.0000000000000000
 44
0.6677419652551825
 71
     1
 72
     1
  1
{\H0.93x;{ジョー成型基準面}}
 11
1.000000000000000
 21
0.0000000000000000
 31
0.0000000000000000
  7
KNJYOKO
  0
LEADER
  5
139
100
AcDbEntity
  8
MAIN0
  6
CONTINUOUS
 62
3
100
AcDbLeader
  3
MAIN001
 73
     3
 74
     0
 75
     0
 76
     2
 10
53.70685848321308
 20
158.1546563530077
 30
0.0000000000000000
 10
55.64204106182632
 20
141.5420014968742
 30
0.0000000000000000
1001
ACAD
1000
DSTYLE
1002
{
1070
   341
1005
13
1070
    41
1040
2.000000
1002
}
  0
POINT
  5
13A
100
AcDbEntity
  8
MAIN0
  6
CONTINUOUS
 62
3
100
AcDbPoint
 10
111.7202140677959
 20
126.1747046819845
 30
0.0000000000000000
  0
POINT
  5
13B
100
AcDbEntity
  8
MAIN0
  6
CONTINUOUS
 62
3
100
AcDbPoint
 10
111.7202140677959
 20
122.1747046819845
 30
0.0000000000000000
  0
POINT
  5
13C
100
AcDbEntity
  8
MAIN0
  6
CONTINUOUS
 62
3
100
AcDbPoint
 10
26.25604048342285
 20
138.0420014968742
 30
0.0000000000000000
  0
POINT
  5
13D
100
AcDbEntity
  8
MAIN0
  6
CONTINUOUS
 62
3
100
AcDbPoint
 10
26.25604048342285
 20
142.0420014968742
 30
0.0000000000000000
  0
MTEXT
  5
13E
100
AcDbEntity
  8
MAIN0
  6
CONTINUOUS
 62
3
100
AcDbMText
 10
39.28022341286982
 20
223.2449277643354
 30
0.0000000000000000
 40
3.000000000000000
 41
0.0000000000000000
 44
0.8000000000000000
 71
     1
 72
     1
  1
{\H0.63x;{DATUM SURFACE AT\PFORMING GRIPPING AREA}}
 11
1.000000000000000
 21
0.0000000000000000
 31
0.0000000000000000
  7
STANDARD
  0
POINT
  5
13F
100
AcDbEntity
  8
MAIN0
  6
CONTINUOUS
 62
3
100
AcDbPoint
 10
39.28022341286982
 20
220.2449277643354
 30
0.0000000000000000
  0
POINT
  5
140
100
AcDbEntity
  8
MAIN0
  6
CONTINUOUS
 62
3
100
AcDbPoint
 10
39.28022341286982
 20
212.2449277643354
 30
0.0000000000000000
  0
MTEXT
  5
141
100
AcDbEntity
  8
MAIN0
  6
CONTINUOUS
 62
3
100
AcDbMText
 10
111.7202140677959
 20
125.1747046819845
 30
0.0000000000000000
 40
3.000000000000000
 41
0.0000000000000000
 44
0.8000000000000000
 71
     1
 72
     1
  1
{\H0.63x;{DATUM SURFACE AT\PFORMING GRIPPING AREA}}
 11
1.000000000000000
 21
0.0000000000000000
 31
0.0000000000000000
  7
STANDARD
  0
MTEXT
  5
142
100
AcDbEntity
  8
MAIN0
  6
CONTINUOUS
 62
3
100
AcDbMText
 10
26.25604048342285
 20
141.0420014968742
 30
0.0000000000000000
 40
3.000000000000000
 41
0.0000000000000000
 44
0.8000000000000000
 71
     1
 72
     1
  1
{\H0.63x;{DATUM SURFACE AT\PFORMING GRIPPING\PAREA}}
 11
1.000000000000000
 21
0.0000000000000000
 31
0.0000000000000000
  7
STANDARD
  0
LINE
  5
143
100
AcDbEntity
  8
WAKU0
  6
CONTINUOUS
 62
3
100
AcDbLine
 10
30.00000000000000
 20
51.00000000000000
 30
0.0000000000000000
 11
200.0000000000000
 21
51.00000000000000
 31
0.0000000000000000
  0
LINE
  5
144
100
AcDbEntity
  8
WAKU0
  6
CONTINUOUS
 62
3
100
AcDbLine
 10
30.00000000000000
 20
51.00000000000000
 30
0.0000000000000000
 11
30.00000000000000
 21
12.00000000000000
 31
0.0000000000000000
  0
LINE
  5
145
100
AcDbEntity
  8
WAKU0
  6
CONTINUOUS
 62
3
100
AcDbLine
 10
102.0000000000000
 20
51.00000000000000
 30
0.0000000000000000
 11
102.0000000000000
 21
12.00000000000000
 31
0.0000000000000000
  0
LINE
  5
146
100
AcDbEntity
  8
WAKU0
  6
CONTINUOUS
 62
3
100
AcDbLine
 10
122.0000000000000
 20
51.00000000000000
 30
0.0000000000000000
 11
122.0000000000000
 21
12.00000000000000
 31
0.0000000000000000
  0
LINE
  5
147
100
AcDbEntity
  8
WAKU0
  6
CONTINUOUS
 62
3
100
AcDbLine
 10
134.0000000000000
 20
51.00000000000000
 30
0.0000000000000000
 11
134.0000000000000
 21
12.00000000000000
 31
0.0000000000000000
  0
LINE
  5
148
100
AcDbEntity
  8
WAKU0
  6
CONTINUOUS
 62
3
100
AcDbLine
 10
134.0000000000000
 20
37.00000000000000
 30
0.0000000000000000
 11
200.0000000000000
 21
37.00000000000000
 31
0.0000000000000000
  0
LINE
  5
149
100
AcDbEntity
  8
WAKU0
  6
CONTINUOUS
 62
3
100
AcDbLine
 10
122.0000000000000
 20
23.00000000000000
 30
0.0000000000000000
 11
200.0000000000000
 21
23.00000000000000
 31
0.0000000000000000
  0
LINE
  5
14A
100
AcDbEntity
  8
WAKU0
  6
CONTINUOUS
 62
3
100
AcDbLine
 10
165.0000000000000
 20
51.00000000000000
 30
0.0000000000000000
 11
165.0000000000000
 21
44.00000000000000
 31
0.0000000000000000
  0
LINE
  5
14B
100
AcDbEntity
  8
WAKU0
  6
CONTINUOUS
 62
3
100
AcDbLine
 10
177.0000000000000
 20
51.00000000000000
 30
0.0000000000000000
 11
177.0000000000000
 21
44.00000000000000
 31
0.0000000000000000
  0
LINE
  5
14C
100
AcDbEntity
  8
WAKU0
  6
CONTINUOUS
 62
3
100
AcDbLine
 10
102.0000000000000
 20
31.50000000000000
 30
0.0000000000000000
 11
122.0000000000000
 21
31.50000000000000
 31
0.0000000000000000
  0
LINE
  5
14D
100
AcDbEntity
  8
WAKU0
  6
CONTINUOUS
 62
3
100
AcDbLine
 10
122.0000000000000
 20
44.00000000000000
 30
0.0000000000000000
 11
200.0000000000000
 21
44.00000000000000
 31
0.0000000000000000
  0
LINE
  5
14E
100
AcDbEntity
  8
WAKU0
  6
CONTINUOUS
 62
3
100
AcDbLine
 10
30.00000000000000
 20
37.00000000000000
 30
0.0000000000000000
 11
102.0000000000000
 21
37.00000000000000
 31
0.0000000000000000
  0
LINE
  5
14F
100
AcDbEntity
  8
WAKU0
  6
CONTINUOUS
 62
3
100
AcDbLine
 10
30.00000000000000
 20
23.00000000000000
 30
0.0000000000000000
 11
102.0000000000000
 21
23.00000000000000
 31
0.0000000000000000
  0
LINE
  5
150
100
AcDbEntity
  8
WAKU0
  6
CONTINUOUS
 62
3
100
AcDbLine
 10
78.00000000000000
 20
37.00000000000000
 30
0.0000000000000000
 11
78.00000000000000
 21
12.00000000000000
 31
0.0000000000000000
  0
LINE
  5
151
100
AcDbEntity
  8
WAKU0
  6
CONTINUOUS
 62
3
100
AcDbLine
 10
54.00000000000000
 20
37.00000000000000
 30
0.0000000000000000
 11
54.00000000000000
 21
23.00000000000000
 31
0.0000000000000000
  0
LINE
  5
152
100
AcDbEntity
  8
WAKU0
  6
CONTINUOUS
 62
3
100
AcDbLine
 10
90.00000000000000
 20
26.00000000000000
 30
0.0000000000000000
 11
90.00000000000000
 21
23.00000000000000
 31
0.0000000000000000
  0
LINE
  5
153
100
AcDbEntity
  8
WAKU0
  6
CONTINUOUS
 62
3
100
AcDbLine
 10
66.00000000000000
 20
26.00000000000000
 30
0.0000000000000000
 11
66.00000000000000
 21
23.00000000000000
 31
0.0000000000000000
  0
LINE
  5
154
100
AcDbEntity
  8
WAKU0
  6
CONTINUOUS
 62
3
100
AcDbLine
 10
42.00000000000000
 20
26.00000000000000
 30
0.0000000000000000
 11
42.00000000000000
 21
23.00000000000000
 31
0.0000000000000000
  0
LINE
  5
155
100
AcDbEntity
  8
WAKU0
  6
CONTINUOUS
 62
3
100
AcDbLine
 10
48.00000000000000
 20
51.00000000000000
 30
0.0000000000000000
 11
48.00000000000000
 21
37.00000000000000
 31
0.0000000000000000
  0
LINE
  5
156
100
AcDbEntity
  8
WAKU0
  6
CONTINUOUS
 62
3
100
AcDbLine
 10
30.00000000000000
 20
45.00000000000000
 30
0.0000000000000000
 11
102.0000000000000
 21
45.00000000000000
 31
0.0000000000000000
  0
LINE
  5
157
100
AcDbEntity
  8
WAKU0
  6
HIDDEN
 62
3
100
AcDbLine
 10
150.5000000000000
 20
23.00000000000000
 30
0.0000000000000000
 11
150.5000000000000
 21
12.00000000000000
 31
0.0000000000000000
  0
LINE
  5
158
100
AcDbEntity
  8
WAKU0
  6
HIDDEN
 62
3
100
AcDbLine
 10
162.9000000000000
 20
23.00000000000000
 30
0.0000000000000000
 11
162.9000000000000
 21
12.00000000000000
 31
0.0000000000000000
  0
MTEXT
  5
159
100
AcDbEntity
  8
WAKU0
  6
CONTINUOUS
 62
3
100
AcDbMText
 10
134.4820000243485
 20
49.04999995231628
 30
0.0000000000000000
 40
3.099999904632568
 41
0.0000000000000000
 44
0.8806452252986423
 71
     1
 72
     1
  1
{\H0.93x;{NTS-SJ311}}
 11
1.000000000000000
 21
0.0000000000000000
 31
0.0000000000000000
  7
STANDARD
  0
MTEXT
  5
15A
100
AcDbEntity
  8
WAKU0
  6
CONTINUOUS
 62
3
100
AcDbMText
 10
155.3900001943111
 20
43.50000000000000
 30
0.0000000000000000
 40
3.000000000000000
 41
0.0000000000000000
 44
0.6000000000000000
 71
     1
 72
     1
  1
{\H0.93x;{グリッパ\PＧＲＩＰＰＥＲ}}
 11
1.000000000000000
 21
0.0000000000000000
 31
0.0000000000000000
  7
KNJYOKO
  0
MTEXT
  5
15B
100
AcDbEntity
  8
WAKU0
  6
CONTINUOUS
 62
3
100
AcDbMText
 10
138.4499999843538
 20
34.23333326975504
 30
0.0000000000000000
 40
3.099999904632568
 41
0.0000000000000000
 44
1.038709733984847
 71
     1
 72
     1
  1
{\H0.71x;{ＮＴＳ－ＳＪ３１１　ガイケイ\PＮＴＳ－ＳＪ３１１　ＯＵＴＳＩＤＥ　ＶＩＥＷ}}
 11
1.000000000000000
 21
0.0000000000000000
 31
0.0000000000000000
  7
KNJYOKO
  0
MTEXT
  5
15C
100
AcDbEntity
  8
WAKU0
  6
CONTINUOUS
 62
3
100
AcDbMText
 10
108.0049998760223
 20
39.29999995231628
 30
0.0000000000000000
 40
3.099999904632568
 41
0.0000000000000000
 44
1.412903306188993
 71
     1
 72
     1
  1
{\H0.90x;{1:1}}
 11
1.000000000000000
 21
0.0000000000000000
 31
0.0000000000000000
  7
STANDARD
  0
MTEXT
  5
15D
100
AcDbEntity
  8
WAKU0
  6
CONTINUOUS
 62
3
100
AcDbMText
 10
164.4000001549721
 20
20.15000009536743
 30
0.0000000000000000
 40
5.300000190734863
 41
0.0000000000000000
 44
0.8660377154786555
 71
     1
 72
     1
  1
{\H0.90x;{6278}}
 11
1.000000000000000
 21
0.0000000000000000
 31
0.0000000000000000
  7
STANDARD
  0
MTEXT
  5
15E
100
AcDbEntity
  8
WAKU0
  6
CONTINUOUS
 62
3
100
AcDbMText
 10
152.3000000834465
 20
20.15000009536743
 30
0.0000000000000000
 40
5.300000190734863
 41
0.0000000000000000
 44
0.8660377154786555
 71
     1
 72
     1
  1
{\H0.87x;{48}}
 11
1.000000000000000
 21
0.0000000000000000
 31
0.0000000000000000
  7
STANDARD
  0
MTEXT
  5
15F
100
AcDbEntity
  8
WAKU0
  6
CONTINUOUS
 62
3
100
AcDbMText
 10
135.5000001192093
 20
20.15000009536743
 30
0.0000000000000000
 40
5.300000190734863
 41
0.0000000000000000
 44
0.8660377154786555
 71
     1
 72
     1
  1
{\H0.89x;{61G}}
 11
1.000000000000000
 21
0.0000000000000000
 31
0.0000000000000000
  7
STANDARD
  0
MTEXT
  5
160
100
AcDbEntity
  8
WAKU0
  6
CONTINUOUS
 62
3
100
AcDbMText
 10
190.0000000476837
 20
20.15000009536743
 30
0.0000000000000000
 40
5.300000190734863
 41
0.0000000000000000
 44
0.8660377154786555
 71
     1
 72
     1
  1
{\H0.81x;{0}}
 11
1.000000000000000
 21
0.0000000000000000
 31
0.0000000000000000
  7
STANDARD
  0
MTEXT
  5
161
100
AcDbEntity
  8
WAKU0
  6
CONTINUOUS
 62
3
100
AcDbMText
 10
190.0000000819564
 20
44.84999990463257
 30
0.0000000000000000
 40
5.300000190734863
 41
0.0000000000000000
 44
0.6396226292871933
 71
     7
 72
     1
  1
{\H0.81x;{ }}
 11
1.000000000000000
 21
0.0000000000000000
 31
0.0000000000000000
  7
STANDARD
  0
MTEXT
  5
162
100
AcDbEntity
  8
WAKU0
  6
CONTINUOUS
 62
3
100
AcDbMText
 10
79.38500028848648
 20
33.00000000000000
 30
0.0000000000000000
 40
3.000000000000000
 41
0.0000000000000000
 44
0.7000000000000000
 71
     7
 72
     1
  1
{\H0.93x;{DRAWN BY}}
 11
1.000000000000000
 21
0.0000000000000000
 31
0.0000000000000000
  7
STANDARD
  0
MTEXT
  5
163
100
AcDbEntity
  8
WAKU0
  6
CONTINUOUS
 62
3
100
AcDbMText
 10
59.21499979496002
 20
32.95000004768372
 30
0.0000000000000000
 40
3.099999904632568
 41
0.0000000000000000
 44
0.6870967861020730
 71
     7
 72
     1
  1
{\H0.92x;{CHIEF}}
 11
1.000000000000000
 21
0.0000000000000000
 31
0.0000000000000000
  7
STANDARD
  0
MTEXT
  5
164
100
AcDbEntity
  8
WAKU0
  6
CONTINUOUS
 62
3
100
AcDbMText
 10
32.42499971389771
 20
32.95000004768372
 30
0.0000000000000000
 40
3.099999904632568
 41
0.0000000000000000
 44
0.6870967861020730
 71
     7
 72
     1
  1
{\H0.92x;{MANAGER}}
 11
1.000000000000000
 21
0.0000000000000000
 31
0.0000000000000000
  7
STANDARD
  0
MTEXT
  5
165
100
AcDbEntity
  8
WAKU0
  6
CONTINUOUS
 62
3
100
AcDbMText
 10
34.65999943017960
 20
18.13333336512248
 30
0.0000000000000000
 40
3.099999904632568
 41
0.0000000000000000
 44
0.8451613409338102
 71
     7
 72
     1
  1
{\H0.93x;{KITAGAWA IRON\PWORKS CO.,LTD.}}
 11
1.000000000000000
 21
0.0000000000000000
 31
0.0000000000000000
  7
STANDARD
  0
MTEXT
  5
166
100
AcDbEntity
  8
WAKU0
  6
CONTINUOUS
 62
3
100
AcDbMText
 10
31.08500021696091
 20
46.50000000000000
 30
0.0000000000000000
 40
3.000000000000000
 41
0.0000000000000000
 44
0.8000000000000000
 71
     7
 72
     1
  1
{\H0.92x;{CAREER}}
 11
1.000000000000000
 21
0.0000000000000000
 31
0.0000000000000000
  7
STANDARD
  0
MTEXT
  5
167
100
AcDbEntity
  8
WAKU0
  6
CONTINUOUS
 62
3
100
AcDbMText
 10
84.60999983549118
 20
18.95000004768372
 30
0.0000000000000000
 40
3.099999904632568
 41
0.0000000000000000
 44
0.6870967861020730
 71
     7
 72
     1
  1
{\H0.91x;{DATE}}
 11
1.000000000000000
 21
0.0000000000000000
 31
0.0000000000000000
  7
STANDARD
  0
MTEXT
  5
168
100
AcDbEntity
  8
WAKU0
  6
CONTINUOUS
 62
3
100
AcDbMText
 10
103.9000002145767
 20
26.50000000000000
 30
0.0000000000000000
 40
3.000000000000000
 41
0.0000000000000000
 44
0.9000000000000000
 71
     7
 72
     1
  1
{\H0.63x;{3RD ANGLE}}
 11
1.000000000000000
 21
0.0000000000000000
 31
0.0000000000000000
  7
STANDARD
  0
MTEXT
  5
169
100
AcDbEntity
  8
WAKU0
  6
CONTINUOUS
 62
3
100
AcDbMText
 10
105.2149997949600
 20
45.95000004768372
 30
0.0000000000000000
 40
3.099999904632568
 41
0.0000000000000000
 44
0.8806452252986423
 71
     7
 72
     1
  1
{\H0.92x;{SCALE}}
 11
1.000000000000000
 21
0.0000000000000000
 31
0.0000000000000000
  7
STANDARD
  0
MTEXT
  5
16A
100
AcDbEntity
  8
WAKU0
  6
CONTINUOUS
 62
3
100
AcDbMText
 10
195.7000000476837
 20
46.00000000000000
 30
0.0000000000000000
 40
3.000000000000000
 41
0.0000000000000000
 44
0.9000000000000000
 71
     7
 72
     1
  1
{\H0.63x;{kg}}
 11
1.000000000000000
 21
0.0000000000000000
 31
0.0000000000000000
  7
STANDARD
  0
MTEXT
  5
16B
100
AcDbEntity
  8
WAKU0
  6
CONTINUOUS
 62
3
100
AcDbMText
 10
165.6000001430512
 20
46.00000000000000
 30
0.0000000000000000
 40
3.000000000000000
 41
0.0000000000000000
 44
0.9000000000000000
 71
     7
 72
     1
  1
{\H0.63x;{WEIGHT}}
 11
1.000000000000000
 21
0.0000000000000000
 31
0.0000000000000000
  7
STANDARD
  0
MTEXT
  5
16C
100
AcDbEntity
  8
WAKU0
  6
CONTINUOUS
 62
3
100
AcDbMText
 10
124.0049998760223
 20
18.13333336512248
 30
0.0000000000000000
 40
3.099999904632568
 41
0.0000000000000000
 44
0.8451613409338102
 71
     7
 72
     1
  1
{\H0.90x;{DRW\PNO.}}
 11
1.000000000000000
 21
0.0000000000000000
 31
0.0000000000000000
  7
STANDARD
  0
MTEXT
  5
16D
100
AcDbEntity
  8
WAKU0
  6
CONTINUOUS
 62
3
100
AcDbMText
 10
122.6099998354912
 20
31.95000004768372
 30
0.0000000000000000
 40
3.099999904632568
 41
0.0000000000000000
 44
2.235483976655898
 71
     7
 72
     1
  1
{\H0.91x;{NAME}}
 11
1.000000000000000
 21
0.0000000000000000
 31
0.0000000000000000
  7
STANDARD
  0
MTEXT
  5
16E
100
AcDbEntity
  8
WAKU0
  6
CONTINUOUS
 62
3
100
AcDbMText
 10
122.6099998354912
 20
45.95000004768372
 30
0.0000000000000000
 40
3.099999904632568
 41
0.0000000000000000
 44
0.8806452252986423
 71
     7
 72
     1
  1
{\H0.91x;{TYPE}}
 11
1.000000000000000
 21
0.0000000000000000
 31
0.0000000000000000
  7
STANDARD
  0
LINE
  5
16F
100
AcDbEntity
  8
WAKU0
  6
HIDDEN
 62
3
100
AcDbLine
 10
197.1599564743885
 20
13.84999990463257
 30
0.0000000000000000
 11
186.9400436209789
 21
13.84999990463257
 31
0.0000000000000000
  0
LINE
  5
170
100
AcDbEntity
  8
WAKU0
  6
HIDDEN
 62
3
100
AcDbLine
 10
197.1599564743885
 20
13.84999990463250
 30
0.0000000000000000
 11
192.0500000476851
 21
22.70070406014901
 31
0.0000000000000000
  0
LINE
  5
171
100
AcDbEntity
  8
WAKU0
  6
HIDDEN
 62
3
100
AcDbLine
 10
192.0500000476852
 20
22.70070406014902
 30
0.0000000000000000
 11
186.9400436209789
 21
13.84999990463248
 31
0.0000000000000000
  0
POINT
  5
172
100
AcDbEntity
  8
WAKU0
  6
CONTINUOUS
 62
3
100
AcDbPoint
 10
60.00000000000000
 20
51.00000000000000
 30
0.0000000000000000
  0
INSERT
  5
1AC
100
AcDbEntity
  8
WAKU0
  6
CONTINUOUS
 62
2
100
AcDbBlockReference
  2
M2
 10
0.0000000000000000
 20
0.0000000000000000
 30
0.0000000000000000
 50
0.0000000000000000
  0
INSERT
  5
1E2
100
AcDbEntity
  8
WAKU0
  6
CONTINUOUS
 62
12
100
AcDbBlockReference
  2
M3
 10
0.0000000000000000
 20
0.0000000000000000
 30
0.0000000000000000
 50
0.0000000000000000
  0
INSERT
  5
20E
100
AcDbEntity
  8
WAKU0
  6
CONTINUOUS
 62
12
100
AcDbBlockReference
  2
M4
 10
0.0000000000000000
 20
0.0000000000000000
 30
0.0000000000000000
 50
0.0000000000000000
  0
INSERT
  5
28C
100
AcDbEntity
  8
WAKU0
  6
CONTINUOUS
 62
12
100
AcDbBlockReference
  2
M5
 10
0.0000000000000000
 20
0.0000000000000000
 30
0.0000000000000000
 50
0.0000000000000000
  0
LINE
  5
28D
100
AcDbEntity
  8
WAKU0
  6
CONTINUOUS
 62
3
100
AcDbLine
 10
126.0000000000000
 20
282.0000000000000
 30
0.0000000000000000
 11
126.0000000000000
 21
287.0000000000000
 31
0.0000000000000000
  0
LINE
  5
28E
100
AcDbEntity
  8
WAKU0
  6
CONTINUOUS
 62
3
100
AcDbLine
 10
120.4713877753800
 20
15.78041421262812
 30
0.0000000000000000
 11
120.4713877753800
 21
21.78041421262815
 31
0.0000000000000000
  0
LINE
  5
28F
100
AcDbEntity
  8
WAKU0
  6
CONTINUOUS
 62
3
100
AcDbLine
 10
113.9336941228225
 20
17.28041421262811
 30
0.0000000000000000
 11
113.9336941228225
 21
20.28041421262824
 31
0.0000000000000000
  0
LINE
  5
290
100
AcDbEntity
  8
WAKU0
  6
CENTER
 62
12
100
AcDbLine
 10
103.4321805514995
 20
18.78041421262813
 30
0.0000000000000000
 11
121.2765788964694
 21
18.78041421262813
 31
0.0000000000000000
  0
LINE
  5
291
100
AcDbEntity
  8
WAKU0
  6
CENTER
 62
12
100
AcDbLine
 10
107.4474565857986
 20
14.55921662918448
 30
0.0000000000000000
 11
107.4474565857986
 21
22.89865102149943
 31
0.0000000000000000
  0
LINE
  5
292
100
AcDbEntity
  8
WAKU0
  6
CONTINUOUS
 62
3
100
AcDbLine
 10
113.9336941228225
 20
20.28041421262797
 30
0.0000000000000000
 11
120.4713877753800
 21
21.78041421262795
 31
0.0000000000000000
  0
LINE
  5
293
100
AcDbEntity
  8
WAKU0
  6
CONTINUOUS
 62
3
100
AcDbLine
 10
113.9336941228225
 20
17.28041421262811
 30
0.0000000000000000
 11
120.4713877753799
 21
15.78041421262812
 31
0.0000000000000000
  0
CIRCLE
  5
294
100
AcDbEntity
  8
WAKU0
  6
CONTINUOUS
 62
3
100
AcDbCircle
 10
107.4474565857986
 20
18.78041421262813
 30
0.0000000000000000
 40
1.499999999999972
  0
CIRCLE
  5
295
100
AcDbEntity
  8
WAKU0
  6
CONTINUOUS
 62
3
100
AcDbCircle
 10
107.4474565857986
 20
18.78041421262813
 30
0.0000000000000000
 40
2.999999999999979
  0
ENDSEC
  0
SECTION
  2
OBJECTS
  0
DICTIONARY
  5
2D1
100
AcDbDictionary
  3
ACAD_GROUP
350
2D2
  3
ACAD_LAYOUT
350
2D3
  3
ACAD_MLINESTYLE
350
2D4
  0
DICTIONARY
  5
2D2
102
{ACAD_REACTORS
330
2D1
102
}
330
2D1
100
AcDbDictionary
  0
DICTIONARY
  5
2D3
102
{ACAD_REACTORS
330
2D1
102
}
330
2D1
100
AcDbDictionary
  3
Model
350
2D5
  3
ﾚｲｱｳﾄ1
350
2D6
  3
ﾚｲｱｳﾄ2
350
2D7
  0
DICTIONARY
  5
2D4
102
{ACAD_REACTORS
330
2D1
102
}
330
2D1
100
AcDbDictionary
  3
STANDARD
350
2D8
  0
LAYOUT
  5
2D5
102
{ACAD_REACTORS
330
2D3
102
}
330
2D3
100
AcDbPlotSettings
 70
11952
  4
A4
 44
210.000000
 45
297.000000
 73
  0
 72
  1
100
AcDbLayout
  1
Model
 71
0
330
2B3
  0
LAYOUT
  5
2D6
102
{ACAD_REACTORS
330
2D3
102
}
330
2D3
100
AcDbPlotSettings
100
AcDbLayout
  1
ﾚｲｱｳﾄ1
 71
1
330
2B4
  0
LAYOUT
  5
2D7
102
{ACAD_REACTORS
330
2D3
102
}
330
2D3
100
AcDbPlotSettings
100
AcDbLayout
  1
ﾚｲｱｳﾄ2
 71
2
330
2B5
  0
MLINESTYLE
  5
2D8
102
{ACAD_REACTORS
330
2D4
102
}
330
2D4
100
AcDbMlineStyle
  2
STANDARD
 70
     0
  3

 62
   256
 51
90.00
 52
90.00
 71
     2
 49
0.50
 62
   256
  6
BYLAYER
 49
-0.50
 62
   256
  6
BYLAYER
  0
ENDSEC
  0
EOF
