  0
SECTION
  2
HEADER
  9
$ACADVER
  1
AC1018
  9
$DWGCODEPAGE
  3
ANSI_932
  9
$LTSCALE
 40
20.0
  9
$FILLMODE
 70
     1
  9
$CLAYER
  8
0
  9
$PDMODE
 70
     0
  9
$SPLFRAME
 70
     0
  9
$SPLINETYPE
 70
     6
  9
$SPLINESEGS
 70
     8
  9
$DIMASZ
 40
2.000000
  9
$DIMEXE
 40
2.000000
  9
$DIMEXO
 40
0.800000
  9
$DIMTAD
 70
     1
  9
$DIMTIH
 70
     0
  9
$DIMTOH
 70
     0
  9
$DIMTVP
 40
0.500000
  9
$DIMTXT
 40
3.100000
  9
$EXTMIN
 10
0.000000
 20
0.000000
 30
0.000000
  9
$EXTMAX
 10
297.000000
 20
420.000000
 30
0.000000
  9
$MEASUREMENT
 70
  1
  9
$LIMMIN
 10
0.000000
 20
0.000000
  9
$LIMMAX
 10
297.000000
 20
420.000000
  9
$HANDSEED
  5
45D
  9
$LWDISPLAY
290
     0
  9
$DIMBLK
  1
_OPEN
  9
$DIMDEC
 70
     3
  9
$DIMADEC
 70
     4
  9
$DIMAUNIT
 70
     1
  9
$DIMZIN
 70
     8
  9
$DIMAZIN
 70
     2
  9
$DIMTOFL
 70
     1
  0
ENDSEC
  0
SECTION
  2
CLASSES
  0
ENDSEC
  0
SECTION
  2
TABLES
  0
TABLE
  2
VPORT
  5
3FE
100
AcDbSymbolTable
 70
     1
  0
VPORT
  5
3FF
100
AcDbSymbolTableRecord
100
AcDbViewportTableRecord
  2
*ACTIVE
 70
     0
 12
210.120582
 22
148.500000
 40
297.000000
 41
1.414953
  0
ENDTAB
  0
TABLE
  2
LTYPE
  5
400
100
AcDbSymbolTable
 70
     3
  0
LTYPE
  5
401
100
AcDbSymbolTableRecord
100
AcDbLinetypeTableRecord
  2
BYBLOCK
 70
     0
  3

 72
    65
 73
     0
 40
0.0
  0
LTYPE
  5
402
100
AcDbSymbolTableRecord
100
AcDbLinetypeTableRecord
  2
BYLAYER
 70
     0
  3

 72
    65
 73
     0
 40
0.0
  0
LTYPE
  5
403
100
AcDbSymbolTableRecord
100
AcDbLinetypeTableRecord
  2
CONTINUOUS
 70
     0
  3
Solid line (NEC CAE2D for Win R12.1 : 2019.10.04)
 72
    65
 73
     0
 40
0.0
  0
LTYPE
  5
404
100
AcDbSymbolTableRecord
100
AcDbLinetypeTableRecord
  2
HIDDEN
 70
     0
  3
__ __ __ __ __ __ __ __ __ __ __ __ __ __
 72
    65
 73
     2
 40
0.375
 49
0.25
 74
     0
 49
-0.125
 74
     0
  0
LTYPE
  5
405
100
AcDbSymbolTableRecord
100
AcDbLinetypeTableRecord
  2
CENTER
 70
     0
  3
____ _ ____ _ ____ _ ____ _ ____ _ ____
 72
    65
 73
     4
 40
2.0
 49
1.25
 74
     0
 49
-0.25
 74
     0
 49
0.25
 74
     0
 49
-0.25
 74
     0
  0
ENDTAB
  0
TABLE
  2
LAYER
  5
406
100
AcDbSymbolTable
 70
     8
  0
LAYER
  5
407
100
AcDbSymbolTableRecord
100
AcDbLayerTableRecord
  2
0
 70
     0
 62
     7
  6
CONTINUOUS
370
    -3
390

  0
LAYER
  5
408
100
AcDbSymbolTableRecord
100
AcDbLayerTableRecord
  2
MAIN0
 70
     0
 62
     7
  6
CONTINUOUS
370
    -3
390

  0
LAYER
  5
409
100
AcDbSymbolTableRecord
100
AcDbLayerTableRecord
  2
MAIN10
 70
     0
 62
     7
  6
CONTINUOUS
370
    -3
390

  0
LAYER
  5
40A
100
AcDbSymbolTableRecord
100
AcDbLayerTableRecord
  2
MAIN1023
 70
     0
 62
    16
  6
CONTINUOUS
370
    -3
390

  0
LAYER
  5
40B
100
AcDbSymbolTableRecord
100
AcDbLayerTableRecord
  2
BM0
 70
     0
 62
     7
  6
CONTINUOUS
370
    -3
390

  0
LAYER
  5
40C
100
AcDbSymbolTableRecord
100
AcDbLayerTableRecord
  2
BM1023
 70
     0
 62
    16
  6
CONTINUOUS
370
    -3
390

  0
LAYER
  5
40D
100
AcDbSymbolTableRecord
100
AcDbLayerTableRecord
  2
WAKU0
 70
     0
 62
     7
  6
CONTINUOUS
370
    -3
390

  0
LAYER
  5
40E
100
AcDbSymbolTableRecord
100
AcDbLayerTableRecord
  2
WAKU1023
 70
     0
 62
    16
  6
CONTINUOUS
370
    -3
390

  0
ENDTAB
  0
TABLE
  2
STYLE
  5
40F
100
AcDbSymbolTable
 70
     4
  0
STYLE
  5
410
100
AcDbSymbolTableRecord
100
AcDbTextStyleTableRecord
  2
STANDARD
 70
    64
 40
0.0
 41
1.0
 50
0.0
 71
     0
 42
2.800000190734863
  3
TXT
  4

  0
STYLE
  5
411
100
AcDbSymbolTableRecord
100
AcDbTextStyleTableRecord
  2
ANKTATE
 70
    68
 40
0.0
 41
1.0
 50
0.0
 71
     0
 42
2.800000190734863
  3
TXT
  4

  0
STYLE
  5
10B
100
AcDbSymbolTableRecord
100
AcDbTextStyleTableRecord
  2
KNJYOKO
 70
    64
 40
0.0
 41
1.0
 50
0.0
 71
     0
 42
2.800000190734863
  3
TXT
  4
BIGFONT
  0
STYLE
  5
412
100
AcDbSymbolTableRecord
100
AcDbTextStyleTableRecord
  2
KNJTATE
 70
    68
 40
0.0
 41
1.0
 50
0.0
 71
     0
 42
2.800000190734863
  3
TXT
  4
BIGFONT
  0
ENDTAB
  0
TABLE
  2
VIEW
  5
413
100
AcDbSymbolTable
 70
     0
  0
ENDTAB
  0
TABLE
  2
UCS
  5
414
100
AcDbSymbolTable
 70
     0
  0
ENDTAB
  0
TABLE
  2
APPID
  5
415
100
AcDbSymbolTable
 70
     1
  0
APPID
  5
416
100
AcDbSymbolTableRecord
100
AcDbRegAppTableRecord
  2
ACAD
 70
     0
  0
ENDTAB
  0
TABLE
  2
DIMSTYLE
  5
417
100
AcDbSymbolTable
 70
     4
100
AcDbDimStyleTable
  0
DIMSTYLE
105
418
100
AcDbSymbolTableRecord
100
AcDbDimStyleTableRecord
  2
STANDARD
 70
     0
 41
2.000000
 44
2.000000
 42
0.800000
145
0.661290
140
3.100000
144
1.000000
146
0.903226
340
410
  0
DIMSTYLE
105
419
100
AcDbSymbolTableRecord
100
AcDbDimStyleTableRecord
  2
MAIN001
 70
     0
 41
2.000000
 44
2.000000
 42
0.800000
145
0.661290
140
3.100000
144
1.000000
146
0.903226
 77
     1
 73
     0
 74
     0
271
     3
179
     4
275
     1
 78
     8
 79
     2
172
     1
340
410
  0
DIMSTYLE
105
41A
100
AcDbSymbolTableRecord
100
AcDbDimStyleTableRecord
  2
BM002
 70
     0
 41
2.000000
 44
2.000000
 42
0.800000
145
0.661290
140
3.100000
144
1.000000
146
0.903226
 77
     1
 73
     0
 74
     0
271
     3
179
     4
275
     1
 78
     8
 79
     2
172
     1
340
410
  0
DIMSTYLE
105
41B
100
AcDbSymbolTableRecord
100
AcDbDimStyleTableRecord
  2
WAKU003
 70
     0
 41
2.000000
 44
2.000000
 42
0.800000
145
0.661290
140
3.100000
144
1.000000
146
0.903226
 77
     1
 73
     0
 74
     0
271
     3
179
     4
275
     1
 78
     8
 79
     2
172
     1
340
410
  0
ENDTAB
  0
TABLE
  2
BLOCK_RECORD
  5
41C
100
AcDbSymbolTable
 70
    59
  0
BLOCK_RECORD
  5
41D
100
AcDbSymbolTableRecord
100
AcDbBlockTableRecord
  2
*MODEL_SPACE
  0
BLOCK_RECORD
  5
41E
100
AcDbSymbolTableRecord
100
AcDbBlockTableRecord
  2
*PAPER_SPACE
  0
BLOCK_RECORD
  5
41F
100
AcDbSymbolTableRecord
100
AcDbBlockTableRecord
  2
*PAPER_SPACE0
  0
BLOCK_RECORD
  5
1
100
AcDbSymbolTableRecord
100
AcDbBlockTableRecord
  2
_NONE
  0
BLOCK_RECORD
  5
4
100
AcDbSymbolTableRecord
100
AcDbBlockTableRecord
  2
_CLOSED
  0
BLOCK_RECORD
  5
B
100
AcDbSymbolTableRecord
100
AcDbBlockTableRecord
  2
_DOT
  0
BLOCK_RECORD
  5
13
100
AcDbSymbolTableRecord
100
AcDbBlockTableRecord
  2
_OPEN
  0
BLOCK_RECORD
  5
19
100
AcDbSymbolTableRecord
100
AcDbBlockTableRecord
  2
_ORIGIN
  0
BLOCK_RECORD
  5
1E
100
AcDbSymbolTableRecord
100
AcDbBlockTableRecord
  2
_OPEN30
  0
BLOCK_RECORD
  5
24
100
AcDbSymbolTableRecord
100
AcDbBlockTableRecord
  2
_BOXFILLED
  0
BLOCK_RECORD
  5
29
100
AcDbSymbolTableRecord
100
AcDbBlockTableRecord
  2
_BOXBLANK
  0
BLOCK_RECORD
  5
31
100
AcDbSymbolTableRecord
100
AcDbBlockTableRecord
  2
_OBLIQUE
  0
BLOCK_RECORD
  5
35
100
AcDbSymbolTableRecord
100
AcDbBlockTableRecord
  2
_OPEN90
  0
BLOCK_RECORD
  5
3B
100
AcDbSymbolTableRecord
100
AcDbBlockTableRecord
  2
_CLOSEDBLANK
  0
BLOCK_RECORD
  5
41
100
AcDbSymbolTableRecord
100
AcDbBlockTableRecord
  2
_DOTBLANK
  0
BLOCK_RECORD
  5
420
100
AcDbSymbolTableRecord
100
AcDbBlockTableRecord
  2
*D0
  0
BLOCK_RECORD
  5
421
100
AcDbSymbolTableRecord
100
AcDbBlockTableRecord
  2
*D1
  0
BLOCK_RECORD
  5
422
100
AcDbSymbolTableRecord
100
AcDbBlockTableRecord
  2
*D2
  0
BLOCK_RECORD
  5
423
100
AcDbSymbolTableRecord
100
AcDbBlockTableRecord
  2
*D3
  0
BLOCK_RECORD
  5
424
100
AcDbSymbolTableRecord
100
AcDbBlockTableRecord
  2
*D4
  0
BLOCK_RECORD
  5
425
100
AcDbSymbolTableRecord
100
AcDbBlockTableRecord
  2
*D5
  0
BLOCK_RECORD
  5
426
100
AcDbSymbolTableRecord
100
AcDbBlockTableRecord
  2
*D6
  0
BLOCK_RECORD
  5
427
100
AcDbSymbolTableRecord
100
AcDbBlockTableRecord
  2
*D7
  0
BLOCK_RECORD
  5
428
100
AcDbSymbolTableRecord
100
AcDbBlockTableRecord
  2
*D8
  0
BLOCK_RECORD
  5
429
100
AcDbSymbolTableRecord
100
AcDbBlockTableRecord
  2
*D9
  0
BLOCK_RECORD
  5
42A
100
AcDbSymbolTableRecord
100
AcDbBlockTableRecord
  2
*D10
  0
BLOCK_RECORD
  5
42B
100
AcDbSymbolTableRecord
100
AcDbBlockTableRecord
  2
*D11
  0
BLOCK_RECORD
  5
42C
100
AcDbSymbolTableRecord
100
AcDbBlockTableRecord
  2
*D12
  0
BLOCK_RECORD
  5
42D
100
AcDbSymbolTableRecord
100
AcDbBlockTableRecord
  2
*D13
  0
BLOCK_RECORD
  5
42E
100
AcDbSymbolTableRecord
100
AcDbBlockTableRecord
  2
*D14
  0
BLOCK_RECORD
  5
42F
100
AcDbSymbolTableRecord
100
AcDbBlockTableRecord
  2
*D15
  0
BLOCK_RECORD
  5
430
100
AcDbSymbolTableRecord
100
AcDbBlockTableRecord
  2
*D16
  0
BLOCK_RECORD
  5
431
100
AcDbSymbolTableRecord
100
AcDbBlockTableRecord
  2
*D17
  0
BLOCK_RECORD
  5
432
100
AcDbSymbolTableRecord
100
AcDbBlockTableRecord
  2
D18
  0
BLOCK_RECORD
  5
433
100
AcDbSymbolTableRecord
100
AcDbBlockTableRecord
  2
D19
  0
BLOCK_RECORD
  5
434
100
AcDbSymbolTableRecord
100
AcDbBlockTableRecord
  2
*D20
  0
BLOCK_RECORD
  5
435
100
AcDbSymbolTableRecord
100
AcDbBlockTableRecord
  2
*D21
  0
BLOCK_RECORD
  5
436
100
AcDbSymbolTableRecord
100
AcDbBlockTableRecord
  2
*D22
  0
BLOCK_RECORD
  5
437
100
AcDbSymbolTableRecord
100
AcDbBlockTableRecord
  2
*D23
  0
BLOCK_RECORD
  5
438
100
AcDbSymbolTableRecord
100
AcDbBlockTableRecord
  2
M0
  0
BLOCK_RECORD
  5
439
100
AcDbSymbolTableRecord
100
AcDbBlockTableRecord
  2
M1
  0
BLOCK_RECORD
  5
43A
100
AcDbSymbolTableRecord
100
AcDbBlockTableRecord
  2
*D24
  0
BLOCK_RECORD
  5
43B
100
AcDbSymbolTableRecord
100
AcDbBlockTableRecord
  2
*D25
  0
BLOCK_RECORD
  5
43C
100
AcDbSymbolTableRecord
100
AcDbBlockTableRecord
  2
*D26
  0
BLOCK_RECORD
  5
43D
100
AcDbSymbolTableRecord
100
AcDbBlockTableRecord
  2
D27
  0
BLOCK_RECORD
  5
43E
100
AcDbSymbolTableRecord
100
AcDbBlockTableRecord
  2
D28
  0
BLOCK_RECORD
  5
43F
100
AcDbSymbolTableRecord
100
AcDbBlockTableRecord
  2
D29
  0
BLOCK_RECORD
  5
440
100
AcDbSymbolTableRecord
100
AcDbBlockTableRecord
  2
D30
  0
BLOCK_RECORD
  5
441
100
AcDbSymbolTableRecord
100
AcDbBlockTableRecord
  2
D31
  0
BLOCK_RECORD
  5
442
100
AcDbSymbolTableRecord
100
AcDbBlockTableRecord
  2
D32
  0
BLOCK_RECORD
  5
443
100
AcDbSymbolTableRecord
100
AcDbBlockTableRecord
  2
D33
  0
BLOCK_RECORD
  5
444
100
AcDbSymbolTableRecord
100
AcDbBlockTableRecord
  2
D34
  0
BLOCK_RECORD
  5
445
100
AcDbSymbolTableRecord
100
AcDbBlockTableRecord
  2
*D35
  0
BLOCK_RECORD
  5
446
100
AcDbSymbolTableRecord
100
AcDbBlockTableRecord
  2
*D36
  0
BLOCK_RECORD
  5
447
100
AcDbSymbolTableRecord
100
AcDbBlockTableRecord
  2
*D37
  0
BLOCK_RECORD
  5
448
100
AcDbSymbolTableRecord
100
AcDbBlockTableRecord
  2
*D38
  0
BLOCK_RECORD
  5
449
100
AcDbSymbolTableRecord
100
AcDbBlockTableRecord
  2
*D39
  0
BLOCK_RECORD
  5
44A
100
AcDbSymbolTableRecord
100
AcDbBlockTableRecord
  2
*D40
  0
BLOCK_RECORD
  5
44B
100
AcDbSymbolTableRecord
100
AcDbBlockTableRecord
  2
M2
  0
BLOCK_RECORD
  5
44C
100
AcDbSymbolTableRecord
100
AcDbBlockTableRecord
  2
M3
  0
BLOCK_RECORD
  5
44D
100
AcDbSymbolTableRecord
100
AcDbBlockTableRecord
  2
M4
  0
BLOCK_RECORD
  5
44E
100
AcDbSymbolTableRecord
100
AcDbBlockTableRecord
  2
M5
  0
ENDTAB
  0
ENDSEC
  0
SECTION
  2
BLOCKS
  0
BLOCK
  5
44F
100
AcDbEntity
  8
0
100
AcDbBlockBegin
  2
*MODEL_SPACE
 70
     0
 10
0.0
 20
0.0
 30
0.0
  3
*MODEL_SPACE
  1

  0
ENDBLK
  5
450
100
AcDbEntity
  8
0
100
AcDbBlockEnd
  0
BLOCK
  5
451
100
AcDbEntity
  8
0
100
AcDbBlockBegin
  2
*PAPER_SPACE
 70
     0
 10
0.0
 20
0.0
 30
0.0
  3
*PAPER_SPACE
  1

  0
ENDBLK
  5
452
100
AcDbEntity
  8
0
100
AcDbBlockEnd
  0
BLOCK
  5
453
100
AcDbEntity
  8
0
100
AcDbBlockBegin
  2
*PAPER_SPACE0
 70
     0
 10
0.0
 20
0.0
 30
0.0
  3
*PAPER_SPACE0
  1

  0
ENDBLK
  5
454
100
AcDbEntity
  8
0
100
AcDbBlockEnd
  0
BLOCK
  5
2
330
1
100
AcDbEntity
  8
0
100
AcDbBlockBegin
  2
_NONE
 70
     0
 10
0.0
 20
0.0
 30
0.0
  3
_NONE
  1

  0
ENDBLK
  5
3
330
1
100
AcDbEntity
  8
0
100
AcDbBlockEnd
  0
BLOCK
  5
5
330
4
100
AcDbEntity
  8
0
100
AcDbBlockBegin
  2
_CLOSED
 70
     0
 10
0.0
 20
0.0
 30
0.0
  3
_CLOSED
  1

  0
LINE
  5
6
330
4
100
AcDbEntity
  8
0
  6
BYBLOCK
 62
     0
370
    -2
100
AcDbLine
 10
-1.0
 20
0.166667
 30
0.0
 11
0.0
 21
0.0
 31
0.0
  0
LINE
  5
7
330
4
100
AcDbEntity
  8
0
  6
BYBLOCK
 62
     0
370
    -2
100
AcDbLine
 10
0.0
 20
0.0
 30
0.0
 11
-1.0
 21
-0.166667
 31
0.0
  0
LINE
  5
8
330
4
100
AcDbEntity
  8
0
  6
BYBLOCK
 62
     0
370
    -2
100
AcDbLine
 10
-1.0
 20
0.166667
 30
0.0
 11
-1.0
 21
-0.166667
 31
0.0
  0
LINE
  5
9
330
4
100
AcDbEntity
  8
0
  6
BYBLOCK
 62
     0
370
    -2
100
AcDbLine
 10
0.0
 20
0.0
 30
0.0
 11
-1.0
 21
0.0
 31
0.0
  0
ENDBLK
  5
A
330
4
100
AcDbEntity
  8
0
100
AcDbBlockEnd
  0
BLOCK
  5
C
330
B
100
AcDbEntity
  8
0
100
AcDbBlockBegin
  2
_DOT
 70
     0
 10
0.0
 20
0.0
 30
0.0
  3
_DOT
  1

  0
POLYLINE
  5
D
330
B
100
AcDbEntity
  8
0
  6
BYBLOCK
 62
     0
370
    -2
100
AcDb2dPolyline
 66
     1
 10
0.0
 20
0.0
 30
0.0
 70
     1
 40
0.5
 41
0.5
  0
VERTEX
  5
E
330
B
100
AcDbEntity
  8
0
  6
BYBLOCK
 62
     0
370
    -2
100
AcDbVertex
100
AcDb2dVertex
 10
-0.25
 20
0.0
 30
0.0
 42
1.0
  0
VERTEX
  5
F
330
B
100
AcDbEntity
  8
0
  6
BYBLOCK
 62
     0
370
    -2
100
AcDbVertex
100
AcDb2dVertex
 10
0.25
 20
0.0
 30
0.0
 42
1.0
  0
SEQEND
  5
10
330
B
100
AcDbEntity
  8
0
  6
BYBLOCK
 62
     0
370
    -2
  0
LINE
  5
11
330
B
100
AcDbEntity
  8
0
  6
BYBLOCK
 62
     0
370
    -2
100
AcDbLine
 10
-0.5
 20
0.0
 30
0.0
 11
-1.0
 21
0.0
 31
0.0
  0
ENDBLK
  5
12
330
B
100
AcDbEntity
  8
0
100
AcDbBlockEnd
  0
BLOCK
  5
14
330
13
100
AcDbEntity
  8
0
100
AcDbBlockBegin
  2
_OPEN
 70
     0
 10
0.0
 20
0.0
 30
0.0
  3
_OPEN
  1

  0
LINE
  5
15
330
13
100
AcDbEntity
  8
0
  6
BYBLOCK
 62
     0
370
    -2
100
AcDbLine
 10
-1.0
 20
0.166667
 30
0.0
 11
0.0
 21
0.0
 31
0.0
  0
LINE
  5
16
330
13
100
AcDbEntity
  8
0
  6
BYBLOCK
 62
     0
370
    -2
100
AcDbLine
 10
0.0
 20
0.0
 30
0.0
 11
-1.0
 21
-0.166667
 31
0.0
  0
LINE
  5
17
330
13
100
AcDbEntity
  8
0
  6
BYBLOCK
 62
     0
370
    -2
100
AcDbLine
 10
0.0
 20
0.0
 30
0.0
 11
-1.0
 21
0.0
 31
0.0
  0
ENDBLK
  5
18
330
13
100
AcDbEntity
  8
0
100
AcDbBlockEnd
  0
BLOCK
  5
1A
330
19
100
AcDbEntity
  8
0
100
AcDbBlockBegin
  2
_ORIGIN
 70
     0
 10
0.0
 20
0.0
 30
0.0
  3
_ORIGIN
  1

  0
CIRCLE
  5
1B
330
19
100
AcDbEntity
  8
0
  6
BYBLOCK
 62
     0
370
    -2
100
AcDbCircle
 10
0.0
 20
0.0
 30
0.0
 40
0.5
  0
LINE
  5
1C
330
19
100
AcDbEntity
  8
0
  6
BYBLOCK
 62
     0
370
    -2
100
AcDbLine
 10
0.0
 20
0.0
 30
0.0
 11
-1.0
 21
0.0
 31
0.0
  0
ENDBLK
  5
1D
330
19
100
AcDbEntity
  8
0
100
AcDbBlockEnd
  0
BLOCK
  5
1F
330
1E
100
AcDbEntity
  8
0
100
AcDbBlockBegin
  2
_OPEN30
 70
     0
 10
0.0
 20
0.0
 30
0.0
  3
_OPEN30
  1

  0
LINE
  5
20
330
1E
100
AcDbEntity
  8
0
  6
BYBLOCK
 62
     0
370
    -2
100
AcDbLine
 10
-1.0
 20
0.267949
 30
0.0
 11
0.0
 21
0.0
 31
0.0
  0
LINE
  5
21
330
1E
100
AcDbEntity
  8
0
  6
BYBLOCK
 62
     0
370
    -2
100
AcDbLine
 10
0.0
 20
0.0
 30
0.0
 11
-1.0
 21
-0.267949
 31
0.0
  0
LINE
  5
22
330
1E
100
AcDbEntity
  8
0
  6
BYBLOCK
 62
     0
370
    -2
100
AcDbLine
 10
0.0
 20
0.0
 30
0.0
 11
-1.0
 21
0.0
 31
0.0
  0
ENDBLK
  5
23
330
1E
100
AcDbEntity
  8
0
100
AcDbBlockEnd
  0
BLOCK
  5
25
330
24
100
AcDbEntity
  8
0
100
AcDbBlockBegin
  2
_BOXFILLED
 70
     0
 10
0.0
 20
0.0
 30
0.0
  3
_BOXFILLED
  1

  0
SOLID
  5
26
330
24
100
AcDbEntity
  8
0
  6
BYBLOCK
 62
     0
370
    -2
100
AcDbTrace
 10
-0.5
 20
0.5
 30
0.0
 11
0.5
 21
0.5
 31
0.0
 12
-0.5
 22
-0.5
 32
0.0
 13
0.5
 23
-0.5
 33
0.0
  0
LINE
  5
27
330
24
100
AcDbEntity
  8
0
  6
BYBLOCK
 62
     0
370
    -2
100
AcDbLine
 10
-0.5
 20
0.0
 30
0.0
 11
-1.0
 21
0.0
 31
0.0
  0
ENDBLK
  5
28
330
24
100
AcDbEntity
  8
0
100
AcDbBlockEnd
  0
BLOCK
  5
2A
330
29
100
AcDbEntity
  8
0
100
AcDbBlockBegin
  2
_BOXBLANK
 70
     0
 10
0.0
 20
0.0
 30
0.0
  3
_BOXBLANK
  1

  0
LINE
  5
2B
330
29
100
AcDbEntity
  8
0
  6
BYBLOCK
 62
     0
370
    -2
100
AcDbLine
 10
-0.5
 20
-0.5
 30
0.0
 11
0.5
 21
-0.5
 31
0.0
  0
LINE
  5
2C
330
29
100
AcDbEntity
  8
0
  6
BYBLOCK
 62
     0
370
    -2
100
AcDbLine
 10
0.5
 20
-0.5
 30
0.0
 11
0.5
 21
0.5
 31
0.0
  0
LINE
  5
2D
330
29
100
AcDbEntity
  8
0
  6
BYBLOCK
 62
     0
370
    -2
100
AcDbLine
 10
0.5
 20
0.5
 30
0.0
 11
-0.5
 21
0.5
 31
0.0
  0
LINE
  5
2E
330
29
100
AcDbEntity
  8
0
  6
BYBLOCK
 62
     0
370
    -2
100
AcDbLine
 10
-0.5
 20
0.5
 30
0.0
 11
-0.5
 21
-0.5
 31
0.0
  0
LINE
  5
2F
330
29
100
AcDbEntity
  8
0
  6
BYBLOCK
 62
     0
370
    -2
100
AcDbLine
 10
-0.5
 20
0.0
 30
0.0
 11
-1.0
 21
0.0
 31
0.0
  0
ENDBLK
  5
30
330
29
100
AcDbEntity
  8
0
100
AcDbBlockEnd
  0
BLOCK
  5
32
330
31
100
AcDbEntity
  8
0
100
AcDbBlockBegin
  2
_OBLIQUE
 70
     0
 10
0.0
 20
0.0
 30
0.0
  3
_OBLIQUE
  1

  0
LINE
  5
33
330
31
100
AcDbEntity
  8
0
  6
BYBLOCK
 62
     0
370
    -2
100
AcDbLine
 10
-0.5
 20
-0.5
 30
0.0
 11
0.5
 21
0.5
 31
0.0
  0
ENDBLK
  5
34
330
31
100
AcDbEntity
  8
0
100
AcDbBlockEnd
  0
BLOCK
  5
36
330
35
100
AcDbEntity
  8
0
100
AcDbBlockBegin
  2
_OPEN90
 70
     0
 10
0.0
 20
0.0
 30
0.0
  3
_OPEN90
  1

  0
LINE
  5
37
330
35
100
AcDbEntity
  8
0
  6
BYBLOCK
 62
     0
370
    -2
100
AcDbLine
 10
-0.5
 20
0.5
 30
0.0
 11
0.0
 21
0.0
 31
0.0
  0
LINE
  5
38
330
35
100
AcDbEntity
  8
0
  6
BYBLOCK
 62
     0
370
    -2
100
AcDbLine
 10
0.0
 20
0.0
 30
0.0
 11
-0.5
 21
-0.5
 31
0.0
  0
LINE
  5
39
330
35
100
AcDbEntity
  8
0
  6
BYBLOCK
 62
     0
370
    -2
100
AcDbLine
 10
0.0
 20
0.0
 30
0.0
 11
-1.0
 21
0.0
 31
0.0
  0
ENDBLK
  5
3A
330
35
100
AcDbEntity
  8
0
100
AcDbBlockEnd
  0
BLOCK
  5
3C
330
3B
100
AcDbEntity
  8
0
100
AcDbBlockBegin
  2
_CLOSEDBLANK
 70
     0
 10
0.0
 20
0.0
 30
0.0
  3
_CLOSEDBLANK
  1

  0
LINE
  5
3D
330
3B
100
AcDbEntity
  8
0
  6
BYBLOCK
 62
     0
370
    -2
100
AcDbLine
 10
-1.0
 20
0.1666666666666666
 30
0.0
 11
0.0
 21
0.0
 31
0.0
  0
LINE
  5
3E
330
3B
100
AcDbEntity
  8
0
  6
BYBLOCK
 62
     0
370
    -2
100
AcDbLine
 10
0.0
 20
0.0
 30
0.0
 11
-1.0
 21
-0.1666666666666666
 31
0.0
  0
LINE
  5
3F
330
3B
100
AcDbEntity
  8
0
  6
BYBLOCK
 62
     0
370
    -2
100
AcDbLine
 10
-1.0
 20
0.1666666666666666
 30
0.0
 11
-1.0
 21
-0.1666666666666666
 31
0.0
  0
ENDBLK
  5
40
330
3B
100
AcDbEntity
  8
0
100
AcDbBlockEnd
  0
BLOCK
  5
42
330
41
100
AcDbEntity
  8
0
100
AcDbBlockBegin
  2
_DOTBLANK
 70
     0
 10
0.0
 20
0.0
 30
0.0
  3
_DOTBLANK
  1

  0
CIRCLE
  5
43
330
41
100
AcDbEntity
  8
0
  6
BYBLOCK
 62
     0
370
    -2
100
AcDbCircle
 10
0.0
 20
0.0
 30
0.0
 40
0.5
  0
LINE
  5
44
330
41
100
AcDbEntity
  8
0
  6
BYBLOCK
 62
     0
370
    -2
100
AcDbLine
 10
-0.5
 20
0.0
 30
0.0
 11
-1.0
 21
0.0
 31
0.0
  0
ENDBLK
  5
45
330
41
100
AcDbEntity
  8
0
100
AcDbBlockEnd
  0
BLOCK
  5
46
100
AcDbEntity
  8
MAIN0
  6
CONTINUOUS
 62
3
100
AcDbBlockBegin
  2
*D0
 70
    65
 10
0.0
 20
0.0
 30
0.0
  0
LINE
  5
47
100
AcDbEntity
  8
MAIN0
  6
BYBLOCK
 62
0
370
    -2
100
AcDbLine
 10
101.5834463150638
 20
198.5755745294229
 30
0.0000000000000000
 11
101.5834463150638
 21
171.8255758535378
 31
0.0000000000000000
  0
LINE
  5
48
100
AcDbEntity
  8
MAIN0
  6
BYBLOCK
 62
0
370
    -2
100
AcDbLine
 10
101.5834463150638
 20
173.8255758535378
 30
0.0000000000000000
 11
105.5834463143899
 21
173.8255758535378
 31
0.0000000000000000
  0
INSERT
  5
49
100
AcDbEntity
  8
MAIN0
  6
BYBLOCK
 62
0
100
AcDbBlockReference
  2
_OPEN
 10
101.5834463150638
 20
173.8255758535378
 30
0.0000000000000000
 41
2.000000000000000
 42
2.000000000000000
 43
2.000000000000000
 50
0.0000000000000000
  0
INSERT
  5
4A
100
AcDbEntity
  8
MAIN0
  6
BYBLOCK
 62
0
100
AcDbBlockReference
  2
_OPEN
 10
105.5834463143899
 20
173.8255758535378
 30
0.0000000000000000
 41
2.000000000000000
 42
2.000000000000000
 43
2.000000000000000
 50
180.0000000000000
  0
LINE
  5
4B
100
AcDbEntity
  8
MAIN0
  6
BYBLOCK
 62
0
370
    -2
100
AcDbLine
 10
99.58344631506375
 20
173.8255758535378
 30
0.0000000000000000
 11
92.54230194403104
 21
173.8255758535378
 31
0.0000000000000000
  0
LINE
  5
4C
100
AcDbEntity
  8
MAIN0
  6
BYBLOCK
 62
0
370
    -2
100
AcDbLine
 10
107.5834463143899
 20
173.8255758535378
 30
0.0000000000000000
 11
108.5834463143899
 21
173.8255758535378
 31
0.0000000000000000
  0
LINE
  5
4D
100
AcDbEntity
  8
MAIN0
  6
BYBLOCK
 62
0
370
    -2
100
AcDbLine
 10
105.5834463143899
 20
198.5755745293890
 30
0.0000000000000000
 11
105.5834463143899
 21
171.8255758535378
 31
0.0000000000000000
  0
MTEXT
  5
4E
100
AcDbEntity
  8
MAIN0
  6
BYBLOCK
 62
0
100
AcDbMText
 10
95.69230168182833
 20
175.8755758058541
 30
0.0000000000000000
 40
3.099999904632568
 41
0.0000000000000000
 44
0.7741935722041460
 71
     5
 72
     1
  1
\A1;4-4
 11
1.000000000000000
 21
0.0000000000000000
 31
0.0000000000000000
  7
STANDARD
  0
ENDBLK
  5
4F
100
AcDbEntity
  8
MAIN0
  6
CONTINUOUS
 62
3
100
AcDbBlockEnd
  0
BLOCK
  5
51
100
AcDbEntity
  8
MAIN0
  6
CONTINUOUS
 62
3
100
AcDbBlockBegin
  2
*D1
 70
    65
 10
0.0
 20
0.0
 30
0.0
  0
LINE
  5
52
100
AcDbEntity
  8
MAIN0
  6
BYBLOCK
 62
0
370
    -2
100
AcDbLine
 10
185.6834463009988
 20
213.8755745416304
 30
0.0000000000000000
 11
174.1878579273591
 21
213.8755745416304
 31
0.0000000000000000
  0
LINE
  5
53
100
AcDbEntity
  8
MAIN0
  6
BYBLOCK
 62
0
370
    -2
100
AcDbLine
 10
176.1878579273591
 20
213.8755745416304
 30
0.0000000000000000
 11
176.1878579273591
 21
203.8755745416304
 31
0.0000000000000000
  0
INSERT
  5
54
100
AcDbEntity
  8
MAIN0
  6
BYBLOCK
 62
0
100
AcDbBlockReference
  2
_OPEN
 10
176.1878579273591
 20
213.8755745416304
 30
0.0000000000000000
 41
2.000000000000000
 42
2.000000000000000
 43
2.000000000000000
 50
270.0000000000000
  0
INSERT
  5
55
100
AcDbEntity
  8
MAIN0
  6
BYBLOCK
 62
0
100
AcDbBlockReference
  2
_OPEN
 10
176.1878579273591
 20
203.8755745416304
 30
0.0000000000000000
 41
2.000000000000000
 42
2.000000000000000
 43
2.000000000000000
 50
90.00000000000000
  0
LINE
  5
56
100
AcDbEntity
  8
MAIN0
  6
BYBLOCK
 62
0
370
    -2
100
AcDbLine
 10
176.1878579273591
 20
215.8755745416304
 30
0.0000000000000000
 11
176.1878579273591
 21
228.1132292276045
 31
0.0000000000000000
  0
LINE
  5
57
100
AcDbEntity
  8
MAIN0
  6
BYBLOCK
 62
0
370
    -2
100
AcDbLine
 10
176.1878579273591
 20
201.8755745416304
 30
0.0000000000000000
 11
176.1878579273591
 21
200.8755745416304
 31
0.0000000000000000
  0
LINE
  5
58
100
AcDbEntity
  8
MAIN0
  6
BYBLOCK
 62
0
370
    -2
100
AcDbLine
 10
185.6834463008690
 20
203.8755745416304
 30
0.0000000000000000
 11
174.1878579273591
 21
203.8755745416304
 31
0.0000000000000000
  0
MTEXT
  5
59
100
AcDbEntity
  8
MAIN0
  6
BYBLOCK
 62
0
100
AcDbMText
 10
174.1378579750428
 20
222.6132287718255
 30
0.0000000000000000
 40
3.099999904632568
 41
0.0000000000000000
 44
0.7741935722041460
 71
     5
 72
     1
  1
\A1;\U+220510g7
 11
6.123233995736766e-017
 21
1.000000000000000
 31
0.0000000000000000
  7
STANDARD
  0
ENDBLK
  5
5A
100
AcDbEntity
  8
MAIN0
  6
CONTINUOUS
 62
3
100
AcDbBlockEnd
  0
BLOCK
  5
5C
100
AcDbEntity
  8
MAIN0
  6
CONTINUOUS
 62
3
100
AcDbBlockBegin
  2
*D2
 70
    65
 10
0.0
 20
0.0
 30
0.0
  0
LINE
  5
5D
100
AcDbEntity
  8
MAIN0
  6
BYBLOCK
 62
0
370
    -2
100
AcDbLine
 10
195.3334463129417
 20
214.6755745535477
 30
0.0000000000000000
 11
195.3334463129417
 21
237.6012361240809
 31
0.0000000000000000
  0
LINE
  5
5E
100
AcDbEntity
  8
MAIN0
  6
BYBLOCK
 62
0
370
    -2
100
AcDbLine
 10
195.3334463129417
 20
235.6012361240809
 30
0.0000000000000000
 11
198.8334463128218
 21
235.6012361240809
 31
0.0000000000000000
  0
INSERT
  5
5F
100
AcDbEntity
  8
MAIN0
  6
BYBLOCK
 62
0
100
AcDbBlockReference
  2
_OPEN
 10
195.3334463129417
 20
235.6012361240809
 30
0.0000000000000000
 41
2.000000000000000
 42
2.000000000000000
 43
2.000000000000000
 50
0.0000000000000000
  0
INSERT
  5
60
100
AcDbEntity
  8
MAIN0
  6
BYBLOCK
 62
0
100
AcDbBlockReference
  2
_OPEN
 10
198.8334463128218
 20
235.6012361240809
 30
0.0000000000000000
 41
2.000000000000000
 42
2.000000000000000
 43
2.000000000000000
 50
180.0000000000000
  0
LINE
  5
61
100
AcDbEntity
  8
MAIN0
  6
BYBLOCK
 62
0
370
    -2
100
AcDbLine
 10
193.3334463129417
 20
235.6012361240809
 30
0.0000000000000000
 11
188.1477778444664
 21
235.6012361240809
 31
0.0000000000000000
  0
LINE
  5
62
100
AcDbEntity
  8
MAIN0
  6
BYBLOCK
 62
0
370
    -2
100
AcDbLine
 10
200.8334463128218
 20
235.6012361240809
 30
0.0000000000000000
 11
201.8334463128218
 21
235.6012361240809
 31
0.0000000000000000
  0
LINE
  5
63
100
AcDbEntity
  8
MAIN0
  6
BYBLOCK
 62
0
370
    -2
100
AcDbLine
 10
198.8334463128218
 20
214.6755745534266
 30
0.0000000000000000
 11
198.8334463128218
 21
237.6012361240809
 31
0.0000000000000000
  0
MTEXT
  5
64
100
AcDbEntity
  8
MAIN0
  6
BYBLOCK
 62
0
100
AcDbMText
 10
190.7977780796207
 20
237.6512360763971
 30
0.0000000000000000
 40
3.099999904632568
 41
0.0000000000000000
 44
0.7741935722041460
 71
     5
 72
     1
  1
\A1;3.5
 11
1.000000000000000
 21
0.0000000000000000
 31
0.0000000000000000
  7
STANDARD
  0
ENDBLK
  5
65
100
AcDbEntity
  8
MAIN0
  6
CONTINUOUS
 62
3
100
AcDbBlockEnd
  0
BLOCK
  5
67
100
AcDbEntity
  8
MAIN0
  6
CONTINUOUS
 62
3
100
AcDbBlockBegin
  2
*D3
 70
    65
 10
0.0
 20
0.0
 30
0.0
  0
LINE
  5
68
100
AcDbEntity
  8
MAIN0
  6
BYBLOCK
 62
0
370
    -2
100
AcDbLine
 10
203.5834463129323
 20
229.2755745534886
 30
0.0000000000000000
 11
203.5834463129323
 21
244.8830259290928
 31
0.0000000000000000
  0
LINE
  5
69
100
AcDbEntity
  8
MAIN0
  6
BYBLOCK
 62
0
370
    -2
100
AcDbLine
 10
203.5834463129323
 20
242.8830259290928
 30
0.0000000000000000
 11
197.0834463129463
 21
242.8830259290928
 31
0.0000000000000000
  0
INSERT
  5
6A
100
AcDbEntity
  8
MAIN0
  6
BYBLOCK
 62
0
100
AcDbBlockReference
  2
_OPEN
 10
203.5834463129323
 20
242.8830259290928
 30
0.0000000000000000
 41
2.000000000000000
 42
2.000000000000000
 43
2.000000000000000
 50
180.0000000000000
  0
INSERT
  5
6B
100
AcDbEntity
  8
MAIN0
  6
BYBLOCK
 62
0
100
AcDbBlockReference
  2
_OPEN
 10
197.0834463129463
 20
242.8830259290928
 30
0.0000000000000000
 41
2.000000000000000
 42
2.000000000000000
 43
2.000000000000000
 50
360.0000000000000
  0
LINE
  5
6C
100
AcDbEntity
  8
MAIN0
  6
BYBLOCK
 62
0
370
    -2
100
AcDbLine
 10
205.5834463129323
 20
242.8830259290928
 30
0.0000000000000000
 11
212.9972169885915
 21
242.8830259290928
 31
0.0000000000000000
  0
LINE
  5
6D
100
AcDbEntity
  8
MAIN0
  6
BYBLOCK
 62
0
370
    -2
100
AcDbLine
 10
195.0834463129463
 20
242.8830259290928
 30
0.0000000000000000
 11
194.0834463129463
 21
242.8830259290928
 31
0.0000000000000000
  0
LINE
  5
6E
100
AcDbEntity
  8
MAIN0
  6
BYBLOCK
 62
0
370
    -2
100
AcDbLine
 10
197.0834463129463
 20
216.1083586032914
 30
0.0000000000000000
 11
197.0834463129463
 21
244.8830259290928
 31
0.0000000000000000
  0
MTEXT
  5
6F
100
AcDbEntity
  8
MAIN0
  6
BYBLOCK
 62
0
100
AcDbMText
 10
210.3472173432574
 20
244.9330258814091
 30
0.0000000000000000
 40
3.099999904632568
 41
0.0000000000000000
 44
0.7741935722041460
 71
     5
 72
     1
  1
\A1;6.5
 11
1.000000000000000
 21
0.0000000000000000
 31
0.0000000000000000
  7
STANDARD
  0
ENDBLK
  5
70
100
AcDbEntity
  8
MAIN0
  6
CONTINUOUS
 62
3
100
AcDbBlockEnd
  0
BLOCK
  5
72
100
AcDbEntity
  8
MAIN0
  6
CONTINUOUS
 62
3
100
AcDbBlockBegin
  2
*D4
 70
    65
 10
0.0
 20
0.0
 30
0.0
  0
LINE
  5
73
100
AcDbEntity
  8
MAIN0
  6
BYBLOCK
 62
0
370
    -2
100
AcDbLine
 10
186.0834463129428
 20
214.2755745535739
 30
0.0000000000000000
 11
186.0834463129428
 21
252.4640743287202
 31
0.0000000000000000
  0
LINE
  5
74
100
AcDbEntity
  8
MAIN0
  6
BYBLOCK
 62
0
370
    -2
100
AcDbLine
 10
186.0834463129428
 20
250.4640743287202
 30
0.0000000000000000
 11
203.5834463129323
 21
250.4640743287202
 31
0.0000000000000000
  0
INSERT
  5
75
100
AcDbEntity
  8
MAIN0
  6
BYBLOCK
 62
0
100
AcDbBlockReference
  2
_OPEN
 10
186.0834463129428
 20
250.4640743287202
 30
0.0000000000000000
 41
2.000000000000000
 42
2.000000000000000
 43
2.000000000000000
 50
0.0000000000000000
  0
INSERT
  5
76
100
AcDbEntity
  8
MAIN0
  6
BYBLOCK
 62
0
100
AcDbBlockReference
  2
_OPEN
 10
203.5834463129323
 20
250.4640743287202
 30
0.0000000000000000
 41
2.000000000000000
 42
2.000000000000000
 43
2.000000000000000
 50
180.0000000000000
  0
LINE
  5
77
100
AcDbEntity
  8
MAIN0
  6
BYBLOCK
 62
0
370
    -2
100
AcDbLine
 10
184.0834463129428
 20
250.4640743287202
 30
0.0000000000000000
 11
183.0834463129428
 21
250.4640743287202
 31
0.0000000000000000
  0
LINE
  5
78
100
AcDbEntity
  8
MAIN0
  6
BYBLOCK
 62
0
370
    -2
100
AcDbLine
 10
205.5834463129323
 20
250.4640743287202
 30
0.0000000000000000
 11
206.5834463129323
 21
250.4640743287202
 31
0.0000000000000000
  0
LINE
  5
79
100
AcDbEntity
  8
MAIN0
  6
BYBLOCK
 62
0
370
    -2
100
AcDbLine
 10
203.5834463129323
 20
229.2755745534886
 30
0.0000000000000000
 11
203.5834463129323
 21
252.4809219391939
 31
0.0000000000000000
  0
MTEXT
  5
7A
100
AcDbEntity
  8
MAIN0
  6
BYBLOCK
 62
0
100
AcDbMText
 10
194.8334463129375
 20
252.5140742810365
 30
0.0000000000000000
 40
3.099999904632568
 41
0.0000000000000000
 44
0.7741935722041460
 71
     5
 72
     1
  1
\A1;17.5
 11
1.000000000000000
 21
0.0000000000000000
 31
0.0000000000000000
  7
STANDARD
  0
ENDBLK
  5
7B
100
AcDbEntity
  8
MAIN0
  6
CONTINUOUS
 62
3
100
AcDbBlockEnd
  0
BLOCK
  5
7D
100
AcDbEntity
  8
MAIN0
  6
CONTINUOUS
 62
3
100
AcDbBlockBegin
  2
*D5
 70
    65
 10
0.0
 20
0.0
 30
0.0
  0
LINE
  5
7E
100
AcDbEntity
  8
MAIN0
  6
BYBLOCK
 62
0
370
    -2
100
AcDbLine
 10
203.5834463129323
 20
229.2755745534886
 30
0.0000000000000000
 11
203.5834463129323
 21
252.4809219391939
 31
0.0000000000000000
  0
LINE
  5
7F
100
AcDbEntity
  8
MAIN0
  6
BYBLOCK
 62
0
370
    -2
100
AcDbLine
 10
205.5834463129323
 20
250.4640743287202
 30
0.0000000000000000
 11
221.5834463129342
 21
250.4640743287202
 31
0.0000000000000000
  0
INSERT
  5
80
100
AcDbEntity
  8
MAIN0
  6
BYBLOCK
 62
0
100
AcDbBlockReference
  2
_OPEN
 10
203.5834463129323
 20
250.4640743287202
 30
0.0000000000000000
 41
2.000000000000000
 42
2.000000000000000
 43
2.000000000000000
 50
180.0000000000000
  0
INSERT
  5
81
100
AcDbEntity
  8
MAIN0
  6
BYBLOCK
 62
0
100
AcDbBlockReference
  2
_OPEN
 10
223.5834463129342
 20
250.4640743287202
 30
0.0000000000000000
 41
2.000000000000000
 42
2.000000000000000
 43
2.000000000000000
 50
0.0000000000000000
  0
LINE
  5
82
100
AcDbEntity
  8
MAIN0
  6
BYBLOCK
 62
0
370
    -2
100
AcDbLine
 10
223.5834463129342
 20
226.7755745535505
 30
0.0000000000000000
 11
223.5834463129342
 21
252.4640743287202
 31
0.0000000000000000
  0
MTEXT
  5
83
100
AcDbEntity
  8
MAIN0
  6
BYBLOCK
 62
0
100
AcDbMText
 10
213.5834463129332
 20
252.5140742810365
 30
0.0000000000000000
 40
3.099999904632568
 41
0.0000000000000000
 44
0.7741935722041460
 71
     5
 72
     1
  1
\A1;20
 11
1.000000000000000
 21
0.0000000000000000
 31
0.0000000000000000
  7
STANDARD
  0
ENDBLK
  5
84
100
AcDbEntity
  8
MAIN0
  6
CONTINUOUS
 62
3
100
AcDbBlockEnd
  0
BLOCK
  5
86
100
AcDbEntity
  8
MAIN0
  6
CONTINUOUS
 62
3
100
AcDbBlockBegin
  2
*D6
 70
    65
 10
0.0
 20
0.0
 30
0.0
  0
LINE
  5
87
100
AcDbEntity
  8
MAIN0
  6
BYBLOCK
 62
0
370
    -2
100
AcDbLine
 10
203.5834463129641
 20
183.4755745296418
 30
0.0000000000000000
 11
203.5834463129641
 21
168.7361944287688
 31
0.0000000000000000
  0
LINE
  5
88
100
AcDbEntity
  8
MAIN0
  6
BYBLOCK
 62
0
370
    -2
100
AcDbLine
 10
203.5834463129641
 20
170.7361944287688
 30
0.0000000000000000
 11
206.5834463129558
 21
170.7361944287688
 31
0.0000000000000000
  0
INSERT
  5
89
100
AcDbEntity
  8
MAIN0
  6
BYBLOCK
 62
0
100
AcDbBlockReference
  2
_OPEN
 10
203.5834463129641
 20
170.7361944287688
 30
0.0000000000000000
 41
2.000000000000000
 42
2.000000000000000
 43
2.000000000000000
 50
0.0000000000000000
  0
INSERT
  5
8A
100
AcDbEntity
  8
MAIN0
  6
BYBLOCK
 62
0
100
AcDbBlockReference
  2
_OPEN
 10
206.5834463129558
 20
170.7361944287688
 30
0.0000000000000000
 41
2.000000000000000
 42
2.000000000000000
 43
2.000000000000000
 50
180.0000000000000
  0
LINE
  5
8B
100
AcDbEntity
  8
MAIN0
  6
BYBLOCK
 62
0
370
    -2
100
AcDbLine
 10
201.5834463129641
 20
170.7361944287688
 30
0.0000000000000000
 11
198.3883312235476
 21
170.7361944287688
 31
0.0000000000000000
  0
LINE
  5
8C
100
AcDbEntity
  8
MAIN0
  6
BYBLOCK
 62
0
370
    -2
100
AcDbLine
 10
208.5834463129558
 20
170.7361944287688
 30
0.0000000000000000
 11
209.5834463129558
 21
170.7361944287688
 31
0.0000000000000000
  0
LINE
  5
8D
100
AcDbEntity
  8
MAIN0
  6
BYBLOCK
 62
0
370
    -2
100
AcDbLine
 10
206.5834463129558
 20
196.5755745296448
 30
0.0000000000000000
 11
206.5834463129558
 21
168.7361944287688
 31
0.0000000000000000
  0
MTEXT
  5
8E
100
AcDbEntity
  8
MAIN0
  6
BYBLOCK
 62
0
100
AcDbMText
 10
199.4383310441632
 20
172.7861943810851
 30
0.0000000000000000
 40
3.099999904632568
 41
0.0000000000000000
 44
0.7741935722041460
 71
     5
 72
     1
  1
\A1;3
 11
1.000000000000000
 21
0.0000000000000000
 31
0.0000000000000000
  7
STANDARD
  0
ENDBLK
  5
8F
100
AcDbEntity
  8
MAIN0
  6
CONTINUOUS
 62
3
100
AcDbBlockEnd
  0
BLOCK
  5
91
100
AcDbEntity
  8
MAIN0
  6
CONTINUOUS
 62
3
100
AcDbBlockBegin
  2
*D7
 70
    65
 10
0.0
 20
0.0
 30
0.0
  0
LINE
  5
92
100
AcDbEntity
  8
MAIN0
  6
BYBLOCK
 62
0
370
    -2
100
AcDbLine
 10
203.5834463129641
 20
183.4755745296418
 30
0.0000000000000000
 11
203.5834463129641
 21
158.6904609432676
 31
0.0000000000000000
  0
LINE
  5
93
100
AcDbEntity
  8
MAIN0
  6
BYBLOCK
 62
0
370
    -2
100
AcDbLine
 10
203.5834463129641
 20
160.6904609432676
 30
0.0000000000000000
 11
208.5834463129678
 21
160.6904609432676
 31
0.0000000000000000
  0
INSERT
  5
94
100
AcDbEntity
  8
MAIN0
  6
BYBLOCK
 62
0
100
AcDbBlockReference
  2
_OPEN
 10
203.5834463129641
 20
160.6904609432676
 30
0.0000000000000000
 41
2.000000000000000
 42
2.000000000000000
 43
2.000000000000000
 50
0.0000000000000000
  0
INSERT
  5
95
100
AcDbEntity
  8
MAIN0
  6
BYBLOCK
 62
0
100
AcDbBlockReference
  2
_OPEN
 10
208.5834463129678
 20
160.6904609432676
 30
0.0000000000000000
 41
2.000000000000000
 42
2.000000000000000
 43
2.000000000000000
 50
180.0000000000000
  0
LINE
  5
96
100
AcDbEntity
  8
MAIN0
  6
BYBLOCK
 62
0
370
    -2
100
AcDbLine
 10
201.5834463129641
 20
160.6904609432676
 30
0.0000000000000000
 11
198.8611853609683
 21
160.6904609432676
 31
0.0000000000000000
  0
LINE
  5
97
100
AcDbEntity
  8
MAIN0
  6
BYBLOCK
 62
0
370
    -2
100
AcDbLine
 10
210.5834463129678
 20
160.6904609432676
 30
0.0000000000000000
 11
211.5834463129678
 21
160.6904609432676
 31
0.0000000000000000
  0
LINE
  5
98
100
AcDbEntity
  8
MAIN0
  6
BYBLOCK
 62
0
370
    -2
100
AcDbLine
 10
208.5834463129678
 20
183.4755745296426
 30
0.0000000000000000
 11
208.5834463129678
 21
158.6904609432676
 31
0.0000000000000000
  0
MTEXT
  5
99
100
AcDbEntity
  8
MAIN0
  6
BYBLOCK
 62
0
100
AcDbMText
 10
199.9111853790332
 20
162.7404608955839
 30
0.0000000000000000
 40
3.099999904632568
 41
0.0000000000000000
 44
0.7741935722041460
 71
     5
 72
     1
  1
\A1;5
 11
1.000000000000000
 21
0.0000000000000000
 31
0.0000000000000000
  7
STANDARD
  0
ENDBLK
  5
9A
100
AcDbEntity
  8
MAIN0
  6
CONTINUOUS
 62
3
100
AcDbBlockEnd
  0
BLOCK
  5
9C
100
AcDbEntity
  8
MAIN0
  6
CONTINUOUS
 62
3
100
AcDbBlockBegin
  2
*D8
 70
    65
 10
0.0
 20
0.0
 30
0.0
  0
LINE
  5
9D
100
AcDbEntity
  8
MAIN0
  6
BYBLOCK
 62
0
370
    -2
100
AcDbLine
 10
308.5834463114756
 20
221.6755745540611
 30
0.0000000000000000
 11
308.5834463114756
 21
238.3493619275866
 31
0.0000000000000000
  0
LINE
  5
9E
100
AcDbEntity
  8
MAIN0
  6
BYBLOCK
 62
0
370
    -2
100
AcDbLine
 10
310.5834463114756
 20
236.3493619275866
 30
0.0000000000000000
 11
321.5834463115230
 21
236.3493619275866
 31
0.0000000000000000
  0
INSERT
  5
9F
100
AcDbEntity
  8
MAIN0
  6
BYBLOCK
 62
0
100
AcDbBlockReference
  2
_OPEN
 10
308.5834463114756
 20
236.3493619275866
 30
0.0000000000000000
 41
2.000000000000000
 42
2.000000000000000
 43
2.000000000000000
 50
180.0000000000000
  0
INSERT
  5
A0
100
AcDbEntity
  8
MAIN0
  6
BYBLOCK
 62
0
100
AcDbBlockReference
  2
_OPEN
 10
323.5834463115230
 20
236.3493619275866
 30
0.0000000000000000
 41
2.000000000000000
 42
2.000000000000000
 43
2.000000000000000
 50
0.0000000000000000
  0
LINE
  5
A1
100
AcDbEntity
  8
MAIN0
  6
BYBLOCK
 62
0
370
    -2
100
AcDbLine
 10
308.5834463114756
 20
236.3493619275866
 30
0.0000000000000000
 11
300.9609187121409
 21
236.3493619275866
 31
0.0000000000000000
  0
MTEXT
  5
A2
100
AcDbEntity
  8
MAIN0
  6
BYBLOCK
 62
0
100
AcDbMText
 10
303.0609186427819
 20
238.3993618799029
 30
0.0000000000000000
 40
3.099999904632568
 41
0.0000000000000000
 44
0.7741935722041460
 71
     5
 72
     1
  1
\A1;15
 11
1.000000000000000
 21
0.0000000000000000
 31
0.0000000000000000
  7
STANDARD
  0
ENDBLK
  5
A3
100
AcDbEntity
  8
MAIN0
  6
CONTINUOUS
 62
3
100
AcDbBlockEnd
  0
BLOCK
  5
A5
100
AcDbEntity
  8
MAIN0
  6
CONTINUOUS
 62
3
100
AcDbBlockBegin
  2
*D9
 70
    65
 10
0.0
 20
0.0
 30
0.0
  0
LINE
  5
A6
100
AcDbEntity
  8
MAIN0
  6
BYBLOCK
 62
0
370
    -2
100
AcDbLine
 10
325.5834463115230
 20
236.3493619275866
 30
0.0000000000000000
 11
335.0834463114748
 21
236.3493619275866
 31
0.0000000000000000
  0
INSERT
  5
A7
100
AcDbEntity
  8
MAIN0
  6
BYBLOCK
 62
0
100
AcDbBlockReference
  2
_OPEN
 10
323.5834463115230
 20
236.3493619275866
 30
0.0000000000000000
 41
2.000000000000000
 42
2.000000000000000
 43
2.000000000000000
 50
180.0000000000000
  0
INSERT
  5
A8
100
AcDbEntity
  8
MAIN0
  6
BYBLOCK
 62
0
100
AcDbBlockReference
  2
_OPEN
 10
337.0834463114748
 20
236.3493619275866
 30
0.0000000000000000
 41
2.000000000000000
 42
2.000000000000000
 43
2.000000000000000
 50
0.0000000000000000
  0
LINE
  5
A9
100
AcDbEntity
  8
MAIN0
  6
BYBLOCK
 62
0
370
    -2
100
AcDbLine
 10
337.0834463114748
 20
222.6755745539396
 30
0.0000000000000000
 11
337.0834463114748
 21
238.3493619275866
 31
0.0000000000000000
  0
MTEXT
  5
AA
100
AcDbEntity
  8
MAIN0
  6
BYBLOCK
 62
0
100
AcDbMText
 10
330.3334463114989
 20
238.3993618799029
 30
0.0000000000000000
 40
3.099999904632568
 41
0.0000000000000000
 44
0.7741935722041460
 71
     5
 72
     1
  1
\A1;13.5
 11
1.000000000000000
 21
0.0000000000000000
 31
0.0000000000000000
  7
STANDARD
  0
ENDBLK
  5
AB
100
AcDbEntity
  8
MAIN0
  6
CONTINUOUS
 62
3
100
AcDbBlockEnd
  0
BLOCK
  5
B1
100
AcDbEntity
  8
MAIN0
  6
CONTINUOUS
 62
3
100
AcDbBlockBegin
  2
*D10
 70
    65
 10
0.0
 20
0.0
 30
0.0
  0
LINE
  5
B2
100
AcDbEntity
  8
MAIN0
  6
BYBLOCK
 62
0
370
    -2
100
AcDbLine
 10
326.8859725874127
 20
169.8755745416700
 30
0.0000000000000000
 11
358.1349523225117
 21
169.8755745416700
 31
0.0000000000000000
  0
LINE
  5
B3
100
AcDbEntity
  8
MAIN0
  6
BYBLOCK
 62
0
370
    -2
100
AcDbLine
 10
356.1349523225117
 20
171.8755745416700
 30
0.0000000000000000
 11
356.1349523225117
 21
206.8755745420213
 31
0.0000000000000000
  0
INSERT
  5
B4
100
AcDbEntity
  8
MAIN0
  6
BYBLOCK
 62
0
100
AcDbBlockReference
  2
_OPEN
 10
356.1349523225117
 20
169.8755745416700
 30
0.0000000000000000
 41
2.000000000000000
 42
2.000000000000000
 43
2.000000000000000
 50
270.0000000000000
  0
INSERT
  5
B5
100
AcDbEntity
  8
MAIN0
  6
BYBLOCK
 62
0
100
AcDbBlockReference
  2
_OPEN
 10
356.1349523225117
 20
208.8755745420213
 30
0.0000000000000000
 41
2.000000000000000
 42
2.000000000000000
 43
2.000000000000000
 50
90.00000000000000
  0
MTEXT
  5
B6
100
AcDbEntity
  8
MAIN0
  6
BYBLOCK
 62
0
100
AcDbMText
 10
354.0849523701954
 20
189.3755745418456
 30
0.0000000000000000
 40
3.099999904632568
 41
0.0000000000000000
 44
0.7741935722041460
 71
     5
 72
     1
  1
\A1;39
 11
6.123233995736766e-017
 21
1.000000000000000
 31
0.0000000000000000
  7
STANDARD
  0
ENDBLK
  5
B7
100
AcDbEntity
  8
MAIN0
  6
CONTINUOUS
 62
3
100
AcDbBlockEnd
  0
BLOCK
  5
B9
100
AcDbEntity
  8
MAIN0
  6
CONTINUOUS
 62
3
100
AcDbBlockBegin
  2
*D11
 70
    65
 10
0.0
 20
0.0
 30
0.0
  0
LINE
  5
BA
100
AcDbEntity
  8
MAIN0
  6
BYBLOCK
 62
0
370
    -2
100
AcDbLine
 10
356.1349523225117
 20
210.8755745420213
 30
0.0000000000000000
 11
356.1349523225117
 21
245.8755745416727
 31
0.0000000000000000
  0
INSERT
  5
BB
100
AcDbEntity
  8
MAIN0
  6
BYBLOCK
 62
0
100
AcDbBlockReference
  2
_OPEN
 10
356.1349523225117
 20
208.8755745420213
 30
0.0000000000000000
 41
2.000000000000000
 42
2.000000000000000
 43
2.000000000000000
 50
270.0000000000000
  0
INSERT
  5
BC
100
AcDbEntity
  8
MAIN0
  6
BYBLOCK
 62
0
100
AcDbBlockReference
  2
_OPEN
 10
356.1349523225117
 20
247.8755745416727
 30
0.0000000000000000
 41
2.000000000000000
 42
2.000000000000000
 43
2.000000000000000
 50
90.00000000000000
  0
LINE
  5
BD
100
AcDbEntity
  8
MAIN0
  6
BYBLOCK
 62
0
370
    -2
100
AcDbLine
 10
327.1883884835863
 20
247.8755745416727
 30
0.0000000000000000
 11
358.1349523225117
 21
247.8755745416727
 31
0.0000000000000000
  0
MTEXT
  5
BE
100
AcDbEntity
  8
MAIN0
  6
BYBLOCK
 62
0
100
AcDbMText
 10
354.0849523701954
 20
228.3755745418470
 30
0.0000000000000000
 40
3.099999904632568
 41
0.0000000000000000
 44
0.7741935722041460
 71
     5
 72
     1
  1
\A1;39
 11
6.123233995736766e-017
 21
1.000000000000000
 31
0.0000000000000000
  7
STANDARD
  0
ENDBLK
  5
BF
100
AcDbEntity
  8
MAIN0
  6
CONTINUOUS
 62
3
100
AcDbBlockEnd
  0
BLOCK
  5
C1
100
AcDbEntity
  8
MAIN0
  6
CONTINUOUS
 62
3
100
AcDbBlockBegin
  2
*D12
 70
    65
 10
0.0
 20
0.0
 30
0.0
  0
LINE
  5
C2
100
AcDbEntity
  8
MAIN0
  6
BYBLOCK
 62
0
370
    -2
100
AcDbLine
 10
284.5834463115078
 20
205.5730482657208
 30
0.0000000000000000
 11
284.5834463115078
 21
157.7986427966886
 31
0.0000000000000000
  0
LINE
  5
C3
100
AcDbEntity
  8
MAIN0
  6
BYBLOCK
 62
0
370
    -2
100
AcDbLine
 10
286.5834463115078
 20
159.7986427966886
 30
0.0000000000000000
 11
321.5834463114159
 21
159.7986427966886
 31
0.0000000000000000
  0
INSERT
  5
C4
100
AcDbEntity
  8
MAIN0
  6
BYBLOCK
 62
0
100
AcDbBlockReference
  2
_OPEN
 10
284.5834463115078
 20
159.7986427966886
 30
0.0000000000000000
 41
2.000000000000000
 42
2.000000000000000
 43
2.000000000000000
 50
180.0000000000000
  0
INSERT
  5
C5
100
AcDbEntity
  8
MAIN0
  6
BYBLOCK
 62
0
100
AcDbBlockReference
  2
_OPEN
 10
323.5834463114159
 20
159.7986427966886
 30
0.0000000000000000
 41
2.000000000000000
 42
2.000000000000000
 43
2.000000000000000
 50
0.0000000000000000
  0
LINE
  5
C6
100
AcDbEntity
  8
MAIN0
  6
BYBLOCK
 62
0
370
    -2
100
AcDbLine
 10
323.5834463114159
 20
163.6369612943549
 30
0.0000000000000000
 11
323.5834463114159
 21
157.7986427966886
 31
0.0000000000000000
  0
MTEXT
  5
C7
100
AcDbEntity
  8
MAIN0
  6
BYBLOCK
 62
0
100
AcDbMText
 10
304.0834463114619
 20
161.8486427490049
 30
0.0000000000000000
 40
3.099999904632568
 41
0.0000000000000000
 44
0.7741935722041460
 71
     5
 72
     1
  1
\A1;39
 11
1.000000000000000
 21
0.0000000000000000
 31
0.0000000000000000
  7
STANDARD
  0
ENDBLK
  5
C8
100
AcDbEntity
  8
MAIN0
  6
CONTINUOUS
 62
3
100
AcDbBlockEnd
  0
BLOCK
  5
CA
100
AcDbEntity
  8
MAIN0
  6
CONTINUOUS
 62
3
100
AcDbBlockBegin
  2
*D13
 70
    65
 10
0.0
 20
0.0
 30
0.0
  0
LINE
  5
CB
100
AcDbEntity
  8
MAIN0
  6
BYBLOCK
 62
0
370
    -2
100
AcDbLine
 10
323.5834463114159
 20
163.6369612943549
 30
0.0000000000000000
 11
323.5834463114159
 21
157.7986427966886
 31
0.0000000000000000
  0
LINE
  5
CC
100
AcDbEntity
  8
MAIN0
  6
BYBLOCK
 62
0
370
    -2
100
AcDbLine
 10
325.5834463114159
 20
159.7986427966886
 30
0.0000000000000000
 11
360.5834463115106
 21
159.7986427966886
 31
0.0000000000000000
  0
INSERT
  5
CD
100
AcDbEntity
  8
MAIN0
  6
BYBLOCK
 62
0
100
AcDbBlockReference
  2
_OPEN
 10
323.5834463114159
 20
159.7986427966886
 30
0.0000000000000000
 41
2.000000000000000
 42
2.000000000000000
 43
2.000000000000000
 50
180.0000000000000
  0
INSERT
  5
CE
100
AcDbEntity
  8
MAIN0
  6
BYBLOCK
 62
0
100
AcDbBlockReference
  2
_OPEN
 10
362.5834463115106
 20
159.7986427966886
 30
0.0000000000000000
 41
2.000000000000000
 42
2.000000000000000
 43
2.000000000000000
 50
0.0000000000000000
  0
LINE
  5
CF
100
AcDbEntity
  8
MAIN0
  6
BYBLOCK
 62
0
370
    -2
100
AcDbLine
 10
362.5834463115106
 20
205.2706323695471
 30
0.0000000000000000
 11
362.5834463115106
 21
157.7986427966886
 31
0.0000000000000000
  0
MTEXT
  5
D0
100
AcDbEntity
  8
MAIN0
  6
BYBLOCK
 62
0
100
AcDbMText
 10
343.0834463114632
 20
161.8486427490049
 30
0.0000000000000000
 40
3.099999904632568
 41
0.0000000000000000
 44
0.7741935722041460
 71
     5
 72
     1
  1
\A1;39
 11
1.000000000000000
 21
0.0000000000000000
 31
0.0000000000000000
  7
STANDARD
  0
ENDBLK
  5
D1
100
AcDbEntity
  8
MAIN0
  6
CONTINUOUS
 62
3
100
AcDbBlockEnd
  0
BLOCK
  5
D3
100
AcDbEntity
  8
MAIN0
  6
CONTINUOUS
 62
3
100
AcDbBlockBegin
  2
*D14
 70
    65
 10
0.0
 20
0.0
 30
0.0
  0
LINE
  5
D4
100
AcDbEntity
  8
MAIN0
  6
BYBLOCK
 62
0
370
    -2
100
AcDbLine
 10
315.7834462995492
 20
228.8755745421095
 30
0.0000000000000000
 11
290.4432273622862
 21
228.8755745421095
 31
0.0000000000000000
  0
LINE
  5
D5
100
AcDbEntity
  8
MAIN0
  6
BYBLOCK
 62
0
370
    -2
100
AcDbLine
 10
292.4432273622862
 20
226.8755745421095
 30
0.0000000000000000
 11
292.4432273622862
 21
210.8755745412850
 31
0.0000000000000000
  0
INSERT
  5
D6
100
AcDbEntity
  8
MAIN0
  6
BYBLOCK
 62
0
100
AcDbBlockReference
  2
_OPEN
 10
292.4432273622862
 20
228.8755745421095
 30
0.0000000000000000
 41
2.000000000000000
 42
2.000000000000000
 43
2.000000000000000
 50
90.00000000000000
  0
INSERT
  5
D7
100
AcDbEntity
  8
MAIN0
  6
BYBLOCK
 62
0
100
AcDbBlockReference
  2
_OPEN
 10
292.4432273622862
 20
208.8755745412850
 30
0.0000000000000000
 41
2.000000000000000
 42
2.000000000000000
 43
2.000000000000000
 50
270.0000000000000
  0
MTEXT
  5
D8
100
AcDbEntity
  8
MAIN0
  6
BYBLOCK
 62
0
100
AcDbMText
 10
290.3932274099699
 20
218.8755745416972
 30
0.0000000000000000
 40
3.099999904632568
 41
0.0000000000000000
 44
0.7741935722041460
 71
     5
 72
     1
  1
\A1;20
 11
6.123233995736766e-017
 21
1.000000000000000
 31
0.0000000000000000
  7
STANDARD
  0
ENDBLK
  5
D9
100
AcDbEntity
  8
MAIN0
  6
CONTINUOUS
 62
3
100
AcDbBlockEnd
  0
BLOCK
  5
DB
100
AcDbEntity
  8
MAIN0
  6
CONTINUOUS
 62
3
100
AcDbBlockBegin
  2
*D15
 70
    65
 10
0.0
 20
0.0
 30
0.0
  0
LINE
  5
DC
100
AcDbEntity
  8
MAIN0
  6
BYBLOCK
 62
0
370
    -2
100
AcDbLine
 10
292.4432273622862
 20
206.8755745412850
 30
0.0000000000000000
 11
292.4432273622862
 21
185.8755745416761
 31
0.0000000000000000
  0
INSERT
  5
DD
100
AcDbEntity
  8
MAIN0
  6
BYBLOCK
 62
0
100
AcDbBlockReference
  2
_OPEN
 10
292.4432273622862
 20
208.8755745412850
 30
0.0000000000000000
 41
2.000000000000000
 42
2.000000000000000
 43
2.000000000000000
 50
90.00000000000000
  0
INSERT
  5
DE
100
AcDbEntity
  8
MAIN0
  6
BYBLOCK
 62
0
100
AcDbBlockReference
  2
_OPEN
 10
292.4432273622862
 20
183.8755745416761
 30
0.0000000000000000
 41
2.000000000000000
 42
2.000000000000000
 43
2.000000000000000
 50
270.0000000000000
  0
LINE
  5
DF
100
AcDbEntity
  8
MAIN0
  6
BYBLOCK
 62
0
370
    -2
100
AcDbLine
 10
316.4437003386000
 20
183.8755745416761
 30
0.0000000000000000
 11
290.4432273622862
 21
183.8755745416761
 31
0.0000000000000000
  0
MTEXT
  5
E0
100
AcDbEntity
  8
MAIN0
  6
BYBLOCK
 62
0
100
AcDbMText
 10
290.3932274099699
 20
196.3755745414806
 30
0.0000000000000000
 40
3.099999904632568
 41
0.0000000000000000
 44
0.7741935722041460
 71
     5
 72
     1
  1
\A1;25
 11
6.123233995736766e-017
 21
1.000000000000000
 31
0.0000000000000000
  7
STANDARD
  0
ENDBLK
  5
E1
100
AcDbEntity
  8
MAIN0
  6
CONTINUOUS
 62
3
100
AcDbBlockEnd
  0
BLOCK
  5
E3
100
AcDbEntity
  8
MAIN0
  6
CONTINUOUS
 62
3
100
AcDbBlockBegin
  2
*D16
 70
    65
 10
0.0
 20
0.0
 30
0.0
  0
LINE
  5
E4
100
AcDbEntity
  8
MAIN0
  6
BYBLOCK
 62
0
370
    -2
100
AcDbLine
 10
308.5834463114943
 20
198.0755745317024
 30
0.0000000000000000
 11
308.5834463115048
 21
185.2886317007998
 31
0.0000000000000000
  0
ARC
  5
E5
100
AcDbEntity
  8
MAIN0
  6
BYBLOCK
 62
0
370
    -2
100
AcDbCircle
 10
308.5834463114937
 20
198.8755745436235
 30
0.0000000000000000
 40
11.58694284282373
100
AcDbArc
 50
270.0000000000469
 51
300.0000000001673
  0
INSERT
  5
E6
100
AcDbEntity
  8
MAIN0
  6
BYBLOCK
 62
0
100
AcDbBlockReference
  2
_OPEN
 10
308.5834463115032
 20
187.2886317007998
 30
0.0000000000000000
 41
2.000000000000000
 42
2.000000000000000
 43
2.000000000000000
 50
4.689582056016661e-011
  0
INSERT
  5
E7
100
AcDbEntity
  8
MAIN0
  6
BYBLOCK
 62
0
100
AcDbBlockReference
  2
_OPEN
 10
314.3769177329348
 20
188.8409876895568
 30
0.0000000000000000
 41
2.000000000000000
 42
2.000000000000000
 43
2.000000000000000
 50
210.0000000001674
  0
ARC
  5
E8
100
AcDbEntity
  8
MAIN0
  6
BYBLOCK
 62
0
370
    -2
100
AcDbCircle
 10
308.5834463114937
 20
198.8755745436235
 30
0.0000000000000000
 40
11.58694284282373
100
AcDbArc
 50
226.2081549161879
 51
260.1102852943999
  0
ARC
  5
E9
100
AcDbEntity
  8
MAIN0
  6
BYBLOCK
 62
0
370
    -2
100
AcDbCircle
 10
308.5834463114937
 20
198.8755745436235
 30
0.0000000000000000
 40
11.58694284282373
100
AcDbArc
 50
309.8897147058142
 51
314.8345720586377
  0
MTEXT
  5
EA
100
AcDbEntity
  8
MAIN0
  6
BYBLOCK
 62
0
100
AcDbMText
 10
303.8525427209231
 20
190.5947635378388
 30
0.0000000000000000
 40
3.099999904632568
 41
0.0000000000000000
 44
0.7741935722041460
 71
     5
 72
     1
  1
\A1;30\U+00B0
 11
0.8682877837118084
 21
-0.4960608074186429
 31
0.0000000000000000
  7
STANDARD
  0
ENDBLK
  5
EB
100
AcDbEntity
  8
MAIN0
  6
CONTINUOUS
 62
3
100
AcDbBlockEnd
  0
BLOCK
  5
ED
100
AcDbEntity
  8
MAIN0
  6
CONTINUOUS
 62
3
100
AcDbBlockBegin
  2
*D17
 70
    65
 10
0.0
 20
0.0
 30
0.0
  0
LINE
  5
EE
100
AcDbEntity
  8
MAIN0
  6
BYBLOCK
 62
0
370
    -2
100
AcDbLine
 10
337.0834463114967
 20
195.0755745295156
 30
0.0000000000000000
 11
337.0834463115065
 21
183.1635938235853
 31
0.0000000000000000
  0
ARC
  5
EF
100
AcDbEntity
  8
MAIN0
  6
BYBLOCK
 62
0
370
    -2
100
AcDbCircle
 10
337.0834463114961
 20
195.8755745414361
 30
0.0000000000000000
 40
10.71198071785085
100
AcDbArc
 50
240.0000000001655
 51
270.0000000000468
  0
INSERT
  5
F0
100
AcDbEntity
  8
MAIN0
  6
BYBLOCK
 62
0
100
AcDbBlockReference
  2
_OPEN
 10
331.7274559525974
 20
186.5987271149128
 30
0.0000000000000000
 41
2.000000000000000
 42
2.000000000000000
 43
2.000000000000000
 50
330.0000000001655
  0
INSERT
  5
F1
100
AcDbEntity
  8
MAIN0
  6
BYBLOCK
 62
0
100
AcDbBlockReference
  2
_OPEN
 10
337.0834463115048
 20
185.1635938235853
 30
0.0000000000000000
 41
2.000000000000000
 42
2.000000000000000
 43
2.000000000000000
 50
180.0000000000468
  0
ARC
  5
F2
100
AcDbEntity
  8
MAIN0
  6
BYBLOCK
 62
0
370
    -2
100
AcDbCircle
 10
337.0834463114961
 20
195.8755745414361
 30
0.0000000000000000
 40
10.71198071785085
100
AcDbArc
 50
223.9537296542147
 51
229.3024864361983
  0
ARC
  5
F3
100
AcDbEntity
  8
MAIN0
  6
BYBLOCK
 62
0
370
    -2
100
AcDbCircle
 10
337.0834463114961
 20
195.8755745414361
 30
0.0000000000000000
 40
10.71198071785085
100
AcDbArc
 50
280.6975135640141
 51
328.5667841421222
  0
MTEXT
  5
F4
100
AcDbEntity
  8
MAIN0
  6
BYBLOCK
 62
0
100
AcDbMText
 10
343.0310679538248
 20
189.5782967500255
 30
0.0000000000000000
 40
3.099999904632568
 41
0.0000000000000000
 44
0.7741935722041460
 71
     5
 72
     1
  1
\A1;30\U+00B0
 11
0.7270020520557020
 21
0.6866352862377512
 31
0.0000000000000000
  7
STANDARD
  0
ENDBLK
  5
F5
100
AcDbEntity
  8
MAIN0
  6
CONTINUOUS
 62
3
100
AcDbBlockEnd
  0
BLOCK
  5
F7
100
AcDbEntity
  8
MAIN0
  6
CONTINUOUS
 62
3
100
AcDbBlockBegin
  2
D18
 70
    64
 10
0.0
 20
0.0
 30
0.0
  0
LINE
  5
F8
100
AcDbEntity
  8
MAIN0
  6
BYBLOCK
 62
0
370
    -2
100
AcDbLine
 10
-2.509828777260665
 20
-8.791314566082683
 30
0.0000000000000000
 11
5.262063237979106
 21
-1.019422550871276
 31
0.0000000000000000
  0
LINE
  5
F9
100
AcDbEntity
  8
MAIN0
  6
BYBLOCK
 62
0
370
    -2
100
AcDbLine
 10
4.130692371221363
 20
-1.302265246485086
 30
0.0000000000000000
 11
3.140742894415581
 21
-3.140742894427042
 31
0.0000000000000000
  0
LINE
  5
FA
100
AcDbEntity
  8
MAIN0
  6
BYBLOCK
 62
0
370
    -2
100
AcDbLine
 10
3.140742894415581
 20
-3.140742894427042
 30
0.0000000000000000
 11
4.979220542361150
 21
-2.150793417627970
 31
0.0000000000000000
  0
MTEXT
  5
FB
100
AcDbEntity
  8
MAIN0
  6
BYBLOCK
 62
0
100
AcDbMText
 10
-2.297696773792609
 20
-5.680044827190786
 30
0.0000000000000000
 40
3.099999904632568
 41
0.0000000000000000
 44
0.7741935722041460
 71
     5
 72
     1
  1
\A1;Ｃ7
 11
0.7071067811878378
 21
0.7071067811852573
 31
0.0000000000000000
  7
KNJYOKO
  0
ENDBLK
  5
FC
100
AcDbEntity
  8
MAIN0
  6
CONTINUOUS
 62
3
100
AcDbBlockEnd
  0
BLOCK
  5
FE
100
AcDbEntity
  8
MAIN0
  6
CONTINUOUS
 62
3
100
AcDbBlockBegin
  2
D19
 70
    64
 10
0.0
 20
0.0
 30
0.0
  0
LINE
  5
FF
100
AcDbEntity
  8
MAIN0
  6
BYBLOCK
 62
0
370
    -2
100
AcDbLine
 10
8.332732978253830
 20
-2.323352511454900
 30
0.0000000000000000
 11
0.8833698898586988
 21
5.126010576967111
 31
0.0000000000000000
  0
LINE
  5
100
100
AcDbEntity
  8
MAIN0
  6
BYBLOCK
 62
0
370
    -2
100
AcDbLine
 10
1.166212585472516
 20
3.994639710209394
 30
0.0000000000000000
 11
3.004690233414493
 21
3.004690233403650
 31
0.0000000000000000
  0
LINE
  5
101
100
AcDbEntity
  8
MAIN0
  6
BYBLOCK
 62
0
370
    -2
100
AcDbLine
 10
3.004690233414493
 20
3.004690233403650
 30
0.0000000000000000
 11
2.014740756615383
 21
4.843167881349199
 31
0.0000000000000000
  0
MTEXT
  5
102
100
AcDbEntity
  8
MAIN0
  6
BYBLOCK
 62
0
100
AcDbMText
 10
8.120600767827511
 20
0.7879174344789099
 30
0.0000000000000000
 40
3.099999904632568
 41
0.0000000000000000
 44
0.7741935722041460
 71
     5
 72
     1
  1
\A1;Ｃ8
 11
0.7071067811852718
 21
-0.7071067811878232
 31
0.0000000000000000
  7
KNJYOKO
  0
ENDBLK
  5
103
100
AcDbEntity
  8
MAIN0
  6
CONTINUOUS
 62
3
100
AcDbBlockEnd
  0
BLOCK
  5
105
100
AcDbEntity
  8
MAIN0
  6
CONTINUOUS
 62
3
100
AcDbBlockBegin
  2
*D20
 70
    65
 10
0.0
 20
0.0
 30
0.0
  0
LINE
  5
106
100
AcDbEntity
  8
MAIN0
  6
BYBLOCK
 62
0
370
    -2
100
AcDbLine
 10
323.5834463114244
 20
169.8755745416480
 30
0.0000000000000000
 11
319.1897741254508
 21
183.6938828578711
 31
0.0000000000000000
  0
INSERT
  5
107
100
AcDbEntity
  8
MAIN0
  6
BYBLOCK
 62
0
100
AcDbBlockReference
  2
_OPEN
 10
318.5837503756613
 20
185.5998564187294
 30
0.0000000000000000
 41
2.000000000000000
 42
2.000000000000000
 43
2.000000000000000
 50
107.6385934485013
  0
MTEXT
  5
108
100
AcDbEntity
  8
MAIN0
  6
BYBLOCK
 62
0
100
AcDbMText
 10
319.1479597250418
 20
177.0599798724077
 30
0.0000000000000000
 40
3.099999904632568
 41
0.0000000000000000
 44
0.7741935722041460
 71
     5
 72
     1
  1
\A1;Ｒ16.5
 11
-0.3030118748947289
 21
0.9529867804291837
 31
0.0000000000000000
  7
KNJYOKO
  0
ENDBLK
  5
109
100
AcDbEntity
  8
MAIN0
  6
CONTINUOUS
 62
3
100
AcDbBlockEnd
  0
BLOCK
  5
10C
100
AcDbEntity
  8
MAIN0
  6
CONTINUOUS
 62
3
100
AcDbBlockBegin
  2
*D21
 70
    65
 10
0.0
 20
0.0
 30
0.0
  0
LINE
  5
10D
100
AcDbEntity
  8
MAIN0
  6
BYBLOCK
 62
0
370
    -2
100
AcDbLine
 10
323.5834463115469
 20
247.8755745416478
 30
0.0000000000000000
 11
312.8656171677450
 21
231.5851436558710
 31
0.0000000000000000
  0
INSERT
  5
10E
100
AcDbEntity
  8
MAIN0
  6
BYBLOCK
 62
0
100
AcDbBlockReference
  2
_OPEN
 10
311.7663526401755
 20
229.9143302316888
 30
0.0000000000000000
 41
2.000000000000000
 42
2.000000000000000
 43
2.000000000000000
 50
236.6582116134374
  0
MTEXT
  5
10F
100
AcDbEntity
  8
MAIN0
  6
BYBLOCK
 62
0
100
AcDbMText
 10
317.5663335227416
 20
242.4597053232664
 30
0.0000000000000000
 40
3.099999904632568
 41
0.0000000000000000
 44
0.7741935722041460
 71
     5
 72
     1
  1
\A1;Ｒ21.5
 11
0.5496322637847145
 21
0.8354067120911167
 31
0.0000000000000000
  7
KNJYOKO
  0
ARC
  5
110
100
AcDbEntity
  8
MAIN0
  6
BYBLOCK
 62
0
370
    -2
100
AcDbCircle
 10
323.5834463115469
 20
247.8755745416478
 30
0.0000000000000000
 40
21.49999999999997
100
AcDbArc
 50
231.3283716587320
 51
246.1130998247969
  0
ENDBLK
  5
111
100
AcDbEntity
  8
MAIN0
  6
CONTINUOUS
 62
3
100
AcDbBlockEnd
  0
BLOCK
  5
113
100
AcDbEntity
  8
MAIN0
  6
CONTINUOUS
 62
3
100
AcDbBlockBegin
  2
*D22
 70
    65
 10
0.0
 20
0.0
 30
0.0
  0
LINE
  5
114
100
AcDbEntity
  8
MAIN0
  6
BYBLOCK
 62
0
370
    -2
100
AcDbLine
 10
284.5834463114854
 20
208.8755745413019
 30
0.0000000000000000
 11
308.1515193476670
 21
215.5685509614911
 31
0.0000000000000000
  0
INSERT
  5
115
100
AcDbEntity
  8
MAIN0
  6
BYBLOCK
 62
0
100
AcDbBlockReference
  2
_OPEN
 10
310.0754436771513
 20
216.1149163835474
 30
0.0000000000000000
 41
2.000000000000000
 42
2.000000000000000
 43
2.000000000000000
 50
15.85374483635097
  0
MTEXT
  5
116
100
AcDbEntity
  8
MAIN0
  6
BYBLOCK
 62
0
100
AcDbMText
 10
301.3608946790659
 20
215.7711771176098
 30
0.0000000000000000
 40
3.099999904632568
 41
0.0000000000000000
 44
0.7741935722041460
 71
     5
 72
     1
  1
\A1;Ｒ26.5
 11
0.9619621647421075
 21
0.2731827110281294
 31
0.0000000000000000
  7
KNJYOKO
  0
ENDBLK
  5
117
100
AcDbEntity
  8
MAIN0
  6
CONTINUOUS
 62
3
100
AcDbBlockEnd
  0
BLOCK
  5
119
100
AcDbEntity
  8
MAIN0
  6
CONTINUOUS
 62
3
100
AcDbBlockBegin
  2
*D23
 70
    65
 10
0.0
 20
0.0
 30
0.0
  0
LINE
  5
11A
100
AcDbEntity
  8
MAIN0
  6
BYBLOCK
 62
0
370
    -2
100
AcDbLine
 10
362.5834463114854
 20
208.8755745419936
 30
0.0000000000000000
 11
333.7315667467183
 21
215.0252936884404
 31
0.0000000000000000
  0
INSERT
  5
11B
100
AcDbEntity
  8
MAIN0
  6
BYBLOCK
 62
0
100
AcDbBlockReference
  2
_OPEN
 10
331.7755071152087
 20
215.4422238000639
 30
0.0000000000000000
 41
2.000000000000000
 42
2.000000000000000
 43
2.000000000000000
 50
167.9675842512307
  0
MTEXT
  5
11C
100
AcDbEntity
  8
MAIN0
  6
BYBLOCK
 62
0
100
AcDbMText
 10
345.1915785734092
 20
214.6786661651510
 30
0.0000000000000000
 40
3.099999904632568
 41
0.0000000000000000
 44
0.7741935722041460
 71
     5
 72
     1
  1
\A1;Ｒ31.5\H0.903226x; 
 11
0.9780298157548174
 21
-0.2084650558117547
 31
0.0000000000000000
  7
KNJYOKO
  0
ENDBLK
  5
11D
100
AcDbEntity
  8
MAIN0
  6
CONTINUOUS
 62
3
100
AcDbBlockEnd
  0
BLOCK
  5
121
100
AcDbEntity
  8
MAIN0
  6
BYBLOCK
 62
2
100
AcDbBlockBegin
  2
M0
 70
    64
 10
0.0
 20
0.0
 30
0.0
  0
LINE
  5
122
100
AcDbEntity
  8
MAIN0
  6
BYBLOCK
 62
0
370
    -2
100
AcDbLine
 10
323.5834463115240
 20
251.9689763635818
 30
0.0000000000000000
 11
323.5834463115240
 21
255.9689763635818
 31
0.0000000000000000
  0
LINE
  5
123
100
AcDbEntity
  8
MAIN0
  6
BYBLOCK
 62
0
370
    -2
100
AcDbLine
 10
323.5834463115240
 20
253.9689763635819
 30
0.0000000000000000
 11
315.5834463115240
 21
253.9689763635819
 31
0.0000000000000000
  0
LINE
  5
124
100
AcDbEntity
  8
MAIN0
  6
BYBLOCK
 62
0
370
    -2
100
AcDbLine
 10
323.5834463115240
 20
253.9689763635817
 30
0.0000000000000000
 11
320.3636935572270
 21
253.1062462132400
 31
0.0000000000000000
  0
LINE
  5
125
100
AcDbEntity
  8
MAIN0
  6
BYBLOCK
 62
0
370
    -2
100
AcDbLine
 10
323.5834463115240
 20
253.9689763635818
 30
0.0000000000000000
 11
320.3636935572271
 21
254.8317065139235
 31
0.0000000000000000
  0
ENDBLK
  5
126
100
AcDbEntity
  8
MAIN0
  6
BYBLOCK
 62
2
100
AcDbBlockEnd
  0
BLOCK
  5
128
100
AcDbEntity
  8
MAIN0
  6
BYBLOCK
 62
2
100
AcDbBlockBegin
  2
M1
 70
    64
 10
0.0
 20
0.0
 30
0.0
  0
LINE
  5
129
100
AcDbEntity
  8
MAIN0
  6
BYBLOCK
 62
0
370
    -2
100
AcDbLine
 10
323.5834463113801
 20
149.9495026548475
 30
0.0000000000000000
 11
323.5834463113801
 21
153.9495026548475
 31
0.0000000000000000
  0
LINE
  5
12A
100
AcDbEntity
  8
MAIN0
  6
BYBLOCK
 62
0
370
    -2
100
AcDbLine
 10
323.5834463113801
 20
151.9495026548476
 30
0.0000000000000000
 11
315.5834463113801
 21
151.9495026548476
 31
0.0000000000000000
  0
LINE
  5
12B
100
AcDbEntity
  8
MAIN0
  6
BYBLOCK
 62
0
370
    -2
100
AcDbLine
 10
323.5834463113801
 20
151.9495026548474
 30
0.0000000000000000
 11
320.3636935570831
 21
151.0867725045057
 31
0.0000000000000000
  0
LINE
  5
12C
100
AcDbEntity
  8
MAIN0
  6
BYBLOCK
 62
0
370
    -2
100
AcDbLine
 10
323.5834463113800
 20
151.9495026548475
 30
0.0000000000000000
 11
320.3636935570832
 21
152.8122328051892
 31
0.0000000000000000
  0
ENDBLK
  5
12D
100
AcDbEntity
  8
MAIN0
  6
BYBLOCK
 62
2
100
AcDbBlockEnd
  0
BLOCK
  5
12F
100
AcDbEntity
  8
MAIN0
  6
CONTINUOUS
 62
3
100
AcDbBlockBegin
  2
*D24
 70
    65
 10
0.0
 20
0.0
 30
0.0
  0
LINE
  5
130
100
AcDbEntity
  8
MAIN0
  6
BYBLOCK
 62
0
370
    -2
100
AcDbLine
 10
262.7534833180754
 20
80.41497931825217
 30
0.0000000000000000
 11
271.0694891132671
 21
80.41497931825217
 31
0.0000000000000000
  0
LINE
  5
131
100
AcDbEntity
  8
MAIN0
  6
BYBLOCK
 62
0
370
    -2
100
AcDbLine
 10
269.0694891132671
 20
80.41497931825217
 30
0.0000000000000000
 11
269.0694891132671
 21
79.91497931825217
 31
0.0000000000000000
  0
INSERT
  5
132
100
AcDbEntity
  8
MAIN0
  6
BYBLOCK
 62
0
100
AcDbBlockReference
  2
_OPEN
 10
269.0694891132671
 20
80.41497931825217
 30
0.0000000000000000
 41
2.000000000000000
 42
2.000000000000000
 43
2.000000000000000
 50
270.0000000000000
  0
INSERT
  5
133
100
AcDbEntity
  8
MAIN0
  6
BYBLOCK
 62
0
100
AcDbBlockReference
  2
_DOT
 10
269.0694891132671
 20
78.91497931825217
 30
0.0000000000000000
 41
1.000000000000000
 42
1.000000000000000
 43
1.000000000000000
 50
270.0000000000000
  0
LINE
  5
134
100
AcDbEntity
  8
MAIN0
  6
BYBLOCK
 62
0
370
    -2
100
AcDbLine
 10
269.0694891132671
 20
82.41497931825217
 30
0.0000000000000000
 11
269.0694891132671
 21
88.22125134812887
 31
0.0000000000000000
  0
LINE
  5
135
100
AcDbEntity
  8
MAIN0
  6
BYBLOCK
 62
0
370
    -2
100
AcDbLine
 10
262.7534833180754
 20
78.91497931825217
 30
0.0000000000000000
 11
271.0694891132671
 21
78.91497931825217
 31
0.0000000000000000
  0
MTEXT
  5
136
100
AcDbEntity
  8
MAIN0
  6
BYBLOCK
 62
0
100
AcDbMText
 10
267.0194891609508
 20
85.57125132702542
 30
0.0000000000000000
 40
3.099999904632568
 41
0.0000000000000000
 44
0.7741935722041460
 71
     5
 72
     1
  1
\A1;1.5
 11
6.123233995736766e-017
 21
1.000000000000000
 31
0.0000000000000000
  7
STANDARD
  0
ENDBLK
  5
137
100
AcDbEntity
  8
MAIN0
  6
CONTINUOUS
 62
3
100
AcDbBlockEnd
  0
BLOCK
  5
139
100
AcDbEntity
  8
MAIN0
  6
CONTINUOUS
 62
3
100
AcDbBlockBegin
  2
*D25
 70
    65
 10
0.0
 20
0.0
 30
0.0
  0
LINE
  5
13A
100
AcDbEntity
  8
MAIN0
  6
BYBLOCK
 62
0
370
    -2
100
AcDbLine
 10
262.7534833180754
 20
78.91497931825217
 30
0.0000000000000000
 11
271.0694891132671
 21
78.91497931825217
 31
0.0000000000000000
  0
LINE
  5
13B
100
AcDbEntity
  8
MAIN0
  6
BYBLOCK
 62
0
370
    -2
100
AcDbLine
 10
269.0694891132671
 20
77.91497931825217
 30
0.0000000000000000
 11
269.0694891132671
 21
74.91497931825217
 31
0.0000000000000000
  0
INSERT
  5
13C
100
AcDbEntity
  8
MAIN0
  6
BYBLOCK
 62
0
100
AcDbBlockReference
  2
_DOT
 10
269.0694891132671
 20
78.91497931825217
 30
0.0000000000000000
 41
1.000000000000000
 42
1.000000000000000
 43
1.000000000000000
 50
90.00000000000000
  0
INSERT
  5
13D
100
AcDbEntity
  8
MAIN0
  6
BYBLOCK
 62
0
100
AcDbBlockReference
  2
_DOT
 10
269.0694891132671
 20
73.91497931825217
 30
0.0000000000000000
 41
1.000000000000000
 42
1.000000000000000
 43
1.000000000000000
 50
270.0000000000000
  0
LINE
  5
13E
100
AcDbEntity
  8
MAIN0
  6
BYBLOCK
 62
0
370
    -2
100
AcDbLine
 10
262.7534833180754
 20
73.91497931825217
 30
0.0000000000000000
 11
271.0694891132671
 21
73.91497931825217
 31
0.0000000000000000
  0
MTEXT
  5
13F
100
AcDbEntity
  8
MAIN0
  6
BYBLOCK
 62
0
100
AcDbMText
 10
267.0194891609508
 20
76.41497931825217
 30
0.0000000000000000
 40
3.099999904632568
 41
0.0000000000000000
 44
0.7741935722041460
 71
     5
 72
     1
  1
\A1;5
 11
6.123233995736766e-017
 21
1.000000000000000
 31
0.0000000000000000
  7
STANDARD
  0
ENDBLK
  5
140
100
AcDbEntity
  8
MAIN0
  6
CONTINUOUS
 62
3
100
AcDbBlockEnd
  0
BLOCK
  5
142
100
AcDbEntity
  8
MAIN0
  6
CONTINUOUS
 62
3
100
AcDbBlockBegin
  2
*D26
 70
    65
 10
0.0
 20
0.0
 30
0.0
  0
LINE
  5
143
100
AcDbEntity
  8
MAIN0
  6
BYBLOCK
 62
0
370
    -2
100
AcDbLine
 10
262.7534833180754
 20
73.91497931825217
 30
0.0000000000000000
 11
271.0694891132671
 21
73.91497931825217
 31
0.0000000000000000
  0
LINE
  5
144
100
AcDbEntity
  8
MAIN0
  6
BYBLOCK
 62
0
370
    -2
100
AcDbLine
 10
269.0694891132671
 20
72.91497931825217
 30
0.0000000000000000
 11
269.0694891132671
 21
72.41497931825217
 31
0.0000000000000000
  0
INSERT
  5
145
100
AcDbEntity
  8
MAIN0
  6
BYBLOCK
 62
0
100
AcDbBlockReference
  2
_DOT
 10
269.0694891132671
 20
73.91497931825217
 30
0.0000000000000000
 41
1.000000000000000
 42
1.000000000000000
 43
1.000000000000000
 50
90.00000000000000
  0
INSERT
  5
146
100
AcDbEntity
  8
MAIN0
  6
BYBLOCK
 62
0
100
AcDbBlockReference
  2
_OPEN
 10
269.0694891132671
 20
72.41497931825217
 30
0.0000000000000000
 41
2.000000000000000
 42
2.000000000000000
 43
2.000000000000000
 50
90.00000000000000
  0
LINE
  5
147
100
AcDbEntity
  8
MAIN0
  6
BYBLOCK
 62
0
370
    -2
100
AcDbLine
 10
269.0694891132671
 20
70.41497931825217
 30
0.0000000000000000
 11
269.0694891132671
 21
63.13434157716330
 31
0.0000000000000000
  0
LINE
  5
148
100
AcDbEntity
  8
MAIN0
  6
BYBLOCK
 62
0
370
    -2
100
AcDbLine
 10
262.7534833180754
 20
72.41497931825217
 30
0.0000000000000000
 11
271.0694891132671
 21
72.41497931825217
 31
0.0000000000000000
  0
MTEXT
  5
149
100
AcDbEntity
  8
MAIN0
  6
BYBLOCK
 62
0
100
AcDbMText
 10
267.0194891609508
 20
65.78434194381913
 30
0.0000000000000000
 40
3.099999904632568
 41
0.0000000000000000
 44
0.7741935722041460
 71
     5
 72
     1
  1
\A1;1.5
 11
6.123233995736766e-017
 21
1.000000000000000
 31
0.0000000000000000
  7
STANDARD
  0
ENDBLK
  5
14A
100
AcDbEntity
  8
MAIN0
  6
CONTINUOUS
 62
3
100
AcDbBlockEnd
  0
BLOCK
  5
150
100
AcDbEntity
  8
MAIN0
  6
CONTINUOUS
 62
3
100
AcDbBlockBegin
  2
D27
 70
    64
 10
0.0
 20
0.0
 30
0.0
  0
LINE
  5
151
100
AcDbEntity
  8
MAIN0
  6
BYBLOCK
 62
0
370
    -2
100
AcDbLine
 10
-32.42387553900360
 20
-4.868537963148924
 30
0.0000000000000000
 11
-32.42387553888614
 21
10.00000000016205
 31
0.0000000000000000
  0
LINE
  5
152
100
AcDbEntity
  8
MAIN0
  6
BYBLOCK
 62
0
370
    -2
100
AcDbLine
 10
-33.02387556274380
 20
8.000000000166786
 30
0.0000000000000000
 11
-32.42387553888614
 21
10.00000000016205
 31
0.0000000000000000
  0
LINE
  5
153
100
AcDbEntity
  8
MAIN0
  6
BYBLOCK
 62
0
370
    -2
100
AcDbLine
 10
-32.42387553888614
 20
10.00000000016205
 30
0.0000000000000000
 11
-31.82387551506008
 21
8.000000000157307
 31
0.0000000000000000
  0
LINE
  5
154
100
AcDbEntity
  8
MAIN0
  6
BYBLOCK
 62
0
370
    -2
100
AcDbLine
 10
-23.22387555080704
 20
10.00000000008927
 30
0.0000000000000000
 11
-34.42387553888614
 21
10.00000000017776
 31
0.0000000000000000
  0
MTEXT
  5
155
100
AcDbEntity
  8
MAIN0
  6
BYBLOCK
 62
0
100
AcDbMText
 10
-34.47387549127723
 20
0.5314620390901439
 30
0.0000000000000000
 40
3.099999904632568
 41
0.0000000000000000
 44
0.7741935722041460
 71
     5
 72
     1
  1
\A1;\U+220520
 11
6.123233995736766e-017
 21
1.000000000000000
 31
0.0000000000000000
  7
STANDARD
  0
ENDBLK
  5
156
100
AcDbEntity
  8
MAIN0
  6
CONTINUOUS
 62
3
100
AcDbBlockEnd
  0
BLOCK
  5
158
100
AcDbEntity
  8
MAIN0
  6
CONTINUOUS
 62
3
100
AcDbBlockBegin
  2
D28
 70
    64
 10
0.0
 20
0.0
 30
0.0
  0
LINE
  5
159
100
AcDbEntity
  8
MAIN0
  6
BYBLOCK
 62
0
370
    -2
100
AcDbLine
 10
-40.42387553901943
 20
-6.882225973884374
 30
0.0000000000000000
 11
-40.42387553884655
 21
15.00000000022520
 31
0.0000000000000000
  0
LINE
  5
15A
100
AcDbEntity
  8
MAIN0
  6
BYBLOCK
 62
0
370
    -2
100
AcDbLine
 10
-41.02387556270421
 20
13.00000000022994
 30
0.0000000000000000
 11
-40.42387553884655
 21
15.00000000022520
 31
0.0000000000000000
  0
LINE
  5
15B
100
AcDbEntity
  8
MAIN0
  6
BYBLOCK
 62
0
370
    -2
100
AcDbLine
 10
-40.42387553884655
 20
15.00000000022520
 30
0.0000000000000000
 11
-39.82387551502049
 21
13.00000000022046
 31
0.0000000000000000
  0
LINE
  5
15C
100
AcDbEntity
  8
MAIN0
  6
BYBLOCK
 62
0
370
    -2
100
AcDbLine
 10
-23.22387555076749
 20
15.00000000008924
 30
0.0000000000000000
 11
-42.42387553884653
 21
15.00000000024095
 31
0.0000000000000000
  0
MTEXT
  5
15D
100
AcDbEntity
  8
MAIN0
  6
BYBLOCK
 62
0
100
AcDbMText
 10
-42.47387549129306
 20
-1.482225971645192
 30
0.0000000000000000
 40
3.099999904632568
 41
0.0000000000000000
 44
0.7741935722041460
 71
     5
 72
     1
  1
\A1;\U+220530
 11
6.123233995736766e-017
 21
1.000000000000000
 31
0.0000000000000000
  7
STANDARD
  0
ENDBLK
  5
15E
100
AcDbEntity
  8
MAIN0
  6
CONTINUOUS
 62
3
100
AcDbBlockEnd
  0
BLOCK
  5
160
100
AcDbEntity
  8
MAIN0
  6
CONTINUOUS
 62
3
100
AcDbBlockBegin
  2
D29
 70
    64
 10
0.0
 20
0.0
 30
0.0
  0
LINE
  5
161
100
AcDbEntity
  8
MAIN0
  6
BYBLOCK
 62
0
370
    -2
100
AcDbLine
 10
-94.42387553897959
 20
-4.774191725943410
 30
0.0000000000000000
 11
-94.42387553882338
 21
15.00000000097614
 31
0.0000000000000000
  0
LINE
  5
162
100
AcDbEntity
  8
MAIN0
  6
BYBLOCK
 62
0
370
    -2
100
AcDbLine
 10
-95.02387556268104
 20
13.00000000098088
 30
0.0000000000000000
 11
-94.42387553882338
 21
15.00000000097614
 31
0.0000000000000000
  0
LINE
  5
163
100
AcDbEntity
  8
MAIN0
  6
BYBLOCK
 62
0
370
    -2
100
AcDbLine
 10
-94.42387553882338
 20
15.00000000097614
 30
0.0000000000000000
 11
-93.82387551499733
 21
13.00000000097140
 31
0.0000000000000000
  0
LINE
  5
164
100
AcDbEntity
  8
MAIN0
  6
BYBLOCK
 62
0
370
    -2
100
AcDbLine
 10
-83.22387555074431
 20
15.00000000088767
 30
0.0000000000000000
 11
-96.42387553882338
 21
15.00000000099196
 31
0.0000000000000000
  0
MTEXT
  5
165
100
AcDbEntity
  8
MAIN0
  6
BYBLOCK
 62
0
100
AcDbMText
 10
-96.47387549125320
 20
0.6258082762957713
 30
0.0000000000000000
 40
3.099999904632568
 41
0.0000000000000000
 44
0.7741935722041460
 71
     5
 72
     1
  1
\A1;\U+220530
 11
6.123233995736766e-017
 21
1.000000000000000
 31
0.0000000000000000
  7
STANDARD
  0
ENDBLK
  5
166
100
AcDbEntity
  8
MAIN0
  6
CONTINUOUS
 62
3
100
AcDbBlockEnd
  0
BLOCK
  5
168
100
AcDbEntity
  8
MAIN0
  6
CONTINUOUS
 62
3
100
AcDbBlockBegin
  2
D30
 70
    64
 10
0.0
 20
0.0
 30
0.0
  0
LINE
  5
169
100
AcDbEntity
  8
MAIN0
  6
BYBLOCK
 62
0
370
    -2
100
AcDbLine
 10
-102.4238755389911
 20
-6.232625538263392
 30
0.0000000000000000
 11
-102.4238755387838
 21
20.00000000103943
 31
0.0000000000000000
  0
LINE
  5
16A
100
AcDbEntity
  8
MAIN0
  6
BYBLOCK
 62
0
370
    -2
100
AcDbLine
 10
-103.0238755626415
 20
18.00000000104416
 30
0.0000000000000000
 11
-102.4238755387838
 21
20.00000000103943
 31
0.0000000000000000
  0
LINE
  5
16B
100
AcDbEntity
  8
MAIN0
  6
BYBLOCK
 62
0
370
    -2
100
AcDbLine
 10
-102.4238755387838
 20
20.00000000103943
 30
0.0000000000000000
 11
-101.8238755149578
 21
18.00000000103469
 31
0.0000000000000000
  0
LINE
  5
16C
100
AcDbEntity
  8
MAIN0
  6
BYBLOCK
 62
0
370
    -2
100
AcDbLine
 10
-83.22387555070476
 20
20.00000000088770
 30
0.0000000000000000
 11
-104.4238755387839
 21
20.00000000105520
 31
0.0000000000000000
  0
MTEXT
  5
16D
100
AcDbEntity
  8
MAIN0
  6
BYBLOCK
 62
0
100
AcDbMText
 10
-104.4738754912647
 20
-0.8326255360242669
 30
0.0000000000000000
 40
3.099999904632568
 41
0.0000000000000000
 44
0.7741935722041460
 71
     5
 72
     1
  1
\A1;\U+220540
 11
6.123233995736766e-017
 21
1.000000000000000
 31
0.0000000000000000
  7
STANDARD
  0
ENDBLK
  5
16E
100
AcDbEntity
  8
MAIN0
  6
CONTINUOUS
 62
3
100
AcDbBlockEnd
  0
BLOCK
  5
170
100
AcDbEntity
  8
MAIN0
  6
CONTINUOUS
 62
3
100
AcDbBlockBegin
  2
D31
 70
    64
 10
0.0
 20
0.0
 30
0.0
  0
LINE
  5
171
100
AcDbEntity
  8
MAIN0
  6
BYBLOCK
 62
0
370
    -2
100
AcDbLine
 10
55.33814870635550
 20
-4.370918259879460
 30
0.0000000000000000
 11
55.33814870654805
 21
20.00000000011676
 31
0.0000000000000000
  0
LINE
  5
172
100
AcDbEntity
  8
MAIN0
  6
BYBLOCK
 62
0
370
    -2
100
AcDbLine
 10
54.73814868269039
 20
18.00000000012150
 30
0.0000000000000000
 11
55.33814870654805
 21
20.00000000011676
 31
0.0000000000000000
  0
LINE
  5
173
100
AcDbEntity
  8
MAIN0
  6
BYBLOCK
 62
0
370
    -2
100
AcDbLine
 10
55.33814870654805
 20
20.00000000011676
 30
0.0000000000000000
 11
55.93814873037411
 21
18.00000000011202
 31
0.0000000000000000
  0
LINE
  5
174
100
AcDbEntity
  8
MAIN0
  6
BYBLOCK
 62
0
370
    -2
100
AcDbLine
 10
64.53814869462713
 20
20.00000000004403
 30
0.0000000000000000
 11
53.33814870654805
 21
20.00000000013252
 31
0.0000000000000000
  0
MTEXT
  5
175
100
AcDbEntity
  8
MAIN0
  6
BYBLOCK
 62
0
100
AcDbMText
 10
53.28814875408187
 20
1.029081742359665
 30
0.0000000000000000
 40
3.099999904632568
 41
0.0000000000000000
 44
0.7741935722041460
 71
     5
 72
     1
  1
\A1;\U+220540
 11
6.123233995736766e-017
 21
1.000000000000000
 31
0.0000000000000000
  7
STANDARD
  0
ENDBLK
  5
176
100
AcDbEntity
  8
MAIN0
  6
CONTINUOUS
 62
3
100
AcDbBlockEnd
  0
BLOCK
  5
178
100
AcDbEntity
  8
MAIN0
  6
CONTINUOUS
 62
3
100
AcDbBlockBegin
  2
D32
 70
    64
 10
0.0
 20
0.0
 30
0.0
  0
LINE
  5
179
100
AcDbEntity
  8
MAIN0
  6
BYBLOCK
 62
0
370
    -2
100
AcDbLine
 10
47.33814870633908
 20
-6.446936736349045
 30
0.0000000000000000
 11
47.33814870658753
 21
25.00000000017997
 31
0.0000000000000000
  0
LINE
  5
17A
100
AcDbEntity
  8
MAIN0
  6
BYBLOCK
 62
0
370
    -2
100
AcDbLine
 10
46.73814868272987
 20
23.00000000018471
 30
0.0000000000000000
 11
47.33814870658753
 21
25.00000000017997
 31
0.0000000000000000
  0
LINE
  5
17B
100
AcDbEntity
  8
MAIN0
  6
BYBLOCK
 62
0
370
    -2
100
AcDbLine
 10
47.33814870658753
 20
25.00000000017997
 30
0.0000000000000000
 11
47.93814873041359
 21
23.00000000017523
 31
0.0000000000000000
  0
LINE
  5
17C
100
AcDbEntity
  8
MAIN0
  6
BYBLOCK
 62
0
370
    -2
100
AcDbLine
 10
64.53814869466660
 20
25.00000000004403
 30
0.0000000000000000
 11
45.33814870658753
 21
25.00000000019573
 31
0.0000000000000000
  0
MTEXT
  5
17D
100
AcDbEntity
  8
MAIN0
  6
BYBLOCK
 62
0
100
AcDbMText
 10
45.28814875406546
 20
-1.046936734109863
 30
0.0000000000000000
 40
3.099999904632568
 41
0.0000000000000000
 44
0.7741935722041460
 71
     5
 72
     1
  1
\A1;\U+220550
 11
6.123233995736766e-017
 21
1.000000000000000
 31
0.0000000000000000
  7
STANDARD
  0
ENDBLK
  5
17E
100
AcDbEntity
  8
MAIN0
  6
CONTINUOUS
 62
3
100
AcDbBlockEnd
  0
BLOCK
  5
180
100
AcDbEntity
  8
MAIN0
  6
CONTINUOUS
 62
3
100
AcDbBlockBegin
  2
D33
 70
    64
 10
0.0
 20
0.0
 30
0.0
  0
LINE
  5
181
100
AcDbEntity
  8
MAIN0
  6
BYBLOCK
 62
0
370
    -2
100
AcDbLine
 10
-2.661851293725050
 20
-3.952038990180000
 30
0.0000000000000000
 11
-2.661851293496312
 21
25.00000000010114
 31
0.0000000000000000
  0
LINE
  5
182
100
AcDbEntity
  8
MAIN0
  6
BYBLOCK
 62
0
370
    -2
100
AcDbLine
 10
-3.261851317353971
 20
23.00000000010588
 30
0.0000000000000000
 11
-2.661851293496312
 21
25.00000000010114
 31
0.0000000000000000
  0
LINE
  5
183
100
AcDbEntity
  8
MAIN0
  6
BYBLOCK
 62
0
370
    -2
100
AcDbLine
 10
-2.661851293496312
 20
25.00000000010114
 30
0.0000000000000000
 11
-2.061851269670255
 21
23.00000000009640
 31
0.0000000000000000
  0
LINE
  5
184
100
AcDbEntity
  8
MAIN0
  6
BYBLOCK
 62
0
370
    -2
100
AcDbLine
 10
4.538148694582787
 20
25.00000000004425
 30
0.0000000000000000
 11
-4.661851293496284
 21
25.00000000011694
 31
0.0000000000000000
  0
MTEXT
  5
185
100
AcDbEntity
  8
MAIN0
  6
BYBLOCK
 62
0
100
AcDbMText
 10
-4.711851245998673
 20
1.447961012059125
 30
0.0000000000000000
 40
3.099999904632568
 41
0.0000000000000000
 44
0.7741935722041460
 71
     5
 72
     1
  1
\A1;\U+220550
 11
6.123233995736766e-017
 21
1.000000000000000
 31
0.0000000000000000
  7
STANDARD
  0
ENDBLK
  5
186
100
AcDbEntity
  8
MAIN0
  6
CONTINUOUS
 62
3
100
AcDbBlockEnd
  0
BLOCK
  5
188
100
AcDbEntity
  8
MAIN0
  6
CONTINUOUS
 62
3
100
AcDbBlockBegin
  2
D34
 70
    64
 10
0.0
 20
0.0
 30
0.0
  0
LINE
  5
189
100
AcDbEntity
  8
MAIN0
  6
BYBLOCK
 62
0
370
    -2
100
AcDbLine
 10
-10.66185129373551
 20
-5.283126067317767
 30
0.0000000000000000
 11
-10.66185129345678
 21
30.00000000016438
 31
0.0000000000000000
  0
LINE
  5
18A
100
AcDbEntity
  8
MAIN0
  6
BYBLOCK
 62
0
370
    -2
100
AcDbLine
 10
-11.26185131731444
 20
28.00000000016912
 30
0.0000000000000000
 11
-10.66185129345678
 21
30.00000000016438
 31
0.0000000000000000
  0
LINE
  5
18B
100
AcDbEntity
  8
MAIN0
  6
BYBLOCK
 62
0
370
    -2
100
AcDbLine
 10
-10.66185129345678
 20
30.00000000016438
 30
0.0000000000000000
 11
-10.06185126963072
 21
28.00000000015964
 31
0.0000000000000000
  0
LINE
  5
18C
100
AcDbEntity
  8
MAIN0
  6
BYBLOCK
 62
0
370
    -2
100
AcDbLine
 10
4.538148694622294
 20
30.00000000004428
 30
0.0000000000000000
 11
-12.66185129345678
 21
30.00000000018011
 31
0.0000000000000000
  0
MTEXT
  5
18D
100
AcDbEntity
  8
MAIN0
  6
BYBLOCK
 62
0
100
AcDbMText
 10
-12.71185124600913
 20
0.1168739349213581
 30
0.0000000000000000
 40
3.099999904632568
 41
0.0000000000000000
 44
0.7741935722041460
 71
     5
 72
     1
  1
\A1;\U+220560
 11
6.123233995736766e-017
 21
1.000000000000000
 31
0.0000000000000000
  7
STANDARD
  0
ENDBLK
  5
18E
100
AcDbEntity
  8
MAIN0
  6
CONTINUOUS
 62
3
100
AcDbBlockEnd
  0
BLOCK
  5
19A
100
AcDbEntity
  8
MAIN0
  6
CONTINUOUS
 62
3
100
AcDbBlockBegin
  2
*D35
 70
    65
 10
0.0
 20
0.0
 30
0.0
  0
LINE
  5
19B
100
AcDbEntity
  8
MAIN0
  6
BYBLOCK
 62
0
370
    -2
100
AcDbLine
 10
337.8834463234170
 20
195.8755745414361
 30
0.0000000000000000
 11
347.1819487010681
 21
195.8755745414361
 31
0.0000000000000000
  0
LINE
  5
19C
100
AcDbEntity
  8
MAIN0
  6
BYBLOCK
 62
0
370
    -2
100
AcDbLine
 10
345.1819487010681
 20
197.8755745414361
 30
0.0000000000000000
 11
345.1819487010681
 21
206.8755745420213
 31
0.0000000000000000
  0
INSERT
  5
19D
100
AcDbEntity
  8
MAIN0
  6
BYBLOCK
 62
0
100
AcDbBlockReference
  2
_OPEN
 10
345.1819487010681
 20
195.8755745414361
 30
0.0000000000000000
 41
2.000000000000000
 42
2.000000000000000
 43
2.000000000000000
 50
270.0000000000000
  0
INSERT
  5
19E
100
AcDbEntity
  8
MAIN0
  6
BYBLOCK
 62
0
100
AcDbBlockReference
  2
_OPEN
 10
345.1819487010681
 20
208.8755745420213
 30
0.0000000000000000
 41
2.000000000000000
 42
2.000000000000000
 43
2.000000000000000
 50
90.00000000000000
  0
MTEXT
  5
19F
100
AcDbEntity
  8
MAIN0
  6
BYBLOCK
 62
0
100
AcDbMText
 10
343.1319487487518
 20
202.3755745417287
 30
0.0000000000000000
 40
3.099999904632568
 41
0.0000000000000000
 44
0.7741935722041460
 71
     5
 72
     1
  1
\A1;13
 11
6.123233995736766e-017
 21
1.000000000000000
 31
0.0000000000000000
  7
STANDARD
  0
ENDBLK
  5
1A0
100
AcDbEntity
  8
MAIN0
  6
CONTINUOUS
 62
3
100
AcDbBlockEnd
  0
BLOCK
  5
1A2
100
AcDbEntity
  8
MAIN0
  6
CONTINUOUS
 62
3
100
AcDbBlockBegin
  2
*D36
 70
    65
 10
0.0
 20
0.0
 30
0.0
  0
LINE
  5
1A3
100
AcDbEntity
  8
MAIN0
  6
BYBLOCK
 62
0
370
    -2
100
AcDbLine
 10
307.7834462995727
 20
198.8755745436235
 30
0.0000000000000000
 11
298.9727419102740
 21
198.8755745436235
 31
0.0000000000000000
  0
LINE
  5
1A4
100
AcDbEntity
  8
MAIN0
  6
BYBLOCK
 62
0
370
    -2
100
AcDbLine
 10
300.9727419102740
 20
200.8755745436235
 30
0.0000000000000000
 11
300.9727419102740
 21
206.8755745412850
 31
0.0000000000000000
  0
INSERT
  5
1A5
100
AcDbEntity
  8
MAIN0
  6
BYBLOCK
 62
0
100
AcDbBlockReference
  2
_OPEN
 10
300.9727419102740
 20
198.8755745436235
 30
0.0000000000000000
 41
2.000000000000000
 42
2.000000000000000
 43
2.000000000000000
 50
270.0000000000000
  0
INSERT
  5
1A6
100
AcDbEntity
  8
MAIN0
  6
BYBLOCK
 62
0
100
AcDbBlockReference
  2
_OPEN
 10
300.9727419102740
 20
208.8755745412850
 30
0.0000000000000000
 41
2.000000000000000
 42
2.000000000000000
 43
2.000000000000000
 50
90.00000000000000
  0
MTEXT
  5
1A7
100
AcDbEntity
  8
MAIN0
  6
BYBLOCK
 62
0
100
AcDbMText
 10
298.9227419579577
 20
203.8755745424543
 30
0.0000000000000000
 40
3.099999904632568
 41
0.0000000000000000
 44
0.7741935722041460
 71
     5
 72
     1
  1
\A1;10
 11
6.123233995736766e-017
 21
1.000000000000000
 31
0.0000000000000000
  7
STANDARD
  0
ENDBLK
  5
1A8
100
AcDbEntity
  8
MAIN0
  6
CONTINUOUS
 62
3
100
AcDbBlockEnd
  0
BLOCK
  5
1AA
100
AcDbEntity
  8
MAIN0
  6
CONTINUOUS
 62
3
100
AcDbBlockBegin
  2
*D37
 70
    65
 10
0.0
 20
0.0
 30
0.0
  0
LINE
  5
1AB
100
AcDbEntity
  8
MAIN0
  6
BYBLOCK
 62
0
370
    -2
100
AcDbLine
 10
84.79430329557920
 20
208.8755745414581
 30
0.0000000000000000
 11
78.28339029066621
 21
208.8755745414581
 31
0.0000000000000000
  0
LINE
  5
1AC
100
AcDbEntity
  8
MAIN0
  6
BYBLOCK
 62
0
370
    -2
100
AcDbLine
 10
80.28339029066621
 20
208.8755745414581
 30
0.0000000000000000
 11
80.28339029066621
 21
201.3755745413151
 31
0.0000000000000000
  0
INSERT
  5
1AD
100
AcDbEntity
  8
MAIN0
  6
BYBLOCK
 62
0
100
AcDbBlockReference
  2
_OPEN
 10
80.28339029066621
 20
208.8755745414581
 30
0.0000000000000000
 41
2.000000000000000
 42
2.000000000000000
 43
2.000000000000000
 50
270.0000000000000
  0
INSERT
  5
1AE
100
AcDbEntity
  8
MAIN0
  6
BYBLOCK
 62
0
100
AcDbBlockReference
  2
_DOT
 10
80.28339029066621
 20
200.3755745413151
 30
0.0000000000000000
 41
1.000000000000000
 42
1.000000000000000
 43
1.000000000000000
 50
270.0000000000000
  0
LINE
  5
1AF
100
AcDbEntity
  8
MAIN0
  6
BYBLOCK
 62
0
370
    -2
100
AcDbLine
 10
80.28339029066621
 20
210.8755745414581
 30
0.0000000000000000
 11
80.28339029066621
 21
211.8755745414581
 31
0.0000000000000000
  0
LINE
  5
1B0
100
AcDbEntity
  8
MAIN0
  6
BYBLOCK
 62
0
370
    -2
100
AcDbLine
 10
99.53987427858598
 20
200.3755745413151
 30
0.0000000000000000
 11
78.28339029066621
 21
200.3755745413151
 31
0.0000000000000000
  0
MTEXT
  5
1B1
100
AcDbEntity
  8
MAIN0
  6
BYBLOCK
 62
0
100
AcDbMText
 10
78.23339033834992
 20
204.6255745413866
 30
0.0000000000000000
 40
3.099999904632568
 41
0.0000000000000000
 44
0.7741935722041460
 71
     5
 72
     1
  1
\A1;8.5
 11
6.123233995736766e-017
 21
1.000000000000000
 31
0.0000000000000000
  7
STANDARD
  0
ENDBLK
  5
1B2
100
AcDbEntity
  8
MAIN0
  6
CONTINUOUS
 62
3
100
AcDbBlockEnd
  0
BLOCK
  5
1B4
100
AcDbEntity
  8
MAIN0
  6
CONTINUOUS
 62
3
100
AcDbBlockBegin
  2
*D38
 70
    65
 10
0.0
 20
0.0
 30
0.0
  0
LINE
  5
1B5
100
AcDbEntity
  8
MAIN0
  6
BYBLOCK
 62
0
370
    -2
100
AcDbLine
 10
99.53987427858598
 20
200.3755745413151
 30
0.0000000000000000
 11
78.28339029066621
 21
200.3755745413151
 31
0.0000000000000000
  0
INSERT
  5
1B6
100
AcDbEntity
  8
MAIN0
  6
BYBLOCK
 62
0
100
AcDbBlockReference
  2
_DOT
 10
80.28339029066621
 20
200.3755745413151
 30
0.0000000000000000
 41
1.000000000000000
 42
1.000000000000000
 43
1.000000000000000
 50
90.00000000000000
  0
INSERT
  5
1B7
100
AcDbEntity
  8
MAIN0
  6
BYBLOCK
 62
0
100
AcDbBlockReference
  2
_OPEN
 10
80.28339029066621
 20
199.3755745413151
 30
0.0000000000000000
 41
2.000000000000000
 42
2.000000000000000
 43
2.000000000000000
 50
90.00000000000000
  0
LINE
  5
1B8
100
AcDbEntity
  8
MAIN0
  6
BYBLOCK
 62
0
370
    -2
100
AcDbLine
 10
80.28339029066621
 20
197.3755745413151
 30
0.0000000000000000
 11
80.28339029066621
 21
194.4928359510747
 31
0.0000000000000000
  0
LINE
  5
1B9
100
AcDbEntity
  8
MAIN0
  6
BYBLOCK
 62
0
370
    -2
100
AcDbLine
 10
99.53987427858598
 20
199.3755745413151
 30
0.0000000000000000
 11
78.28339029066621
 21
199.3755745413151
 31
0.0000000000000000
  0
MTEXT
  5
1BA
100
AcDbEntity
  8
MAIN0
  6
BYBLOCK
 62
0
100
AcDbMText
 10
78.23339033834992
 20
195.5428357285279
 30
0.0000000000000000
 40
3.099999904632568
 41
0.0000000000000000
 44
0.7741935722041460
 71
     5
 72
     1
  1
\A1;1
 11
6.123233995736766e-017
 21
1.000000000000000
 31
0.0000000000000000
  7
STANDARD
  0
ENDBLK
  5
1BB
100
AcDbEntity
  8
MAIN0
  6
CONTINUOUS
 62
3
100
AcDbBlockEnd
  0
BLOCK
  5
1BD
100
AcDbEntity
  8
MAIN0
  6
CONTINUOUS
 62
3
100
AcDbBlockBegin
  2
*D39
 70
    65
 10
0.0
 20
0.0
 30
0.0
  0
LINE
  5
1BE
100
AcDbEntity
  8
MAIN0
  6
BYBLOCK
 62
0
370
    -2
100
AcDbLine
 10
223.5834463129342
 20
226.7755745535505
 30
0.0000000000000000
 11
223.5834463129342
 21
260.5438680267931
 31
0.0000000000000000
  0
LINE
  5
1BF
100
AcDbEntity
  8
MAIN0
  6
BYBLOCK
 62
0
370
    -2
100
AcDbLine
 10
221.5834463129342
 20
258.5438680267931
 30
0.0000000000000000
 11
188.0834463129428
 21
258.5438680267931
 31
0.0000000000000000
  0
INSERT
  5
1C0
100
AcDbEntity
  8
MAIN0
  6
BYBLOCK
 62
0
100
AcDbBlockReference
  2
_OPEN
 10
223.5834463129342
 20
258.5438680267931
 30
0.0000000000000000
 41
2.000000000000000
 42
2.000000000000000
 43
2.000000000000000
 50
360.0000000000000
  0
INSERT
  5
1C1
100
AcDbEntity
  8
MAIN0
  6
BYBLOCK
 62
0
100
AcDbBlockReference
  2
_OPEN
 10
186.0834463129428
 20
258.5438680267931
 30
0.0000000000000000
 41
2.000000000000000
 42
2.000000000000000
 43
2.000000000000000
 50
180.0000000000000
  0
LINE
  5
1C2
100
AcDbEntity
  8
MAIN0
  6
BYBLOCK
 62
0
370
    -2
100
AcDbLine
 10
186.0834463129428
 20
214.2755745535739
 30
0.0000000000000000
 11
186.0834463129428
 21
260.5438680267931
 31
0.0000000000000000
  0
MTEXT
  5
1C3
100
AcDbEntity
  8
MAIN0
  6
BYBLOCK
 62
0
100
AcDbMText
 10
204.8334463129385
 20
260.5938679791094
 30
0.0000000000000000
 40
3.099999904632568
 41
0.0000000000000000
 44
0.7741935722041460
 71
     5
 72
     1
  1
\A1;（37.5）
 11
1.000000000000000
 21
0.0000000000000000
 31
0.0000000000000000
  7
KNJYOKO
  0
ENDBLK
  5
1C4
100
AcDbEntity
  8
MAIN0
  6
CONTINUOUS
 62
3
100
AcDbBlockEnd
  0
BLOCK
  5
1C6
100
AcDbEntity
  8
MAIN0
  6
CONTINUOUS
 62
3
100
AcDbBlockBegin
  2
*D40
 70
    65
 10
0.0
 20
0.0
 30
0.0
  0
LINE
  5
1C7
100
AcDbEntity
  8
MAIN0
  6
BYBLOCK
 62
0
370
    -2
100
AcDbLine
 10
199.3991317463208
 20
214.4412599750046
 30
0.0000000000000000
 11
207.6019630126257
 21
222.6440912413202
 31
0.0000000000000000
  0
LINE
  5
1C8
100
AcDbEntity
  8
MAIN0
  6
BYBLOCK
 62
0
370
    -2
100
AcDbLine
 10
194.7677608795634
 20
214.4412599750047
 30
0.0000000000000000
 11
186.5649296132514
 21
222.6440912413072
 31
0.0000000000000000
  0
ARC
  5
1C9
100
AcDbEntity
  8
MAIN0
  6
BYBLOCK
 62
0
370
    -2
100
AcDbCircle
 10
197.0834463129450
 20
212.1255745416258
 30
0.0000000000000000
 40
12.87542897274596
100
AcDbArc
 50
53.90001873096486
 51
126.0999812691062
  0
INSERT
  5
1CA
100
AcDbEntity
  8
MAIN0
  6
BYBLOCK
 62
0
100
AcDbBlockReference
  2
_OPEN
 10
206.1877494502535
 20
221.2298776789462
 30
0.0000000000000000
 41
2.000000000000000
 42
2.000000000000000
 43
2.000000000000000
 50
315.0000000000375
  0
INSERT
  5
1CB
100
AcDbEntity
  8
MAIN0
  6
BYBLOCK
 62
0
100
AcDbBlockReference
  2
_OPEN
 10
187.9791431756253
 20
221.2298776789349
 30
0.0000000000000000
 41
2.000000000000000
 42
2.000000000000000
 43
2.000000000000000
 50
225.0000000000336
  0
MTEXT
  5
1CC
100
AcDbEntity
  8
MAIN0
  6
BYBLOCK
 62
0
100
AcDbMText
 10
192.5407246816400
 20
226.3428917561202
 30
0.0000000000000000
 40
3.099999904632568
 41
0.0000000000000000
 44
0.7741935722041460
 71
     5
 72
     1
  1
\A1;90\U+00B0
 11
0.9525566927340460
 21
0.3043612116015712
 31
0.0000000000000000
  7
STANDARD
  0
ENDBLK
  5
1CD
100
AcDbEntity
  8
MAIN0
  6
CONTINUOUS
 62
3
100
AcDbBlockEnd
  0
BLOCK
  5
2D9
100
AcDbEntity
  8
WAKU0
  6
BYBLOCK
 62
2
100
AcDbBlockBegin
  2
M2
 70
    64
 10
0.0
 20
0.0
 30
0.0
  0
LINE
  5
2DA
100
AcDbEntity
  8
WAKU0
  6
BYBLOCK
 62
0
370
    -2
100
AcDbLine
 10
20.00000000000364
 20
12.00000000000010
 30
0.0000000000000000
 11
410.0000000000001
 21
12.00000000000000
 31
0.0000000000000000
  0
LINE
  5
2DB
100
AcDbEntity
  8
WAKU0
  6
BYBLOCK
 62
0
370
    -2
100
AcDbLine
 10
20.00000000000370
 20
286.9999999999964
 30
0.0000000000000000
 11
410.0000000000000
 21
286.9999999999964
 31
0.0000000000000000
  0
LINE
  5
2DC
100
AcDbEntity
  8
WAKU0
  6
BYBLOCK
 62
0
370
    -2
100
AcDbLine
 10
20.00000000000364
 20
12.00000000000010
 30
0.0000000000000000
 11
20.00000000000370
 21
286.9999999999964
 31
0.0000000000000000
  0
LINE
  5
2DD
100
AcDbEntity
  8
WAKU0
  6
BYBLOCK
 62
0
370
    -2
100
AcDbLine
 10
210.0000000000001
 20
-3.552713678800501e-015
 30
0.0000000000000000
 11
210.0000000000001
 21
12.00000000000013
 31
0.0000000000000000
  0
LINE
  5
2DE
100
AcDbEntity
  8
WAKU0
  6
BYBLOCK
 62
0
370
    -2
100
AcDbLine
 10
210.0000000000001
 20
286.9999999999964
 30
0.0000000000000000
 11
210.0000000000002
 21
296.9999999999964
 31
0.0000000000000000
  0
LINE
  5
2DF
100
AcDbEntity
  8
WAKU0
  6
BYBLOCK
 62
0
370
    -2
100
AcDbLine
 10
3.637978807091713e-012
 20
148.4999999999999
 30
0.0000000000000000
 11
20.00000000000364
 21
148.4999999999999
 31
0.0000000000000000
  0
LINE
  5
2E0
100
AcDbEntity
  8
WAKU0
  6
BYBLOCK
 62
0
370
    -2
100
AcDbLine
 10
410.0000000000000
 20
148.5000000000000
 30
0.0000000000000000
 11
420.0000000000001
 21
148.5000000000000
 31
0.0000000000000000
  0
LINE
  5
2E1
100
AcDbEntity
  8
WAKU0
  6
BYBLOCK
 62
0
370
    -2
100
AcDbLine
 10
160.0000000000002
 20
6.999999999999995
 30
0.0000000000000000
 11
260.0000000000000
 21
6.999999999999996
 31
0.0000000000000000
  0
LINE
  5
2E2
100
AcDbEntity
  8
WAKU0
  6
BYBLOCK
 62
0
370
    -2
100
AcDbLine
 10
160.0000000000002
 20
7.000000000000007
 30
0.0000000000000000
 11
160.0000000000002
 21
12.00000000000016
 31
0.0000000000000000
  0
LINE
  5
2E3
100
AcDbEntity
  8
WAKU0
  6
BYBLOCK
 62
0
370
    -2
100
AcDbLine
 10
170.0000000000002
 20
10.00000000000003
 30
0.0000000000000000
 11
170.0000000000002
 21
7.000000000000025
 31
0.0000000000000000
  0
LINE
  5
2E4
100
AcDbEntity
  8
WAKU0
  6
BYBLOCK
 62
0
370
    -2
100
AcDbLine
 10
260.0000000000001
 20
7.000000000000007
 30
0.0000000000000000
 11
260.0000000000001
 21
12.00000000000011
 31
0.0000000000000000
  0
LINE
  5
2E5
100
AcDbEntity
  8
WAKU0
  6
BYBLOCK
 62
0
370
    -2
100
AcDbLine
 10
180.0000000000002
 20
10.00000000000003
 30
0.0000000000000000
 11
180.0000000000002
 21
7.000000000000025
 31
0.0000000000000000
  0
LINE
  5
2E6
100
AcDbEntity
  8
WAKU0
  6
BYBLOCK
 62
0
370
    -2
100
AcDbLine
 10
190.0000000000002
 20
10.00000000000003
 30
0.0000000000000000
 11
190.0000000000002
 21
7.000000000000025
 31
0.0000000000000000
  0
LINE
  5
2E7
100
AcDbEntity
  8
WAKU0
  6
BYBLOCK
 62
0
370
    -2
100
AcDbLine
 10
200.0000000000002
 20
10.00000000000003
 30
0.0000000000000000
 11
200.0000000000002
 21
7.000000000000025
 31
0.0000000000000000
  0
LINE
  5
2E8
100
AcDbEntity
  8
WAKU0
  6
BYBLOCK
 62
0
370
    -2
100
AcDbLine
 10
220.0000000000002
 20
10.00000000000003
 30
0.0000000000000000
 11
220.0000000000002
 21
7.000000000000025
 31
0.0000000000000000
  0
LINE
  5
2E9
100
AcDbEntity
  8
WAKU0
  6
BYBLOCK
 62
0
370
    -2
100
AcDbLine
 10
230.0000000000002
 20
10.00000000000003
 30
0.0000000000000000
 11
230.0000000000002
 21
7.000000000000025
 31
0.0000000000000000
  0
LINE
  5
2EA
100
AcDbEntity
  8
WAKU0
  6
BYBLOCK
 62
0
370
    -2
100
AcDbLine
 10
240.0000000000002
 20
10.00000000000003
 30
0.0000000000000000
 11
240.0000000000002
 21
7.000000000000025
 31
0.0000000000000000
  0
LINE
  5
2EB
100
AcDbEntity
  8
WAKU0
  6
BYBLOCK
 62
0
370
    -2
100
AcDbLine
 10
250.0000000000002
 20
10.00000000000003
 30
0.0000000000000000
 11
250.0000000000002
 21
7.000000000000025
 31
0.0000000000000000
  0
LINE
  5
2EC
100
AcDbEntity
  8
WAKU0
  6
BYBLOCK
 62
0
370
    -2
100
AcDbLine
 10
80.00000000000364
 20
286.9999999999964
 30
0.0000000000000000
 11
80.00000000000364
 21
290.9999999999964
 31
0.0000000000000000
  0
LINE
  5
2ED
100
AcDbEntity
  8
WAKU0
  6
BYBLOCK
 62
0
370
    -2
100
AcDbLine
 10
145.0000000000036
 20
286.9999999999964
 30
0.0000000000000000
 11
145.0000000000036
 21
290.9999999999964
 31
0.0000000000000000
  0
LINE
  5
2EE
100
AcDbEntity
  8
WAKU0
  6
BYBLOCK
 62
0
370
    -2
100
AcDbLine
 10
275.0000000000000
 20
286.9999999999964
 30
0.0000000000000000
 11
275.0000000000000
 21
290.9999999999964
 31
0.0000000000000000
  0
LINE
  5
2EF
100
AcDbEntity
  8
WAKU0
  6
BYBLOCK
 62
0
370
    -2
100
AcDbLine
 10
339.9999999999999
 20
286.9999999999964
 30
0.0000000000000000
 11
339.9999999999999
 21
290.9999999999964
 31
0.0000000000000000
  0
LINE
  5
2F0
100
AcDbEntity
  8
WAKU0
  6
BYBLOCK
 62
0
370
    -2
100
AcDbLine
 10
274.9824199069989
 20
7.999999999999996
 30
0.0000000000000000
 11
274.9824199069989
 21
12.00000000000015
 31
0.0000000000000000
  0
LINE
  5
2F1
100
AcDbEntity
  8
WAKU0
  6
BYBLOCK
 62
0
370
    -2
100
AcDbLine
 10
340.0873184256148
 20
7.999999999999996
 30
0.0000000000000000
 11
340.0873184256148
 21
12.00000000000010
 31
0.0000000000000000
  0
LINE
  5
2F2
100
AcDbEntity
  8
WAKU0
  6
BYBLOCK
 62
0
370
    -2
100
AcDbLine
 10
145.0000000000036
 20
7.999999999999996
 30
0.0000000000000000
 11
145.0000000000036
 21
12.00000000000015
 31
0.0000000000000000
  0
LINE
  5
2F3
100
AcDbEntity
  8
WAKU0
  6
BYBLOCK
 62
0
370
    -2
100
AcDbLine
 10
80.00000000000364
 20
7.999999999999996
 30
0.0000000000000000
 11
80.00000000000364
 21
12.00000000000015
 31
0.0000000000000000
  0
LINE
  5
2F4
100
AcDbEntity
  8
WAKU0
  6
BYBLOCK
 62
0
370
    -2
100
AcDbLine
 10
16.00000000000381
 20
218.4999999999999
 30
0.0000000000000000
 11
20.00000000000381
 21
218.4999999999999
 31
0.0000000000000000
  0
LINE
  5
2F5
100
AcDbEntity
  8
WAKU0
  6
BYBLOCK
 62
0
370
    -2
100
AcDbLine
 10
410.0000000000000
 20
218.5000000000000
 30
0.0000000000000000
 11
413.9999999999999
 21
218.5000000000000
 31
0.0000000000000000
  0
LINE
  5
2F6
100
AcDbEntity
  8
WAKU0
  6
BYBLOCK
 62
0
370
    -2
100
AcDbLine
 10
16.00000000000370
 20
78.49999999999994
 30
0.0000000000000000
 11
20.00000000000370
 21
78.49999999999993
 31
0.0000000000000000
  0
LINE
  5
2F7
100
AcDbEntity
  8
WAKU0
  6
BYBLOCK
 62
0
370
    -2
100
AcDbLine
 10
410.0000000000000
 20
78.49999999999994
 30
0.0000000000000000
 11
413.9999999999999
 21
78.49999999999994
 31
0.0000000000000000
  0
LINE
  5
2F8
100
AcDbEntity
  8
WAKU0
  6
BYBLOCK
 62
0
370
    -2
100
AcDbLine
 10
418.0000000000001
 20
1.999999999999998
 30
0.0000000000000000
 11
418.0000000000001
 21
7.999999999999987
 31
0.0000000000000000
  0
LINE
  5
2F9
100
AcDbEntity
  8
WAKU0
  6
BYBLOCK
 62
0
370
    -2
100
AcDbLine
 10
417.9999999999999
 20
288.9999999999963
 30
0.0000000000000000
 11
418.0000000000000
 21
294.9999999999963
 31
0.0000000000000000
  0
LINE
  5
2FA
100
AcDbEntity
  8
WAKU0
  6
BYBLOCK
 62
0
370
    -2
100
AcDbLine
 10
2.000000000003638
 20
2.000000000000037
 30
0.0000000000000000
 11
2.000000000003638
 21
8.000000000000050
 31
0.0000000000000000
  0
LINE
  5
2FB
100
AcDbEntity
  8
WAKU0
  6
BYBLOCK
 62
0
370
    -2
100
AcDbLine
 10
2.000000000003638
 20
288.9999999999964
 30
0.0000000000000000
 11
2.000000000003638
 21
294.9999999999964
 31
0.0000000000000000
  0
LINE
  5
2FC
100
AcDbEntity
  8
WAKU0
  6
BYBLOCK
 62
0
370
    -2
100
AcDbLine
 10
2.000000000002672
 20
294.9999999999966
 30
0.0000000000000000
 11
8.000000000002672
 21
294.9999999999965
 31
0.0000000000000000
  0
LINE
  5
2FD
100
AcDbEntity
  8
WAKU0
  6
BYBLOCK
 62
0
370
    -2
100
AcDbLine
 10
411.9999999999999
 20
294.9999999999963
 30
0.0000000000000000
 11
418.0000000000000
 21
294.9999999999964
 31
0.0000000000000000
  0
LINE
  5
2FE
100
AcDbEntity
  8
WAKU0
  6
BYBLOCK
 62
0
370
    -2
100
AcDbLine
 10
2.000000000003638
 20
2.000000000000037
 30
0.0000000000000000
 11
8.000000000003638
 21
2.000000000000036
 31
0.0000000000000000
  0
LINE
  5
2FF
100
AcDbEntity
  8
WAKU0
  6
BYBLOCK
 62
0
370
    -2
100
AcDbLine
 10
412.0000000000001
 20
1.999999999999998
 30
0.0000000000000000
 11
418.0000000000001
 21
1.999999999999998
 31
0.0000000000000000
  0
LINE
  5
300
100
AcDbEntity
  8
WAKU0
  6
BYBLOCK
 62
0
370
    -2
100
AcDbLine
 10
420.2411645794610
 20
53.79556398365287
 30
0.0000000000000000
 11
420.2411645794610
 21
46.79556398365287
 31
0.0000000000000000
  0
LINE
  5
301
100
AcDbEntity
  8
WAKU0
  6
BYBLOCK
 62
0
370
    -2
100
AcDbLine
 10
410.0000000000001
 20
12.00000000000011
 30
0.0000000000000000
 11
410.0000000000001
 21
286.9999999999964
 31
0.0000000000000000
  0
MTEXT
  5
302
100
AcDbEntity
  8
WAKU0
  6
BYBLOCK
 62
0
370
    -2
100
AcDbMText
 10
52.00000000000364
 20
292.1000003814661
 30
0.0000000000000000
 40
3.100000381469727
 41
0.0000000000000000
 44
0.6719999870792528
 71
     1
 72
     1
  1
{\H0.81x;1}
 11
1.000000000000000
 21
0.0000000000000000
 31
0.0000000000000000
  7
STANDARD
  0
MTEXT
  5
303
100
AcDbEntity
  8
WAKU0
  6
BYBLOCK
 62
0
370
    -2
100
AcDbMText
 10
112.0000000000036
 20
292.1000003814661
 30
0.0000000000000000
 40
3.100000381469727
 41
0.0000000000000000
 44
0.6719999870792528
 71
     1
 72
     1
  1
{\H0.81x;2}
 11
1.000000000000000
 21
0.0000000000000000
 31
0.0000000000000000
  7
STANDARD
  0
MTEXT
  5
304
100
AcDbEntity
  8
WAKU0
  6
BYBLOCK
 62
0
370
    -2
100
AcDbMText
 10
177.0000000000002
 20
292.1000003814661
 30
0.0000000000000000
 40
3.100000381469727
 41
0.0000000000000000
 44
0.6719999870792528
 71
     1
 72
     1
  1
{\H0.81x;3}
 11
1.000000000000000
 21
0.0000000000000000
 31
0.0000000000000000
  7
STANDARD
  0
MTEXT
  5
305
100
AcDbEntity
  8
WAKU0
  6
BYBLOCK
 62
0
370
    -2
100
AcDbMText
 10
242.0000000000002
 20
292.1000003814661
 30
0.0000000000000000
 40
3.100000381469727
 41
0.0000000000000000
 44
0.6719999870792528
 71
     1
 72
     1
  1
{\H0.81x;4}
 11
1.000000000000000
 21
0.0000000000000000
 31
0.0000000000000000
  7
STANDARD
  0
MTEXT
  5
306
100
AcDbEntity
  8
WAKU0
  6
BYBLOCK
 62
0
370
    -2
100
AcDbMText
 10
307.0000000000002
 20
292.1000003814661
 30
0.0000000000000000
 40
3.100000381469727
 41
0.0000000000000000
 44
0.6719999870792528
 71
     1
 72
     1
  1
{\H0.81x;5}
 11
1.000000000000000
 21
0.0000000000000000
 31
0.0000000000000000
  7
STANDARD
  0
MTEXT
  5
307
100
AcDbEntity
  8
WAKU0
  6
BYBLOCK
 62
0
370
    -2
100
AcDbMText
 10
377.0000000000001
 20
292.1000003814661
 30
0.0000000000000000
 40
3.100000381469727
 41
0.0000000000000000
 44
0.6719999870792528
 71
     1
 72
     1
  1
{\H0.81x;6}
 11
1.000000000000000
 21
0.0000000000000000
 31
0.0000000000000000
  7
STANDARD
  0
MTEXT
  5
308
100
AcDbEntity
  8
WAKU0
  6
BYBLOCK
 62
0
370
    -2
100
AcDbMText
 10
52.00000000000364
 20
11.10000038146984
 30
0.0000000000000000
 40
3.100000381469727
 41
0.0000000000000000
 44
0.6719999870792528
 71
     1
 72
     1
  1
{\H0.81x;1}
 11
1.000000000000000
 21
0.0000000000000000
 31
0.0000000000000000
  7
STANDARD
  0
MTEXT
  5
309
100
AcDbEntity
  8
WAKU0
  6
BYBLOCK
 62
0
370
    -2
100
AcDbMText
 10
112.0000000000036
 20
11.10000038146984
 30
0.0000000000000000
 40
3.100000381469727
 41
0.0000000000000000
 44
0.6719999870792528
 71
     1
 72
     1
  1
{\H0.81x;2}
 11
1.000000000000000
 21
0.0000000000000000
 31
0.0000000000000000
  7
STANDARD
  0
MTEXT
  5
30A
100
AcDbEntity
  8
WAKU0
  6
BYBLOCK
 62
0
370
    -2
100
AcDbMText
 10
307.0000000000001
 20
11.10000038146984
 30
0.0000000000000000
 40
3.100000381469727
 41
0.0000000000000000
 44
0.6719999870792528
 71
     1
 72
     1
  1
{\H0.81x;5}
 11
1.000000000000000
 21
0.0000000000000000
 31
0.0000000000000000
  7
STANDARD
  0
MTEXT
  5
30B
100
AcDbEntity
  8
WAKU0
  6
BYBLOCK
 62
0
370
    -2
100
AcDbMText
 10
377.0000000000001
 20
11.10000038146984
 30
0.0000000000000000
 40
3.100000381469727
 41
0.0000000000000000
 44
0.6719999870792528
 71
     1
 72
     1
  1
{\H0.81x;6}
 11
1.000000000000000
 21
0.0000000000000000
 31
0.0000000000000000
  7
STANDARD
  0
MTEXT
  5
30C
100
AcDbEntity
  8
WAKU0
  6
BYBLOCK
 62
0
370
    -2
100
AcDbMText
 10
17.00000000000364
 20
255.1000003814696
 30
0.0000000000000000
 40
3.100000381469727
 41
0.0000000000000000
 44
0.6719999870792528
 71
     1
 72
     1
  1
{\H0.81x;A}
 11
1.000000000000000
 21
0.0000000000000000
 31
0.0000000000000000
  7
STANDARD
  0
MTEXT
  5
30D
100
AcDbEntity
  8
WAKU0
  6
BYBLOCK
 62
0
370
    -2
100
AcDbMText
 10
17.00000000000364
 20
187.1000003814696
 30
0.0000000000000000
 40
3.100000381469727
 41
0.0000000000000000
 44
0.6719999870792528
 71
     1
 72
     1
  1
{\H0.81x;B}
 11
1.000000000000000
 21
0.0000000000000000
 31
0.0000000000000000
  7
STANDARD
  0
MTEXT
  5
30E
100
AcDbEntity
  8
WAKU0
  6
BYBLOCK
 62
0
370
    -2
100
AcDbMText
 10
17.00000000000364
 20
117.1000003814696
 30
0.0000000000000000
 40
3.100000381469727
 41
0.0000000000000000
 44
0.6719999870792528
 71
     1
 72
     1
  1
{\H0.81x;C}
 11
1.000000000000000
 21
0.0000000000000000
 31
0.0000000000000000
  7
STANDARD
  0
MTEXT
  5
30F
100
AcDbEntity
  8
WAKU0
  6
BYBLOCK
 62
0
370
    -2
100
AcDbMText
 10
17.00000000000364
 20
49.10000038146950
 30
0.0000000000000000
 40
3.100000381469727
 41
0.0000000000000000
 44
0.6719999870792528
 71
     1
 72
     1
  1
{\H0.81x;D}
 11
1.000000000000000
 21
0.0000000000000000
 31
0.0000000000000000
  7
STANDARD
  0
MTEXT
  5
310
100
AcDbEntity
  8
WAKU0
  6
BYBLOCK
 62
0
370
    -2
100
AcDbMText
 10
412.0000000000000
 20
255.1000003814694
 30
0.0000000000000000
 40
3.100000381469727
 41
0.0000000000000000
 44
0.6719999870792528
 71
     1
 72
     1
  1
{\H0.81x;A}
 11
1.000000000000000
 21
0.0000000000000000
 31
0.0000000000000000
  7
STANDARD
  0
MTEXT
  5
311
100
AcDbEntity
  8
WAKU0
  6
BYBLOCK
 62
0
370
    -2
100
AcDbMText
 10
412.0000000000000
 20
187.1000003814694
 30
0.0000000000000000
 40
3.100000381469727
 41
0.0000000000000000
 44
0.6719999870792528
 71
     1
 72
     1
  1
{\H0.81x;B}
 11
1.000000000000000
 21
0.0000000000000000
 31
0.0000000000000000
  7
STANDARD
  0
MTEXT
  5
312
100
AcDbEntity
  8
WAKU0
  6
BYBLOCK
 62
0
370
    -2
100
AcDbMText
 10
412.0000000000000
 20
117.1000003814694
 30
0.0000000000000000
 40
3.100000381469727
 41
0.0000000000000000
 44
0.6719999870792528
 71
     1
 72
     1
  1
{\H0.81x;C}
 11
1.000000000000000
 21
0.0000000000000000
 31
0.0000000000000000
  7
STANDARD
  0
MTEXT
  5
313
100
AcDbEntity
  8
WAKU0
  6
BYBLOCK
 62
0
370
    -2
100
AcDbMText
 10
412.0000000000000
 20
49.10000038146939
 30
0.0000000000000000
 40
3.100000381469727
 41
0.0000000000000000
 44
0.6719999870792528
 71
     1
 72
     1
  1
{\H0.81x;D}
 11
1.000000000000000
 21
0.0000000000000000
 31
0.0000000000000000
  7
STANDARD
  0
ENDBLK
  5
314
100
AcDbEntity
  8
WAKU0
  6
BYBLOCK
 62
2
100
AcDbBlockEnd
  0
BLOCK
  5
316
100
AcDbEntity
  8
WAKU0
  6
BYBLOCK
 62
12
100
AcDbBlockBegin
  2
M3
 70
    64
 10
0.0
 20
0.0
 30
0.0
  0
LINE
  5
317
100
AcDbEntity
  8
WAKU0
  6
BYBLOCK
 62
0
370
    -2
100
AcDbLine
 10
48.00000000000011
 20
12.00000000000004
 30
0.0000000000000000
 11
48.00000000000011
 21
46.99999999999987
 31
0.0000000000000000
  0
LINE
  5
318
100
AcDbEntity
  8
WAKU0
  6
BYBLOCK
 62
0
370
    -2
100
AcDbLine
 10
58.00000000000011
 20
12.00000000000004
 30
0.0000000000000000
 11
58.00000000000011
 21
46.99999999999987
 31
0.0000000000000000
  0
LINE
  5
319
100
AcDbEntity
  8
WAKU0
  6
BYBLOCK
 62
0
370
    -2
100
AcDbLine
 10
20.00000000000068
 20
35.99999999999645
 30
0.0000000000000000
 11
68.00000000000011
 21
35.99999999999639
 31
0.0000000000000000
  0
LINE
  5
31A
100
AcDbEntity
  8
WAKU0
  6
BYBLOCK
 62
0
370
    -2
100
AcDbLine
 10
20.00000000000011
 20
28.00000000000003
 30
0.0000000000000000
 11
68.00000000000011
 21
28.00000000000003
 31
0.0000000000000000
  0
LINE
  5
31B
100
AcDbEntity
  8
WAKU0
  6
BYBLOCK
 62
0
370
    -2
100
AcDbLine
 10
20.00000000000011
 20
32.00000000000003
 30
0.0000000000000000
 11
68.00000000000011
 21
32.00000000000003
 31
0.0000000000000000
  0
LINE
  5
31C
100
AcDbEntity
  8
WAKU0
  6
BYBLOCK
 62
0
370
    -2
100
AcDbLine
 10
20.00000000000011
 20
24.00000000000004
 30
0.0000000000000000
 11
68.00000000000011
 21
24.00000000000004
 31
0.0000000000000000
  0
LINE
  5
31D
100
AcDbEntity
  8
WAKU0
  6
BYBLOCK
 62
0
370
    -2
100
AcDbLine
 10
20.00000000000011
 20
20.00000000000004
 30
0.0000000000000000
 11
68.00000000000011
 21
20.00000000000004
 31
0.0000000000000000
  0
LINE
  5
31E
100
AcDbEntity
  8
WAKU0
  6
BYBLOCK
 62
0
370
    -2
100
AcDbLine
 10
20.00000000000011
 20
16.00000000000003
 30
0.0000000000000000
 11
68.00000000000011
 21
16.00000000000003
 31
0.0000000000000000
  0
LINE
  5
31F
100
AcDbEntity
  8
WAKU0
  6
BYBLOCK
 62
0
370
    -2
100
AcDbLine
 10
20.00000000000011
 20
46.99999999999645
 30
0.0000000000000000
 11
68.00000000000011
 21
46.99999999999639
 31
0.0000000000000000
  0
LINE
  5
320
100
AcDbEntity
  8
WAKU0
  6
BYBLOCK
 62
0
370
    -2
100
AcDbLine
 10
20.00000000000000
 20
12.00000000000000
 30
0.0000000000000000
 11
68.00000000000000
 21
11.99999999999994
 31
0.0000000000000000
  0
LINE
  5
321
100
AcDbEntity
  8
WAKU0
  6
BYBLOCK
 62
0
370
    -2
100
AcDbLine
 10
20.00000000000011
 20
39.99999999999645
 30
0.0000000000000000
 11
68.00000000000011
 21
39.99999999999639
 31
0.0000000000000000
  0
LINE
  5
322
100
AcDbEntity
  8
WAKU0
  6
BYBLOCK
 62
0
370
    -2
100
AcDbLine
 10
68.00000000000023
 20
51.49999999999623
 30
0.0000000000000000
 11
68.00000000000023
 21
12.00000000000004
 31
0.0000000000000000
  0
LINE
  5
323
100
AcDbEntity
  8
WAKU0
  6
BYBLOCK
 62
0
370
    -2
100
AcDbLine
 10
38.00000000000011
 20
12.00000000000004
 30
0.0000000000000000
 11
38.00000000000011
 21
46.99999999999987
 31
0.0000000000000000
  0
MTEXT
  5
324
100
AcDbEntity
  8
WAKU0
  6
BYBLOCK
 62
0
370
    -2
100
AcDbMText
 10
21.00000000000012
 20
50.60000019073401
 30
0.0000000000000000
 40
2.800000190734863
 41
0.0000000000000000
 44
0.6719999877384739
 71
     1
 72
     1
  1
{\H0.94x;図面に記入のない寸法の一般公差}
 11
1.000000000000000
 21
0.0000000000000000
 31
0.0000000000000000
  7
KNJYOKO
  0
MTEXT
  5
325
100
AcDbEntity
  8
WAKU0
  6
BYBLOCK
 62
0
370
    -2
100
AcDbMText
 10
20.75637692307277
 20
44.73045080765574
 30
0.0000000000000000
 40
2.399999618530273
 41
0.0000000000000000
 44
0.6719999785423244
 71
     1
 72
     1
  1
{\H0.81x;寸法区分　ｍｍ}
 11
1.000000000000000
 21
0.0000000000000000
 31
0.0000000000000000
  7
KNJYOKO
  0
MTEXT
  5
326
100
AcDbEntity
  8
WAKU0
  6
BYBLOCK
 62
0
370
    -2
100
AcDbMText
 10
38.50000000000012
 20
45.89999961852651
 30
0.0000000000000000
 40
2.399999618530273
 41
0.0000000000000000
 44
0.6719999785423244
 71
     1
 72
     1
  1
{\H0.79x;切削加工}
 11
1.000000000000000
 21
0.0000000000000000
 31
0.0000000000000000
  7
KNJYOKO
  0
MTEXT
  5
327
100
AcDbEntity
  8
WAKU0
  6
BYBLOCK
 62
0
370
    -2
100
AcDbMText
 10
38.13952891354615
 20
43.10717836860918
 30
0.0000000000000000
 40
2.399999618530273
 41
0.0000000000000000
 44
0.6719999785423244
 71
     1
 72
     1
  1
{\H0.79x;穴明中心}
 11
1.000000000000000
 21
0.0000000000000000
 31
0.0000000000000000
  7
KNJYOKO
  0
MTEXT
  5
328
100
AcDbEntity
  8
WAKU0
  6
BYBLOCK
 62
0
370
    -2
100
AcDbMText
 10
48.50000000000012
 20
45.89999961852651
 30
0.0000000000000000
 40
2.399999618530273
 41
0.0000000000000000
 44
0.6719999785423244
 71
     1
 72
     1
  1
{\H0.79x;板金加工}
 11
1.000000000000000
 21
0.0000000000000000
 31
0.0000000000000000
  7
KNJYOKO
  0
MTEXT
  5
329
100
AcDbEntity
  8
WAKU0
  6
BYBLOCK
 62
0
370
    -2
100
AcDbMText
 10
48.45325193492426
 20
43.07314937144825
 30
0.0000000000000000
 40
2.399999618530273
 41
0.0000000000000000
 44
0.6719999785423244
 71
     1
 72
     1
  1
{\H0.79x;製缶加工}
 11
1.000000000000000
 21
0.0000000000000000
 31
0.0000000000000000
  7
KNJYOKO
  0
MTEXT
  5
32A
100
AcDbEntity
  8
WAKU0
  6
BYBLOCK
 62
0
370
    -2
100
AcDbMText
 10
59.00000000000012
 20
45.89999961852651
 30
0.0000000000000000
 40
2.399999618530273
 41
0.0000000000000000
 44
0.6719999785423244
 71
     1
 72
     1
  1
{\H0.78x;鋳鉄鋼}
 11
1.000000000000000
 21
0.0000000000000000
 31
0.0000000000000000
  7
KNJYOKO
  0
MTEXT
  5
32B
100
AcDbEntity
  8
WAKU0
  6
BYBLOCK
 62
0
370
    -2
100
AcDbMText
 10
58.96061689485686
 20
43.37948316114112
 30
0.0000000000000000
 40
2.399999618530273
 41
0.0000000000000000
 44
0.6719999785423244
 71
     1
 72
     1
  1
{\H0.78x;鍛造品}
 11
1.000000000000000
 21
0.0000000000000000
 31
0.0000000000000000
  7
KNJYOKO
  0
MTEXT
  5
32C
100
AcDbEntity
  8
WAKU0
  6
BYBLOCK
 62
0
370
    -2
100
AcDbMText
 10
21.00000000000006
 20
38.49999999999987
 30
0.0000000000000000
 40
2.000000000000000
 41
0.0000000000000000
 44
0.6720000028610229
 71
     1
 72
     1
  1
{\H0.93x;１以上　４以下}
 11
1.000000000000000
 21
0.0000000000000000
 31
0.0000000000000000
  7
KNJYOKO
  0
MTEXT
  5
32D
100
AcDbEntity
  8
WAKU0
  6
BYBLOCK
 62
0
370
    -2
100
AcDbMText
 10
21.00000000000006
 20
34.49999999999987
 30
0.0000000000000000
 40
2.000000000000000
 41
0.0000000000000000
 44
0.6720000028610229
 71
     1
 72
     1
  1
{\H0.93x;４を越え１６〃}
 11
1.000000000000000
 21
0.0000000000000000
 31
0.0000000000000000
  7
KNJYOKO
  0
MTEXT
  5
32E
100
AcDbEntity
  8
WAKU0
  6
BYBLOCK
 62
0
370
    -2
100
AcDbMText
 10
20.50000000000006
 20
22.50000000000001
 30
0.0000000000000000
 40
2.000000000000000
 41
0.0000000000000000
 44
0.6720000028610229
 71
     1
 72
     1
  1
{\H0.53x;２５０　 〃 １０００ 〃　}
 11
1.000000000000000
 21
0.0000000000000000
 31
0.0000000000000000
  7
KNJYOKO
  0
MTEXT
  5
32F
100
AcDbEntity
  8
WAKU0
  6
BYBLOCK
 62
0
370
    -2
100
AcDbMText
 10
20.50000000000006
 20
18.50000000000001
 30
0.0000000000000000
 40
2.000000000000000
 41
0.0000000000000000
 44
0.6720000028610229
 71
     1
 72
     1
  1
{\H0.53x;１０００ 〃 ２０００ 〃　}
 11
1.000000000000000
 21
0.0000000000000000
 31
0.0000000000000000
  7
KNJYOKO
  0
MTEXT
  5
330
100
AcDbEntity
  8
WAKU0
  6
BYBLOCK
 62
0
370
    -2
100
AcDbMText
 10
20.50000000000006
 20
14.50000000000001
 30
0.0000000000000000
 40
2.000000000000000
 41
0.0000000000000000
 44
0.6720000028610229
 71
     1
 72
     1
  1
{\H0.53x;２０００ 〃 ５０００ 〃}
 11
1.000000000000000
 21
0.0000000000000000
 31
0.0000000000000000
  7
KNJYOKO
  0
MTEXT
  5
331
100
AcDbEntity
  8
WAKU0
  6
BYBLOCK
 62
0
370
    -2
100
AcDbMText
 10
20.50000000000006
 20
30.50000000000001
 30
0.0000000000000000
 40
2.000000000000000
 41
0.0000000000000000
 44
0.6720000028610229
 71
     1
 72
     1
  1
{\H0.53x;１６　　 〃 　　６３ 〃}
 11
1.000000000000000
 21
0.0000000000000000
 31
0.0000000000000000
  7
KNJYOKO
  0
MTEXT
  5
332
100
AcDbEntity
  8
WAKU0
  6
BYBLOCK
 62
0
370
    -2
100
AcDbMText
 10
20.50000000000006
 20
26.50000000000001
 30
0.0000000000000000
 40
2.000000000000000
 41
0.0000000000000000
 44
0.6720000028610229
 71
     1
 72
     1
  1
{\H0.53x;６３　　 〃 　２５０ 〃}
 11
1.000000000000000
 21
0.0000000000000000
 31
0.0000000000000000
  7
KNJYOKO
  0
MTEXT
  5
333
100
AcDbEntity
  8
WAKU0
  6
BYBLOCK
 62
0
370
    -2
100
AcDbMText
 10
39.30499982833874
 20
38.99999999999642
 30
0.0000000000000000
 40
2.000000000000000
 41
0.0000000000000000
 44
0.6720000028610229
 71
     1
 72
     1
  1
{\H0.91x;\U+00B10.1}
 11
1.000000000000000
 21
0.0000000000000000
 31
0.0000000000000000
  7
STANDARD
  0
MTEXT
  5
334
100
AcDbEntity
  8
WAKU0
  6
BYBLOCK
 62
0
370
    -2
100
AcDbMText
 10
39.30499982833874
 20
34.99999999999642
 30
0.0000000000000000
 40
2.000000000000000
 41
0.0000000000000000
 44
0.6720000028610229
 71
     1
 72
     1
  1
{\H0.91x;\U+00B10.2}
 11
1.000000000000000
 21
0.0000000000000000
 31
0.0000000000000000
  7
STANDARD
  0
MTEXT
  5
335
100
AcDbEntity
  8
WAKU0
  6
BYBLOCK
 62
0
370
    -2
100
AcDbMText
 10
39.30499982833874
 20
30.99999999999657
 30
0.0000000000000000
 40
2.000000000000000
 41
0.0000000000000000
 44
0.6720000028610229
 71
     1
 72
     1
  1
{\H0.91x;\U+00B10.3}
 11
1.000000000000000
 21
0.0000000000000000
 31
0.0000000000000000
  7
STANDARD
  0
MTEXT
  5
336
100
AcDbEntity
  8
WAKU0
  6
BYBLOCK
 62
0
370
    -2
100
AcDbMText
 10
39.30499982833874
 20
26.99999999999657
 30
0.0000000000000000
 40
2.000000000000000
 41
0.0000000000000000
 44
0.6720000028610229
 71
     1
 72
     1
  1
{\H0.91x;\U+00B10.5}
 11
1.000000000000000
 21
0.0000000000000000
 31
0.0000000000000000
  7
STANDARD
  0
MTEXT
  5
337
100
AcDbEntity
  8
WAKU0
  6
BYBLOCK
 62
0
370
    -2
100
AcDbMText
 10
39.30499982833874
 20
22.99999999999657
 30
0.0000000000000000
 40
2.000000000000000
 41
0.0000000000000000
 44
0.6720000028610229
 71
     1
 72
     1
  1
{\H0.91x;\U+00B10.8}
 11
1.000000000000000
 21
0.0000000000000000
 31
0.0000000000000000
  7
STANDARD
  0
MTEXT
  5
338
100
AcDbEntity
  8
WAKU0
  6
BYBLOCK
 62
0
370
    -2
100
AcDbMText
 10
39.30499982833874
 20
18.99999999999659
 30
0.0000000000000000
 40
2.000000000000000
 41
0.0000000000000000
 44
0.6720000028610229
 71
     1
 72
     1
  1
{\H0.91x;\U+00B11.0}
 11
1.000000000000000
 21
0.0000000000000000
 31
0.0000000000000000
  7
STANDARD
  0
MTEXT
  5
339
100
AcDbEntity
  8
WAKU0
  6
BYBLOCK
 62
0
370
    -2
100
AcDbMText
 10
39.30499982833874
 20
14.99999999999659
 30
0.0000000000000000
 40
2.000000000000000
 41
0.0000000000000000
 44
0.6720000028610229
 71
     1
 72
     1
  1
{\H0.91x;\U+00B11.5}
 11
1.000000000000000
 21
0.0000000000000000
 31
0.0000000000000000
  7
STANDARD
  0
MTEXT
  5
33A
100
AcDbEntity
  8
WAKU0
  6
BYBLOCK
 62
0
370
    -2
100
AcDbMText
 10
49.30499982833874
 20
38.99999999999642
 30
0.0000000000000000
 40
2.000000000000000
 41
0.0000000000000000
 44
0.6720000028610229
 71
     1
 72
     1
  1
{\H0.91x;\U+00B10.3}
 11
1.000000000000000
 21
0.0000000000000000
 31
0.0000000000000000
  7
STANDARD
  0
MTEXT
  5
33B
100
AcDbEntity
  8
WAKU0
  6
BYBLOCK
 62
0
370
    -2
100
AcDbMText
 10
49.30499982833874
 20
34.99999999999642
 30
0.0000000000000000
 40
2.000000000000000
 41
0.0000000000000000
 44
0.6720000028610229
 71
     1
 72
     1
  1
{\H0.91x;\U+00B10.5}
 11
1.000000000000000
 21
0.0000000000000000
 31
0.0000000000000000
  7
STANDARD
  0
MTEXT
  5
33C
100
AcDbEntity
  8
WAKU0
  6
BYBLOCK
 62
0
370
    -2
100
AcDbMText
 10
49.30499982833874
 20
30.99999999999657
 30
0.0000000000000000
 40
2.000000000000000
 41
0.0000000000000000
 44
0.6720000028610229
 71
     1
 72
     1
  1
{\H0.91x;\U+00B10.7}
 11
1.000000000000000
 21
0.0000000000000000
 31
0.0000000000000000
  7
STANDARD
  0
MTEXT
  5
33D
100
AcDbEntity
  8
WAKU0
  6
BYBLOCK
 62
0
370
    -2
100
AcDbMText
 10
49.30499982833874
 20
26.99999999999657
 30
0.0000000000000000
 40
2.000000000000000
 41
0.0000000000000000
 44
0.6720000028610229
 71
     1
 72
     1
  1
{\H0.91x;\U+00B11.2}
 11
1.000000000000000
 21
0.0000000000000000
 31
0.0000000000000000
  7
STANDARD
  0
MTEXT
  5
33E
100
AcDbEntity
  8
WAKU0
  6
BYBLOCK
 62
0
370
    -2
100
AcDbMText
 10
49.30499982833874
 20
22.99999999999657
 30
0.0000000000000000
 40
2.000000000000000
 41
0.0000000000000000
 44
0.6720000028610229
 71
     1
 72
     1
  1
{\H0.91x;\U+00B12.0}
 11
1.000000000000000
 21
0.0000000000000000
 31
0.0000000000000000
  7
STANDARD
  0
MTEXT
  5
33F
100
AcDbEntity
  8
WAKU0
  6
BYBLOCK
 62
0
370
    -2
100
AcDbMText
 10
49.30499982833874
 20
18.99999999999657
 30
0.0000000000000000
 40
2.000000000000000
 41
0.0000000000000000
 44
0.6720000028610229
 71
     1
 72
     1
  1
{\H0.91x;\U+00B12.5}
 11
1.000000000000000
 21
0.0000000000000000
 31
0.0000000000000000
  7
STANDARD
  0
MTEXT
  5
340
100
AcDbEntity
  8
WAKU0
  6
BYBLOCK
 62
0
370
    -2
100
AcDbMText
 10
49.30499982833874
 20
14.99999999999657
 30
0.0000000000000000
 40
2.000000000000000
 41
0.0000000000000000
 44
0.6720000028610229
 71
     1
 72
     1
  1
{\H0.91x;\U+00B13.5}
 11
1.000000000000000
 21
0.0000000000000000
 31
0.0000000000000000
  7
STANDARD
  0
MTEXT
  5
341
100
AcDbEntity
  8
WAKU0
  6
BYBLOCK
 62
0
370
    -2
100
AcDbMText
 10
59.30499982833874
 20
38.99999999999642
 30
0.0000000000000000
 40
2.000000000000000
 41
0.0000000000000000
 44
0.6720000028610229
 71
     1
 72
     1
  1
{\H0.91x;\U+00B10.5}
 11
1.000000000000000
 21
0.0000000000000000
 31
0.0000000000000000
  7
STANDARD
  0
MTEXT
  5
342
100
AcDbEntity
  8
WAKU0
  6
BYBLOCK
 62
0
370
    -2
100
AcDbMText
 10
59.30499982833874
 20
34.99999999999642
 30
0.0000000000000000
 40
2.000000000000000
 41
0.0000000000000000
 44
0.6720000028610229
 71
     1
 72
     1
  1
{\H0.91x;\U+00B10.7}
 11
1.000000000000000
 21
0.0000000000000000
 31
0.0000000000000000
  7
STANDARD
  0
MTEXT
  5
343
100
AcDbEntity
  8
WAKU0
  6
BYBLOCK
 62
0
370
    -2
100
AcDbMText
 10
59.30499982833874
 20
30.99999999999657
 30
0.0000000000000000
 40
2.000000000000000
 41
0.0000000000000000
 44
0.6720000028610229
 71
     1
 72
     1
  1
{\H0.91x;\U+00B10.9}
 11
1.000000000000000
 21
0.0000000000000000
 31
0.0000000000000000
  7
STANDARD
  0
MTEXT
  5
344
100
AcDbEntity
  8
WAKU0
  6
BYBLOCK
 62
0
370
    -2
100
AcDbMText
 10
59.30499982833874
 20
26.99999999999657
 30
0.0000000000000000
 40
2.000000000000000
 41
0.0000000000000000
 44
0.6720000028610229
 71
     1
 72
     1
  1
{\H0.91x;\U+00B11.5}
 11
1.000000000000000
 21
0.0000000000000000
 31
0.0000000000000000
  7
STANDARD
  0
MTEXT
  5
345
100
AcDbEntity
  8
WAKU0
  6
BYBLOCK
 62
0
370
    -2
100
AcDbMText
 10
59.30499982833874
 20
22.99999999999657
 30
0.0000000000000000
 40
2.000000000000000
 41
0.0000000000000000
 44
0.6720000028610229
 71
     1
 72
     1
  1
{\H0.91x;\U+00B12.5}
 11
1.000000000000000
 21
0.0000000000000000
 31
0.0000000000000000
  7
STANDARD
  0
MTEXT
  5
346
100
AcDbEntity
  8
WAKU0
  6
BYBLOCK
 62
0
370
    -2
100
AcDbMText
 10
59.30499982833874
 20
18.99999999999657
 30
0.0000000000000000
 40
2.000000000000000
 41
0.0000000000000000
 44
0.6720000028610229
 71
     1
 72
     1
  1
{\H0.91x;\U+00B13.5}
 11
1.000000000000000
 21
0.0000000000000000
 31
0.0000000000000000
  7
STANDARD
  0
MTEXT
  5
347
100
AcDbEntity
  8
WAKU0
  6
BYBLOCK
 62
0
370
    -2
100
AcDbMText
 10
59.30499982833874
 20
14.99999999999657
 30
0.0000000000000000
 40
2.000000000000000
 41
0.0000000000000000
 44
0.6720000028610229
 71
     1
 72
     1
  1
{\H0.91x;\U+00B15.0}
 11
1.000000000000000
 21
0.0000000000000000
 31
0.0000000000000000
  7
STANDARD
  0
LINE
  5
348
100
AcDbEntity
  8
WAKU0
  6
BYBLOCK
 62
0
370
    -2
100
AcDbLine
 10
68.00000000000023
 20
51.49999999999629
 30
0.0000000000000000
 11
20.00000000000000
 21
51.49999999999629
 31
0.0000000000000000
  0
LINE
  5
349
100
AcDbEntity
  8
WAKU0
  6
BYBLOCK
 62
0
370
    -2
100
AcDbLine
 10
20.00000000000000
 20
11.99999999999999
 30
0.0000000000000000
 11
20.00000000000000
 21
51.49999999999629
 31
0.0000000000000000
  0
ENDBLK
  5
34A
100
AcDbEntity
  8
WAKU0
  6
BYBLOCK
 62
12
100
AcDbBlockEnd
  0
BLOCK
  5
34C
100
AcDbEntity
  8
WAKU0
  6
BYBLOCK
 62
12
100
AcDbBlockBegin
  2
M4
 70
    64
 10
0.0
 20
0.0
 30
0.0
  0
LINE
  5
34D
100
AcDbEntity
  8
WAKU0
  6
BYBLOCK
 62
0
370
    -2
100
AcDbLine
 10
77.50000000000011
 20
12.00000000000006
 30
0.0000000000000000
 11
77.50000000000011
 21
46.99999999999989
 31
0.0000000000000000
  0
LINE
  5
34E
100
AcDbEntity
  8
WAKU0
  6
BYBLOCK
 62
0
370
    -2
100
AcDbLine
 10
87.00000000000011
 20
32.99999999999989
 30
0.0000000000000000
 11
68.00000000000011
 21
32.99999999999989
 31
0.0000000000000000
  0
LINE
  5
34F
100
AcDbEntity
  8
WAKU0
  6
BYBLOCK
 62
0
370
    -2
100
AcDbLine
 10
87.00000000000011
 20
26.00000000000000
 30
0.0000000000000000
 11
68.00000000000011
 21
26.00000000000000
 31
0.0000000000000000
  0
LINE
  5
350
100
AcDbEntity
  8
WAKU0
  6
BYBLOCK
 62
0
370
    -2
100
AcDbLine
 10
87.00000000000011
 20
19.00000000000000
 30
0.0000000000000000
 11
68.00000000000011
 21
19.00000000000000
 31
0.0000000000000000
  0
LINE
  5
351
100
AcDbEntity
  8
WAKU0
  6
BYBLOCK
 62
0
370
    -2
100
AcDbLine
 10
69.75000000000000
 20
35.26794919243083
 30
0.0000000000000000
 11
70.75000000000006
 21
36.99999999999989
 31
0.0000000000000000
  0
LINE
  5
352
100
AcDbEntity
  8
WAKU0
  6
BYBLOCK
 62
0
370
    -2
100
AcDbLine
 10
68.75000000000148
 20
36.99999999999668
 30
0.0000000000000000
 11
69.75000000000154
 21
35.26794919242778
 31
0.0000000000000000
  0
LINE
  5
353
100
AcDbEntity
  8
WAKU0
  6
BYBLOCK
 62
0
370
    -2
100
AcDbLine
 10
71.75000000000000
 20
35.26794919243085
 30
0.0000000000000000
 11
72.75000000000011
 21
36.99999999999993
 31
0.0000000000000000
  0
LINE
  5
354
100
AcDbEntity
  8
WAKU0
  6
BYBLOCK
 62
0
370
    -2
100
AcDbLine
 10
70.75000000000154
 20
36.99999999999668
 30
0.0000000000000000
 11
71.75000000000154
 21
35.26794919242781
 31
0.0000000000000000
  0
LINE
  5
355
100
AcDbEntity
  8
WAKU0
  6
BYBLOCK
 62
0
370
    -2
100
AcDbLine
 10
73.74999999999994
 20
35.26794919243088
 30
0.0000000000000000
 11
74.75000000000006
 21
36.99999999999996
 31
0.0000000000000000
  0
LINE
  5
356
100
AcDbEntity
  8
WAKU0
  6
BYBLOCK
 62
0
370
    -2
100
AcDbLine
 10
72.75000000000171
 20
36.99999999999679
 30
0.0000000000000000
 11
73.75000000000171
 21
35.26794919242792
 31
0.0000000000000000
  0
LINE
  5
357
100
AcDbEntity
  8
WAKU0
  6
BYBLOCK
 62
0
370
    -2
100
AcDbLine
 10
75.74999999999994
 20
35.26794919243086
 30
0.0000000000000000
 11
76.75000000000000
 21
36.99999999999997
 31
0.0000000000000000
  0
LINE
  5
358
100
AcDbEntity
  8
WAKU0
  6
BYBLOCK
 62
0
370
    -2
100
AcDbLine
 10
74.75000000000171
 20
36.99999999999679
 30
0.0000000000000000
 11
75.75000000000171
 21
35.26794919242792
 31
0.0000000000000000
  0
LINE
  5
359
100
AcDbEntity
  8
WAKU0
  6
BYBLOCK
 62
0
370
    -2
100
AcDbLine
 10
70.75000000000000
 20
28.26794919243085
 30
0.0000000000000000
 11
71.75000000000006
 21
29.99999999999992
 31
0.0000000000000000
  0
LINE
  5
35A
100
AcDbEntity
  8
WAKU0
  6
BYBLOCK
 62
0
370
    -2
100
AcDbLine
 10
69.75000000000136
 20
29.99999999999736
 30
0.0000000000000000
 11
70.75000000000136
 21
28.26794919242849
 31
0.0000000000000000
  0
LINE
  5
35B
100
AcDbEntity
  8
WAKU0
  6
BYBLOCK
 62
0
370
    -2
100
AcDbLine
 10
72.74999999999989
 20
28.26794919243088
 30
0.0000000000000000
 11
73.75000000000000
 21
29.99999999999995
 31
0.0000000000000000
  0
LINE
  5
35C
100
AcDbEntity
  8
WAKU0
  6
BYBLOCK
 62
0
370
    -2
100
AcDbLine
 10
71.75000000000142
 20
29.99999999999739
 30
0.0000000000000000
 11
72.75000000000142
 21
28.26794919242849
 31
0.0000000000000000
  0
LINE
  5
35D
100
AcDbEntity
  8
WAKU0
  6
BYBLOCK
 62
0
370
    -2
100
AcDbLine
 10
74.74999999999989
 20
28.26794919243088
 30
0.0000000000000000
 11
75.75000000000000
 21
29.99999999999995
 31
0.0000000000000000
  0
LINE
  5
35E
100
AcDbEntity
  8
WAKU0
  6
BYBLOCK
 62
0
370
    -2
100
AcDbLine
 10
73.75000000000125
 20
29.99999999999733
 30
0.0000000000000000
 11
74.75000000000131
 21
28.26794919242846
 31
0.0000000000000000
  0
LINE
  5
35F
100
AcDbEntity
  8
WAKU0
  6
BYBLOCK
 62
0
370
    -2
100
AcDbLine
 10
71.74999999999994
 20
21.26794919243085
 30
0.0000000000000000
 11
72.75000000000000
 21
22.99999999999994
 31
0.0000000000000000
  0
LINE
  5
360
100
AcDbEntity
  8
WAKU0
  6
BYBLOCK
 62
0
370
    -2
100
AcDbLine
 10
70.75000000000102
 20
22.99999999999795
 30
0.0000000000000000
 11
71.75000000000102
 21
21.26794919242909
 31
0.0000000000000000
  0
LINE
  5
361
100
AcDbEntity
  8
WAKU0
  6
BYBLOCK
 62
0
370
    -2
100
AcDbLine
 10
73.75000000000006
 20
21.26794919243091
 30
0.0000000000000000
 11
74.75000000000011
 21
22.99999999999994
 31
0.0000000000000000
  0
LINE
  5
362
100
AcDbEntity
  8
WAKU0
  6
BYBLOCK
 62
0
370
    -2
100
AcDbLine
 10
72.75000000000102
 20
22.99999999999798
 30
0.0000000000000000
 11
73.75000000000102
 21
21.26794919242909
 31
0.0000000000000000
  0
LINE
  5
363
100
AcDbEntity
  8
WAKU0
  6
BYBLOCK
 62
0
370
    -2
100
AcDbLine
 10
71.75000000000000
 20
16.00000000000000
 30
0.0000000000000000
 11
73.75000000000017
 21
16.00000000000000
 31
0.0000000000000000
  0
LINE
  5
364
100
AcDbEntity
  8
WAKU0
  6
BYBLOCK
 62
0
370
    -2
100
AcDbLine
 10
72.75000000000006
 20
14.26794919243091
 30
0.0000000000000000
 11
73.75000000000000
 21
15.99999999999994
 31
0.0000000000000000
  0
LINE
  5
365
100
AcDbEntity
  8
WAKU0
  6
BYBLOCK
 62
0
370
    -2
100
AcDbLine
 10
71.75000000000068
 20
15.99999999999852
 30
0.0000000000000000
 11
72.75000000000068
 21
14.26794919242963
 31
0.0000000000000000
  0
LINE
  5
366
100
AcDbEntity
  8
WAKU0
  6
BYBLOCK
 62
0
370
    -2
100
AcDbLine
 10
68.00000000000011
 20
46.99999999999989
 30
0.0000000000000000
 11
87.00000000000011
 21
46.99999999999989
 31
0.0000000000000000
  0
LINE
  5
367
100
AcDbEntity
  8
WAKU0
  6
BYBLOCK
 62
0
370
    -2
100
AcDbLine
 10
68.00000000000000
 20
12.00000000000000
 30
0.0000000000000000
 11
87.00000000000000
 21
12.00000000000000
 31
0.0000000000000000
  0
LINE
  5
368
100
AcDbEntity
  8
WAKU0
  6
BYBLOCK
 62
0
370
    -2
100
AcDbLine
 10
68.00000000000011
 20
39.99999999999989
 30
0.0000000000000000
 11
87.00000000000011
 21
39.99999999999989
 31
0.0000000000000000
  0
LINE
  5
369
100
AcDbEntity
  8
WAKU0
  6
BYBLOCK
 62
0
370
    -2
100
AcDbLine
 10
87.00000000000023
 20
51.49999999999625
 30
0.0000000000000000
 11
87.00000000000023
 21
12.00000000000006
 31
0.0000000000000000
  0
LINE
  5
36A
100
AcDbEntity
  8
WAKU0
  6
BYBLOCK
 62
0
370
    -2
100
AcDbLine
 10
68.00000000000023
 20
51.49999999999625
 30
0.0000000000000000
 11
68.00000000000023
 21
12.00000000000006
 31
0.0000000000000000
  0
LINE
  5
36B
100
AcDbEntity
  8
WAKU0
  6
BYBLOCK
 62
0
370
    -2
100
AcDbLine
 10
68.74999999999994
 20
36.99999999999896
 30
0.0000000000000000
 11
76.75000000000017
 21
36.99999999999902
 31
0.0000000000000000
  0
LINE
  5
36C
100
AcDbEntity
  8
WAKU0
  6
BYBLOCK
 62
0
370
    -2
100
AcDbLine
 10
69.75000000000000
 20
30.00000000000000
 30
0.0000000000000000
 11
75.75000000000017
 21
30.00000000000000
 31
0.0000000000000000
  0
LINE
  5
36D
100
AcDbEntity
  8
WAKU0
  6
BYBLOCK
 62
0
370
    -2
100
AcDbLine
 10
70.75000000000000
 20
23.00000000000000
 30
0.0000000000000000
 11
74.75000000000023
 21
23.00000000000000
 31
0.0000000000000000
  0
MTEXT
  5
36E
100
AcDbEntity
  8
WAKU0
  6
BYBLOCK
 62
0
370
    -2
100
AcDbMText
 10
70.26144782313764
 20
50.37664431753717
 30
0.0000000000000000
 40
2.800000190734863
 41
0.0000000000000000
 44
0.6719999877384739
 71
     1
 72
     1
  1
{\H0.92x;表面アラサ}
 11
1.000000000000000
 21
0.0000000000000000
 31
0.0000000000000000
  7
KNJYOKO
  0
MTEXT
  5
36F
100
AcDbEntity
  8
WAKU0
  6
BYBLOCK
 62
0
370
    -2
100
AcDbMText
 10
78.50000000000011
 20
44.49999999999989
 30
0.0000000000000000
 40
2.000000000000000
 41
0.0000000000000000
 44
0.6720000028610229
 71
     1
 72
     1
  1
{\H0.68x;Ｒｍａｘ}
 11
1.000000000000000
 21
0.0000000000000000
 31
0.0000000000000000
  7
KNJYOKO
  0
MTEXT
  5
370
100
AcDbEntity
  8
WAKU0
  6
BYBLOCK
 62
0
370
    -2
100
AcDbMText
 10
69.22739455422561
 20
44.62833954442237
 30
0.0000000000000000
 40
2.399999618530273
 41
0.0000000000000000
 44
0.6719999785423244
 71
     1
 72
     1
  1
{\H0.84x;記 号}
 11
1.000000000000000
 21
0.0000000000000000
 31
0.0000000000000000
  7
KNJYOKO
  0
MTEXT
  5
371
100
AcDbEntity
  8
WAKU0
  6
BYBLOCK
 62
0
370
    -2
100
AcDbMText
 10
78.60551812020117
 20
37.49797710111659
 30
0.0000000000000000
 40
2.000000000000000
 41
0.0000000000000000
 44
0.6720000028610229
 71
     1
 72
     1
  1
{\H0.91x;0.8S}
 11
1.000000000000000
 21
0.0000000000000000
 31
0.0000000000000000
  7
STANDARD
  0
MTEXT
  5
372
100
AcDbEntity
  8
WAKU0
  6
BYBLOCK
 62
0
370
    -2
100
AcDbMText
 10
78.54233874815691
 20
30.45363488457656
 30
0.0000000000000000
 40
2.000000000000000
 41
0.0000000000000000
 44
0.6720000028610229
 71
     1
 72
     1
  1
{\H0.91x;6.3S}
 11
1.000000000000000
 21
0.0000000000000000
 31
0.0000000000000000
  7
STANDARD
  0
MTEXT
  5
373
100
AcDbEntity
  8
WAKU0
  6
BYBLOCK
 62
0
370
    -2
100
AcDbMText
 10
78.57394057005530
 20
23.56727750577414
 30
0.0000000000000000
 40
2.000000000000000
 41
0.0000000000000000
 44
0.6720000028610229
 71
     1
 72
     1
  1
{\H0.91x;25 S}
 11
1.000000000000000
 21
0.0000000000000000
 31
0.0000000000000000
  7
STANDARD
  0
MTEXT
  5
374
100
AcDbEntity
  8
WAKU0
  6
BYBLOCK
 62
0
370
    -2
100
AcDbMText
 10
78.57394057005530
 20
16.55453711113066
 30
0.0000000000000000
 40
2.000000000000000
 41
0.0000000000000000
 44
0.6720000028610229
 71
     1
 72
     1
  1
{\H0.91x;100S}
 11
1.000000000000000
 21
0.0000000000000000
 31
0.0000000000000000
  7
STANDARD
  0
LINE
  5
375
100
AcDbEntity
  8
WAKU0
  6
BYBLOCK
 62
0
370
    -2
100
AcDbLine
 10
68.00000000000023
 20
51.49999999999625
 30
0.0000000000000000
 11
87.00000000000023
 21
51.49999999999625
 31
0.0000000000000000
  0
ENDBLK
  5
376
100
AcDbEntity
  8
WAKU0
  6
BYBLOCK
 62
12
100
AcDbBlockEnd
  0
BLOCK
  5
378
100
AcDbEntity
  8
WAKU0
  6
BYBLOCK
 62
12
100
AcDbBlockBegin
  2
M5
 70
    64
 10
0.0
 20
0.0
 30
0.0
  0
LINE
  5
379
100
AcDbEntity
  8
WAKU0
  6
BYBLOCK
 62
0
370
    -2
100
AcDbLine
 10
91.00000000000011
 20
16.00000000000000
 30
0.0000000000000000
 11
91.00000000000011
 21
39.99999999999989
 31
0.0000000000000000
  0
LINE
  5
37A
100
AcDbEntity
  8
WAKU0
  6
BYBLOCK
 62
0
370
    -2
100
AcDbLine
 10
100.0000000000001
 20
12.00000000000006
 30
0.0000000000000000
 11
100.0000000000001
 21
46.99999999999989
 31
0.0000000000000000
  0
LINE
  5
37B
100
AcDbEntity
  8
WAKU0
  6
BYBLOCK
 62
0
370
    -2
100
AcDbLine
 10
110.5000000000001
 20
16.00000000000000
 30
0.0000000000000000
 11
110.5000000000001
 21
39.99999999999989
 31
0.0000000000000000
  0
LINE
  5
37C
100
AcDbEntity
  8
WAKU0
  6
BYBLOCK
 62
0
370
    -2
100
AcDbLine
 10
119.5000000000001
 20
12.00000000000006
 30
0.0000000000000000
 11
119.5000000000001
 21
46.99999999999989
 31
0.0000000000000000
  0
LINE
  5
37D
100
AcDbEntity
  8
WAKU0
  6
BYBLOCK
 62
0
370
    -2
100
AcDbLine
 10
126.0000000000001
 20
12.00000000000006
 30
0.0000000000000000
 11
126.0000000000001
 21
51.49999999999989
 31
0.0000000000000000
  0
LINE
  5
37E
100
AcDbEntity
  8
WAKU0
  6
BYBLOCK
 62
0
370
    -2
100
AcDbLine
 10
110.5000000000001
 20
20.00000000000004
 30
0.0000000000000000
 11
126.0000000000001
 21
20.00000000000004
 31
0.0000000000000000
  0
LINE
  5
37F
100
AcDbEntity
  8
WAKU0
  6
BYBLOCK
 62
0
370
    -2
100
AcDbLine
 10
110.5000000000001
 20
24.00000000000004
 30
0.0000000000000000
 11
126.0000000000001
 21
24.00000000000004
 31
0.0000000000000000
  0
LINE
  5
380
100
AcDbEntity
  8
WAKU0
  6
BYBLOCK
 62
0
370
    -2
100
AcDbLine
 10
110.5000000000001
 20
32.00000000000004
 30
0.0000000000000000
 11
126.0000000000001
 21
32.00000000000004
 31
0.0000000000000000
  0
LINE
  5
381
100
AcDbEntity
  8
WAKU0
  6
BYBLOCK
 62
0
370
    -2
100
AcDbLine
 10
110.5000000000001
 20
35.99999999999956
 30
0.0000000000000000
 11
126.0000000000016
 21
35.99999999999962
 31
0.0000000000000000
  0
LINE
  5
382
100
AcDbEntity
  8
WAKU0
  6
BYBLOCK
 62
0
370
    -2
100
AcDbLine
 10
91.00000000000011
 20
35.99999999999989
 30
0.0000000000000000
 11
106.5000000000001
 21
35.99999999999989
 31
0.0000000000000000
  0
LINE
  5
383
100
AcDbEntity
  8
WAKU0
  6
BYBLOCK
 62
0
370
    -2
100
AcDbLine
 10
91.00000000000017
 20
32.00000000000003
 30
0.0000000000000000
 11
106.5000000000001
 21
32.00000000000003
 31
0.0000000000000000
  0
LINE
  5
384
100
AcDbEntity
  8
WAKU0
  6
BYBLOCK
 62
0
370
    -2
100
AcDbLine
 10
91.50156144527961
 20
24.00000000000003
 30
0.0000000000000000
 11
106.5000000000001
 21
24.00000000000003
 31
0.0000000000000000
  0
LINE
  5
385
100
AcDbEntity
  8
WAKU0
  6
BYBLOCK
 62
0
370
    -2
100
AcDbLine
 10
91.00000000000017
 20
20.00000000000003
 30
0.0000000000000000
 11
106.5000000000001
 21
20.00000000000003
 31
0.0000000000000000
  0
LINE
  5
386
100
AcDbEntity
  8
WAKU0
  6
BYBLOCK
 62
0
370
    -2
100
AcDbLine
 10
87.00000000000017
 20
16.00000000000005
 30
0.0000000000000000
 11
126.0000000000002
 21
16.00000000000005
 31
0.0000000000000000
  0
LINE
  5
387
100
AcDbEntity
  8
WAKU0
  6
BYBLOCK
 62
0
370
    -2
100
AcDbLine
 10
101.8311824646173
 20
37.89966702189282
 30
0.0000000000000000
 11
104.7310501077164
 21
37.89966702189288
 31
0.0000000000000000
  0
LINE
  5
388
100
AcDbEntity
  8
WAKU0
  6
BYBLOCK
 62
0
370
    -2
100
AcDbLine
 10
102.0919983581146
 20
34.96185940587190
 30
0.0000000000000000
 11
105.1293399034055
 21
34.96185940587196
 31
0.0000000000000000
  0
LINE
  5
389
100
AcDbEntity
  8
WAKU0
  6
BYBLOCK
 62
0
370
    -2
100
AcDbLine
 10
101.3640578895821
 20
32.96185940587009
 30
0.0000000000000000
 11
104.4013994348764
 21
32.96185940587009
 31
0.0000000000000000
  0
LINE
  5
38A
100
AcDbEntity
  8
WAKU0
  6
BYBLOCK
 62
0
370
    -2
100
AcDbLine
 10
121.9486663247603
 20
33.09825319230356
 30
0.0000000000000000
 11
123.8731735892201
 21
33.09825319230356
 31
0.0000000000000000
  0
LINE
  5
38B
100
AcDbEntity
  8
WAKU0
  6
BYBLOCK
 62
0
370
    -2
100
AcDbLine
 10
124.0482517197916
 20
25.99999999999994
 30
0.0000000000000000
 11
121.4482517197915
 21
25.99999999999994
 31
0.0000000000000000
  0
LINE
  5
38C
100
AcDbEntity
  8
WAKU0
  6
BYBLOCK
 62
0
370
    -2
100
AcDbLine
 10
101.3640578895821
 20
32.96185940587290
 30
0.0000000000000000
 11
102.0919983581144
 21
34.96185940587289
 31
0.0000000000000000
  0
LINE
  5
38D
100
AcDbEntity
  8
WAKU0
  6
BYBLOCK
 62
0
370
    -2
100
AcDbLine
 10
104.4013994348730
 20
32.96185940587291
 30
0.0000000000000000
 11
105.1293399034054
 21
34.96185940587296
 31
0.0000000000000000
  0
LINE
  5
38E
100
AcDbEntity
  8
WAKU0
  6
BYBLOCK
 62
0
370
    -2
100
AcDbLine
 10
103.7649213175704
 20
24.49999999999984
 30
0.0000000000000000
 11
104.7840379735158
 21
27.29999999999984
 31
0.0000000000000000
  0
LINE
  5
38F
100
AcDbEntity
  8
WAKU0
  6
BYBLOCK
 62
0
370
    -2
100
AcDbLine
 10
101.6365657726186
 20
24.49999999999992
 30
0.0000000000000000
 11
102.6556824285639
 21
27.29999999999996
 31
0.0000000000000000
  0
LINE
  5
390
100
AcDbEntity
  8
WAKU0
  6
BYBLOCK
 62
0
370
    -2
100
AcDbLine
 10
101.6869054784107
 20
17.30319173546840
 30
0.0000000000000000
 11
104.6869054784103
 21
17.30319173546840
 31
0.0000000000000000
  0
LINE
  5
391
100
AcDbEntity
  8
WAKU0
  6
BYBLOCK
 62
0
370
    -2
100
AcDbLine
 10
102.1182444382657
 20
12.87154554177221
 30
0.0000000000000000
 11
104.3751533547218
 21
15.12845445822793
 31
0.0000000000000000
  0
LINE
  5
392
100
AcDbEntity
  8
WAKU0
  6
BYBLOCK
 62
0
370
    -2
100
AcDbLine
 10
103.8767565761340
 20
14.26520591538520
 30
0.0000000000000000
 11
104.3751533547218
 21
15.12845445822794
 31
0.0000000000000000
  0
LINE
  5
393
100
AcDbEntity
  8
WAKU0
  6
BYBLOCK
 62
0
370
    -2
100
AcDbLine
 10
103.5119048118791
 20
14.63005767964023
 30
0.0000000000000000
 11
104.3751533547219
 21
15.12845445822805
 31
0.0000000000000000
  0
LINE
  5
394
100
AcDbEntity
  8
WAKU0
  6
BYBLOCK
 62
0
370
    -2
100
AcDbLine
 10
121.0363038044183
 20
18.00000000000000
 30
0.0000000000000000
 11
124.5853922863337
 21
18.00000000000000
 31
0.0000000000000000
  0
LINE
  5
395
100
AcDbEntity
  8
WAKU0
  6
BYBLOCK
 62
0
370
    -2
100
AcDbLine
 10
123.3108480453760
 20
18.70000000000002
 30
0.0000000000000000
 11
122.3108480453760
 21
18.70000000000002
 31
0.0000000000000000
  0
LINE
  5
396
100
AcDbEntity
  8
WAKU0
  6
BYBLOCK
 62
0
370
    -2
100
AcDbLine
 10
123.3108480453760
 20
17.30000000000001
 30
0.0000000000000000
 11
122.3108480453760
 21
17.30000000000001
 31
0.0000000000000000
  0
LINE
  5
397
100
AcDbEntity
  8
WAKU0
  6
BYBLOCK
 62
0
370
    -2
100
AcDbLine
 10
122.7482517197915
 20
27.29999999999996
 30
0.0000000000000000
 11
122.7482517197915
 21
24.69999999999996
 31
0.0000000000000000
  0
LINE
  5
398
100
AcDbEntity
  8
WAKU0
  6
BYBLOCK
 62
0
370
    -2
100
AcDbLine
 10
121.3073979988184
 20
28.57441112556472
 30
0.0000000000000000
 11
124.1355153517043
 21
31.40252847845065
 31
0.0000000000000000
  0
LINE
  5
399
100
AcDbEntity
  8
WAKU0
  6
BYBLOCK
 62
0
370
    -2
100
AcDbLine
 10
121.3073979988185
 20
28.57441112556475
 30
0.0000000000000000
 11
124.1355153517043
 21
28.57441112556475
 31
0.0000000000000000
  0
LINE
  5
39A
100
AcDbEntity
  8
WAKU0
  6
BYBLOCK
 62
0
370
    -2
100
AcDbLine
 10
122.8984442761485
 20
33.09825319230356
 30
0.0000000000000000
 11
122.8984442761485
 21
35.13639378642972
 31
0.0000000000000000
  0
LINE
  5
39B
100
AcDbEntity
  8
WAKU0
  6
BYBLOCK
 62
0
370
    -2
100
AcDbLine
 10
123.2223783672457
 20
39.27165210993585
 30
0.0000000000000000
 11
122.2126209892779
 21
36.49736651484179
 31
0.0000000000000000
  0
LINE
  5
39C
100
AcDbEntity
  8
WAKU0
  6
BYBLOCK
 62
0
370
    -2
100
AcDbLine
 10
124.2865561397216
 20
39.27165210993587
 30
0.0000000000000000
 11
123.2767987617539
 21
36.49736651484186
 31
0.0000000000000000
  0
LINE
  5
39D
100
AcDbEntity
  8
WAKU0
  6
BYBLOCK
 62
0
370
    -2
100
AcDbLine
 10
87.00000000000011
 20
46.99999999999972
 30
0.0000000000000000
 11
126.0000000000001
 21
46.99999999999978
 31
0.0000000000000000
  0
LINE
  5
39E
100
AcDbEntity
  8
WAKU0
  6
BYBLOCK
 62
0
370
    -2
100
AcDbLine
 10
87.00000000000000
 20
12.00000000000001
 30
0.0000000000000000
 11
126.0000000000000
 21
12.00000000000006
 31
0.0000000000000000
  0
LINE
  5
39F
100
AcDbEntity
  8
WAKU0
  6
BYBLOCK
 62
0
370
    -2
100
AcDbLine
 10
87.00000000000011
 20
39.99999999999972
 30
0.0000000000000000
 11
125.9999999999998
 21
39.99999999999978
 31
0.0000000000000000
  0
LINE
  5
3A0
100
AcDbEntity
  8
WAKU0
  6
BYBLOCK
 62
0
370
    -2
100
AcDbLine
 10
87.00000000000023
 20
51.49999999999625
 30
0.0000000000000000
 11
87.00000000000023
 21
12.00000000000006
 31
0.0000000000000000
  0
LINE
  5
3A1
100
AcDbEntity
  8
WAKU0
  6
BYBLOCK
 62
0
370
    -2
100
AcDbLine
 10
106.5000000000001
 20
12.00000000000006
 30
0.0000000000000000
 11
106.5000000000001
 21
46.99999999999989
 31
0.0000000000000000
  0
LINE
  5
3A2
100
AcDbEntity
  8
WAKU0
  6
BYBLOCK
 62
0
370
    -2
100
AcDbLine
 10
91.00000000000023
 20
28.00000000000005
 30
0.0000000000000000
 11
125.9999999999999
 21
28.00000000000005
 31
0.0000000000000000
  0
ARC
  5
3A3
100
AcDbEntity
  8
WAKU0
  6
BYBLOCK
 62
0
370
    -2
100
AcDbCircle
 10
103.2579731700531
 20
21.23055548181338
 30
0.0000000000000000
 40
1.499999999999986
100
AcDbArc
 50
0.0000000000000000
 51
179.9999999999998
  0
CIRCLE
  5
3A4
100
AcDbEntity
  8
WAKU0
  6
BYBLOCK
 62
0
370
    -2
100
AcDbCircle
 10
103.2466988964938
 20
25.99999999999994
 30
0.0000000000000000
 40
1.000000000000000
  0
CIRCLE
  5
3A5
100
AcDbEntity
  8
WAKU0
  6
BYBLOCK
 62
0
370
    -2
100
AcDbCircle
 10
103.2466988964938
 20
30.01526484653812
 30
0.0000000000000000
 40
1.440256591413231
  0
ARC
  5
3A6
100
AcDbEntity
  8
WAKU0
  6
BYBLOCK
 62
0
370
    -2
100
AcDbCircle
 10
103.1869054784105
 20
17.30319173546840
 30
0.0000000000000000
 40
1.499999999999986
100
AcDbArc
 50
0.0000000000000000
 51
179.9999999999998
  0
CIRCLE
  5
3A7
100
AcDbEntity
  8
WAKU0
  6
BYBLOCK
 62
0
370
    -2
100
AcDbCircle
 10
122.7482517197916
 20
21.99999999999992
 30
0.0000000000000000
 40
1.104676391049921
  0
CIRCLE
  5
3A8
100
AcDbEntity
  8
WAKU0
  6
BYBLOCK
 62
0
370
    -2
100
AcDbCircle
 10
122.7482517197916
 20
21.99999999999992
 30
0.0000000000000000
 40
0.7364509273666198
  0
CIRCLE
  5
3A9
100
AcDbEntity
  8
WAKU0
  6
BYBLOCK
 62
0
370
    -2
100
AcDbCircle
 10
122.7482517197916
 20
25.99999999999992
 30
0.0000000000000000
 40
1.000000000000000
  0
MTEXT
  5
3AA
100
AcDbEntity
  8
WAKU0
  6
BYBLOCK
 62
0
370
    -2
100
AcDbMText
 10
88.00000000000011
 20
50.29999904632484
 30
0.0000000000000000
 40
2.499999046325684
 41
0.0000000000000000
 44
0.6720000160217347
 71
     1
 72
     1
  1
{\H0.91x;形状・位置の精度の種類と記号}
 11
1.000000000000000
 21
0.0000000000000000
 31
0.0000000000000000
  7
KNJYOKO
  0
MTEXT
  5
3AB
100
AcDbEntity
  8
WAKU0
  6
BYBLOCK
 62
0
370
    -2
100
AcDbMText
 10
88.43579068439806
 20
44.69642181049483
 30
0.0000000000000000
 40
2.399999618530273
 41
0.0000000000000000
 44
0.6719999785423244
 71
     1
 72
     1
  1
{\H0.88x;種  類}
 11
1.000000000000000
 21
0.0000000000000000
 31
0.0000000000000000
  7
KNJYOKO
  0
MTEXT
  5
3AC
100
AcDbEntity
  8
WAKU0
  6
BYBLOCK
 62
0
370
    -2
100
AcDbMText
 10
101.1685393466073
 20
44.90064433695795
 30
0.0000000000000000
 40
2.399999618530273
 41
0.0000000000000000
 44
0.6719999785423244
 71
     1
 72
     1
  1
{\H0.76x;記号}
 11
1.000000000000000
 21
0.0000000000000000
 31
0.0000000000000000
  7
KNJYOKO
  0
MTEXT
  5
3AD
100
AcDbEntity
  8
WAKU0
  6
BYBLOCK
 62
0
370
    -2
100
AcDbMText
 10
120.6726886785652
 20
44.83258634263973
 30
0.0000000000000000
 40
2.399999618530273
 41
0.0000000000000000
 44
0.6719999785423244
 71
     1
 72
     1
  1
{\H0.76x;記号}
 11
1.000000000000000
 21
0.0000000000000000
 31
0.0000000000000000
  7
KNJYOKO
  0
MTEXT
  5
3AE
100
AcDbEntity
  8
WAKU0
  6
BYBLOCK
 62
0
370
    -2
100
AcDbMText
 10
107.9357906843981
 20
44.69642181049483
 30
0.0000000000000000
 40
2.399999618530273
 41
0.0000000000000000
 44
0.6719999785423244
 71
     1
 72
     1
  1
{\H0.88x;種  類}
 11
1.000000000000000
 21
0.0000000000000000
 31
0.0000000000000000
  7
KNJYOKO
  0
MTEXT
  5
3AF
100
AcDbEntity
  8
WAKU0
  6
BYBLOCK
 62
0
370
    -2
100
AcDbMText
 10
92.00000000000011
 20
38.99999904632557
 30
0.0000000000000000
 40
2.499999046325684
 41
0.0000000000000000
 44
0.6720000160217347
 71
     1
 72
     1
  1
{\H0.75x;真直度}
 11
1.000000000000000
 21
0.0000000000000000
 31
0.0000000000000000
  7
KNJYOKO
  0
MTEXT
  5
3B0
100
AcDbEntity
  8
WAKU0
  6
BYBLOCK
 62
0
370
    -2
100
AcDbMText
 10
92.00000000000011
 20
34.99999904632557
 30
0.0000000000000000
 40
2.499999046325684
 41
0.0000000000000000
 44
0.6720000160217347
 71
     1
 72
     1
  1
{\H0.75x;平面度}
 11
1.000000000000000
 21
0.0000000000000000
 31
0.0000000000000000
  7
KNJYOKO
  0
MTEXT
  5
3B1
100
AcDbEntity
  8
WAKU0
  6
BYBLOCK
 62
0
370
    -2
100
AcDbMText
 10
92.00000000000011
 20
30.99999904632571
 30
0.0000000000000000
 40
2.499999046325684
 41
0.0000000000000000
 44
0.6720000160217347
 71
     1
 72
     1
  1
{\H0.75x;真円度}
 11
1.000000000000000
 21
0.0000000000000000
 31
0.0000000000000000
  7
KNJYOKO
  0
MTEXT
  5
3B2
100
AcDbEntity
  8
WAKU0
  6
BYBLOCK
 62
0
370
    -2
100
AcDbMText
 10
92.00000000000011
 20
26.99999904632571
 30
0.0000000000000000
 40
2.499999046325684
 41
0.0000000000000000
 44
0.6720000160217347
 71
     1
 72
     1
  1
{\H0.75x;円筒度}
 11
1.000000000000000
 21
0.0000000000000000
 31
0.0000000000000000
  7
KNJYOKO
  0
MTEXT
  5
3B3
100
AcDbEntity
  8
WAKU0
  6
BYBLOCK
 62
0
370
    -2
100
AcDbMText
 10
92.00000000000011
 20
22.99999904632571
 30
0.0000000000000000
 40
2.499999046325684
 41
0.0000000000000000
 44
0.6720000160217347
 71
     1
 72
     1
  1
{\H0.75x;線輪郭}
 11
1.000000000000000
 21
0.0000000000000000
 31
0.0000000000000000
  7
KNJYOKO
  0
MTEXT
  5
3B4
100
AcDbEntity
  8
WAKU0
  6
BYBLOCK
 62
0
370
    -2
100
AcDbMText
 10
92.17466758489525
 20
19.48328908239213
 30
0.0000000000000000
 40
2.499999046325684
 41
0.0000000000000000
 44
0.6720000160217347
 71
     1
 72
     1
  1
{\H0.75x;面輪郭}
 11
1.000000000000000
 21
0.0000000000000000
 31
0.0000000000000000
  7
KNJYOKO
  0
MTEXT
  5
3B5
100
AcDbEntity
  8
WAKU0
  6
BYBLOCK
 62
0
370
    -2
100
AcDbMText
 10
88.91256640961143
 20
15.27226098404603
 30
0.0000000000000000
 40
2.499999046325684
 41
0.0000000000000000
 44
0.6720000160217347
 71
     1
 72
     1
  1
{\H0.85x;振  レ}
 11
1.000000000000000
 21
0.0000000000000000
 31
0.0000000000000000
  7
KNJYOKO
  0
MTEXT
  5
3B6
100
AcDbEntity
  8
WAKU0
  6
BYBLOCK
 62
0
370
    -2
100
AcDbMText
 10
111.5000000000001
 20
38.99999904632557
 30
0.0000000000000000
 40
2.499999046325684
 41
0.0000000000000000
 44
0.6720000160217347
 71
     1
 72
     1
  1
{\H0.75x;平行度}
 11
1.000000000000000
 21
0.0000000000000000
 31
0.0000000000000000
  7
KNJYOKO
  0
MTEXT
  5
3B7
100
AcDbEntity
  8
WAKU0
  6
BYBLOCK
 62
0
370
    -2
100
AcDbMText
 10
111.5000000000001
 20
34.99999904632557
 30
0.0000000000000000
 40
2.499999046325684
 41
0.0000000000000000
 44
0.6720000160217347
 71
     1
 72
     1
  1
{\H0.75x;直角度}
 11
1.000000000000000
 21
0.0000000000000000
 31
0.0000000000000000
  7
KNJYOKO
  0
MTEXT
  5
3B8
100
AcDbEntity
  8
WAKU0
  6
BYBLOCK
 62
0
370
    -2
100
AcDbMText
 10
111.5000000000001
 20
30.99999904632571
 30
0.0000000000000000
 40
2.499999046325684
 41
0.0000000000000000
 44
0.6720000160217347
 71
     1
 72
     1
  1
{\H0.75x;傾斜度}
 11
1.000000000000000
 21
0.0000000000000000
 31
0.0000000000000000
  7
KNJYOKO
  0
MTEXT
  5
3B9
100
AcDbEntity
  8
WAKU0
  6
BYBLOCK
 62
0
370
    -2
100
AcDbMText
 10
111.5000000000001
 20
26.99999904632571
 30
0.0000000000000000
 40
2.499999046325684
 41
0.0000000000000000
 44
0.6720000160217347
 71
     1
 72
     1
  1
{\H0.75x;位置度}
 11
1.000000000000000
 21
0.0000000000000000
 31
0.0000000000000000
  7
KNJYOKO
  0
MTEXT
  5
3BA
100
AcDbEntity
  8
WAKU0
  6
BYBLOCK
 62
0
370
    -2
100
AcDbMText
 10
111.5000000000001
 20
22.99999904632571
 30
0.0000000000000000
 40
2.499999046325684
 41
0.0000000000000000
 44
0.6720000160217347
 71
     1
 72
     1
  1
{\H0.75x;同軸度}
 11
1.000000000000000
 21
0.0000000000000000
 31
0.0000000000000000
  7
KNJYOKO
  0
MTEXT
  5
3BB
100
AcDbEntity
  8
WAKU0
  6
BYBLOCK
 62
0
370
    -2
100
AcDbMText
 10
111.5000000000001
 20
18.99999904632571
 30
0.0000000000000000
 40
2.499999046325684
 41
0.0000000000000000
 44
0.6720000160217347
 71
     1
 72
     1
  1
{\H0.75x;対称度}
 11
1.000000000000000
 21
0.0000000000000000
 31
0.0000000000000000
  7
KNJYOKO
  0
MTEXT
  5
3BC
100
AcDbEntity
  8
WAKU0
  6
BYBLOCK
 62
0
370
    -2
100
AcDbMText
 10
107.1049712472752
 20
15.30437251274927
 30
0.0000000000000000
 40
2.499999046325684
 41
0.0000000000000000
 44
0.6720000160217347
 71
     1
 72
     1
  1
{\H0.77x;基準線・面}
 11
1.000000000000000
 21
0.0000000000000000
 31
0.0000000000000000
  7
KNJYOKO
  0
LINE
  5
3BD
100
AcDbEntity
  8
WAKU0
  6
BYBLOCK
 62
0
370
    -2
100
AcDbLine
 10
91.00000000000011
 20
16.00000000000000
 30
0.0000000000000000
 11
91.00000000000011
 21
39.99999999999989
 31
0.0000000000000000
  0
LINE
  5
3BE
100
AcDbEntity
  8
WAKU0
  6
BYBLOCK
 62
0
370
    -2
100
AcDbLine
 10
100.0000000000001
 20
12.00000000000006
 30
0.0000000000000000
 11
100.0000000000001
 21
46.99999999999989
 31
0.0000000000000000
  0
LINE
  5
3BF
100
AcDbEntity
  8
WAKU0
  6
BYBLOCK
 62
0
370
    -2
100
AcDbLine
 10
110.5000000000001
 20
16.00000000000000
 30
0.0000000000000000
 11
110.5000000000001
 21
39.99999999999989
 31
0.0000000000000000
  0
LINE
  5
3C0
100
AcDbEntity
  8
WAKU0
  6
BYBLOCK
 62
0
370
    -2
100
AcDbLine
 10
119.5000000000001
 20
12.00000000000006
 30
0.0000000000000000
 11
119.5000000000001
 21
46.99999999999989
 31
0.0000000000000000
  0
LINE
  5
3C1
100
AcDbEntity
  8
WAKU0
  6
BYBLOCK
 62
0
370
    -2
100
AcDbLine
 10
126.0000000000001
 20
12.00000000000006
 30
0.0000000000000000
 11
126.0000000000001
 21
51.49999999999989
 31
0.0000000000000000
  0
LINE
  5
3C2
100
AcDbEntity
  8
WAKU0
  6
BYBLOCK
 62
0
370
    -2
100
AcDbLine
 10
110.5000000000001
 20
20.00000000000004
 30
0.0000000000000000
 11
126.0000000000001
 21
20.00000000000004
 31
0.0000000000000000
  0
LINE
  5
3C3
100
AcDbEntity
  8
WAKU0
  6
BYBLOCK
 62
0
370
    -2
100
AcDbLine
 10
110.5000000000001
 20
24.00000000000004
 30
0.0000000000000000
 11
126.0000000000001
 21
24.00000000000004
 31
0.0000000000000000
  0
LINE
  5
3C4
100
AcDbEntity
  8
WAKU0
  6
BYBLOCK
 62
0
370
    -2
100
AcDbLine
 10
110.5000000000001
 20
32.00000000000004
 30
0.0000000000000000
 11
126.0000000000001
 21
32.00000000000004
 31
0.0000000000000000
  0
LINE
  5
3C5
100
AcDbEntity
  8
WAKU0
  6
BYBLOCK
 62
0
370
    -2
100
AcDbLine
 10
110.5000000000001
 20
35.99999999999956
 30
0.0000000000000000
 11
126.0000000000016
 21
35.99999999999962
 31
0.0000000000000000
  0
LINE
  5
3C6
100
AcDbEntity
  8
WAKU0
  6
BYBLOCK
 62
0
370
    -2
100
AcDbLine
 10
91.00000000000011
 20
35.99999999999989
 30
0.0000000000000000
 11
106.5000000000001
 21
35.99999999999989
 31
0.0000000000000000
  0
LINE
  5
3C7
100
AcDbEntity
  8
WAKU0
  6
BYBLOCK
 62
0
370
    -2
100
AcDbLine
 10
91.00000000000017
 20
32.00000000000003
 30
0.0000000000000000
 11
106.5000000000001
 21
32.00000000000003
 31
0.0000000000000000
  0
LINE
  5
3C8
100
AcDbEntity
  8
WAKU0
  6
BYBLOCK
 62
0
370
    -2
100
AcDbLine
 10
91.50156144527961
 20
24.00000000000003
 30
0.0000000000000000
 11
106.5000000000001
 21
24.00000000000003
 31
0.0000000000000000
  0
LINE
  5
3C9
100
AcDbEntity
  8
WAKU0
  6
BYBLOCK
 62
0
370
    -2
100
AcDbLine
 10
91.00000000000017
 20
20.00000000000003
 30
0.0000000000000000
 11
106.5000000000001
 21
20.00000000000003
 31
0.0000000000000000
  0
LINE
  5
3CA
100
AcDbEntity
  8
WAKU0
  6
BYBLOCK
 62
0
370
    -2
100
AcDbLine
 10
87.00000000000017
 20
16.00000000000005
 30
0.0000000000000000
 11
126.0000000000002
 21
16.00000000000005
 31
0.0000000000000000
  0
LINE
  5
3CB
100
AcDbEntity
  8
WAKU0
  6
BYBLOCK
 62
0
370
    -2
100
AcDbLine
 10
101.8311824646173
 20
37.89966702189282
 30
0.0000000000000000
 11
104.7310501077164
 21
37.89966702189288
 31
0.0000000000000000
  0
LINE
  5
3CC
100
AcDbEntity
  8
WAKU0
  6
BYBLOCK
 62
0
370
    -2
100
AcDbLine
 10
102.0919983581146
 20
34.96185940587190
 30
0.0000000000000000
 11
105.1293399034055
 21
34.96185940587196
 31
0.0000000000000000
  0
LINE
  5
3CD
100
AcDbEntity
  8
WAKU0
  6
BYBLOCK
 62
0
370
    -2
100
AcDbLine
 10
101.3640578895821
 20
32.96185940587009
 30
0.0000000000000000
 11
104.4013994348764
 21
32.96185940587009
 31
0.0000000000000000
  0
LINE
  5
3CE
100
AcDbEntity
  8
WAKU0
  6
BYBLOCK
 62
0
370
    -2
100
AcDbLine
 10
121.9486663247603
 20
33.09825319230356
 30
0.0000000000000000
 11
123.8731735892201
 21
33.09825319230356
 31
0.0000000000000000
  0
LINE
  5
3CF
100
AcDbEntity
  8
WAKU0
  6
BYBLOCK
 62
0
370
    -2
100
AcDbLine
 10
124.0482517197916
 20
25.99999999999994
 30
0.0000000000000000
 11
121.4482517197915
 21
25.99999999999994
 31
0.0000000000000000
  0
LINE
  5
3D0
100
AcDbEntity
  8
WAKU0
  6
BYBLOCK
 62
0
370
    -2
100
AcDbLine
 10
101.3640578895821
 20
32.96185940587290
 30
0.0000000000000000
 11
102.0919983581144
 21
34.96185940587289
 31
0.0000000000000000
  0
LINE
  5
3D1
100
AcDbEntity
  8
WAKU0
  6
BYBLOCK
 62
0
370
    -2
100
AcDbLine
 10
104.4013994348730
 20
32.96185940587291
 30
0.0000000000000000
 11
105.1293399034054
 21
34.96185940587296
 31
0.0000000000000000
  0
LINE
  5
3D2
100
AcDbEntity
  8
WAKU0
  6
BYBLOCK
 62
0
370
    -2
100
AcDbLine
 10
103.7649213175704
 20
24.49999999999984
 30
0.0000000000000000
 11
104.7840379735158
 21
27.29999999999984
 31
0.0000000000000000
  0
LINE
  5
3D3
100
AcDbEntity
  8
WAKU0
  6
BYBLOCK
 62
0
370
    -2
100
AcDbLine
 10
101.6365657726186
 20
24.49999999999992
 30
0.0000000000000000
 11
102.6556824285639
 21
27.29999999999996
 31
0.0000000000000000
  0
LINE
  5
3D4
100
AcDbEntity
  8
WAKU0
  6
BYBLOCK
 62
0
370
    -2
100
AcDbLine
 10
101.6869054784107
 20
17.30319173546840
 30
0.0000000000000000
 11
104.6869054784103
 21
17.30319173546840
 31
0.0000000000000000
  0
LINE
  5
3D5
100
AcDbEntity
  8
WAKU0
  6
BYBLOCK
 62
0
370
    -2
100
AcDbLine
 10
102.1182444382657
 20
12.87154554177221
 30
0.0000000000000000
 11
104.3751533547218
 21
15.12845445822793
 31
0.0000000000000000
  0
LINE
  5
3D6
100
AcDbEntity
  8
WAKU0
  6
BYBLOCK
 62
0
370
    -2
100
AcDbLine
 10
103.8767565761340
 20
14.26520591538520
 30
0.0000000000000000
 11
104.3751533547218
 21
15.12845445822794
 31
0.0000000000000000
  0
LINE
  5
3D7
100
AcDbEntity
  8
WAKU0
  6
BYBLOCK
 62
0
370
    -2
100
AcDbLine
 10
103.5119048118791
 20
14.63005767964023
 30
0.0000000000000000
 11
104.3751533547219
 21
15.12845445822805
 31
0.0000000000000000
  0
LINE
  5
3D8
100
AcDbEntity
  8
WAKU0
  6
BYBLOCK
 62
0
370
    -2
100
AcDbLine
 10
121.0363038044183
 20
18.00000000000000
 30
0.0000000000000000
 11
124.5853922863337
 21
18.00000000000000
 31
0.0000000000000000
  0
LINE
  5
3D9
100
AcDbEntity
  8
WAKU0
  6
BYBLOCK
 62
0
370
    -2
100
AcDbLine
 10
123.3108480453760
 20
18.70000000000002
 30
0.0000000000000000
 11
122.3108480453760
 21
18.70000000000002
 31
0.0000000000000000
  0
LINE
  5
3DA
100
AcDbEntity
  8
WAKU0
  6
BYBLOCK
 62
0
370
    -2
100
AcDbLine
 10
123.3108480453760
 20
17.30000000000001
 30
0.0000000000000000
 11
122.3108480453760
 21
17.30000000000001
 31
0.0000000000000000
  0
LINE
  5
3DB
100
AcDbEntity
  8
WAKU0
  6
BYBLOCK
 62
0
370
    -2
100
AcDbLine
 10
122.7482517197915
 20
27.29999999999996
 30
0.0000000000000000
 11
122.7482517197915
 21
24.69999999999996
 31
0.0000000000000000
  0
LINE
  5
3DC
100
AcDbEntity
  8
WAKU0
  6
BYBLOCK
 62
0
370
    -2
100
AcDbLine
 10
121.3073979988184
 20
28.57441112556472
 30
0.0000000000000000
 11
124.1355153517043
 21
31.40252847845065
 31
0.0000000000000000
  0
LINE
  5
3DD
100
AcDbEntity
  8
WAKU0
  6
BYBLOCK
 62
0
370
    -2
100
AcDbLine
 10
121.3073979988185
 20
28.57441112556475
 30
0.0000000000000000
 11
124.1355153517043
 21
28.57441112556475
 31
0.0000000000000000
  0
LINE
  5
3DE
100
AcDbEntity
  8
WAKU0
  6
BYBLOCK
 62
0
370
    -2
100
AcDbLine
 10
122.8984442761485
 20
33.09825319230356
 30
0.0000000000000000
 11
122.8984442761485
 21
35.13639378642972
 31
0.0000000000000000
  0
LINE
  5
3DF
100
AcDbEntity
  8
WAKU0
  6
BYBLOCK
 62
0
370
    -2
100
AcDbLine
 10
123.2223783672457
 20
39.27165210993585
 30
0.0000000000000000
 11
122.2126209892779
 21
36.49736651484179
 31
0.0000000000000000
  0
LINE
  5
3E0
100
AcDbEntity
  8
WAKU0
  6
BYBLOCK
 62
0
370
    -2
100
AcDbLine
 10
124.2865561397216
 20
39.27165210993587
 30
0.0000000000000000
 11
123.2767987617539
 21
36.49736651484186
 31
0.0000000000000000
  0
LINE
  5
3E1
100
AcDbEntity
  8
WAKU0
  6
BYBLOCK
 62
0
370
    -2
100
AcDbLine
 10
87.00000000000011
 20
46.99999999999972
 30
0.0000000000000000
 11
126.0000000000001
 21
46.99999999999978
 31
0.0000000000000000
  0
LINE
  5
3E2
100
AcDbEntity
  8
WAKU0
  6
BYBLOCK
 62
0
370
    -2
100
AcDbLine
 10
87.00000000000000
 20
12.00000000000001
 30
0.0000000000000000
 11
126.0000000000000
 21
12.00000000000006
 31
0.0000000000000000
  0
LINE
  5
3E3
100
AcDbEntity
  8
WAKU0
  6
BYBLOCK
 62
0
370
    -2
100
AcDbLine
 10
87.00000000000011
 20
39.99999999999972
 30
0.0000000000000000
 11
125.9999999999998
 21
39.99999999999978
 31
0.0000000000000000
  0
LINE
  5
3E4
100
AcDbEntity
  8
WAKU0
  6
BYBLOCK
 62
0
370
    -2
100
AcDbLine
 10
106.5000000000001
 20
12.00000000000006
 30
0.0000000000000000
 11
106.5000000000001
 21
46.99999999999989
 31
0.0000000000000000
  0
LINE
  5
3E5
100
AcDbEntity
  8
WAKU0
  6
BYBLOCK
 62
0
370
    -2
100
AcDbLine
 10
91.00000000000023
 20
28.00000000000005
 30
0.0000000000000000
 11
125.9999999999999
 21
28.00000000000005
 31
0.0000000000000000
  0
MTEXT
  5
3E6
100
AcDbEntity
  8
WAKU0
  6
BYBLOCK
 62
0
370
    -2
100
AcDbMText
 10
87.50000000000011
 20
35.80000019073475
 30
0.0000000000000000
 40
2.800000190734863
 41
0.0000000000000000
 71
     1
 72
     3
  1
形　　　状
 11
1.000000000000000
 21
0.0000000000000000
 31
0.0000000000000000
  7
KNJTATE
  0
MTEXT
  5
3E7
100
AcDbEntity
  8
WAKU0
  6
BYBLOCK
 62
0
370
    -2
100
AcDbMText
 10
107.0000000000001
 20
38.30000019073475
 30
0.0000000000000000
 40
2.800000190734863
 41
0.0000000000000000
 71
     1
 72
     3
  1
方　向
 11
1.000000000000000
 21
0.0000000000000000
 31
0.0000000000000000
  7
KNJTATE
  0
MTEXT
  5
3E8
100
AcDbEntity
  8
WAKU0
  6
BYBLOCK
 62
0
370
    -2
100
AcDbMText
 10
107.0000000000001
 20
26.30000019073489
 30
0.0000000000000000
 40
2.800000190734863
 41
0.0000000000000000
 71
     1
 72
     3
  1
位　置
 11
1.000000000000000
 21
0.0000000000000000
 31
0.0000000000000000
  7
KNJTATE
  0
LINE
  5
3E9
100
AcDbEntity
  8
WAKU0
  6
BYBLOCK
 62
0
370
    -2
100
AcDbLine
 10
123.8713639848459
 20
12.78150451227957
 30
0.0000000000000000
 11
121.6254053952216
 21
12.78150451227943
 31
0.0000000000000000
  0
POLYLINE
  5
3EA
100
AcDbEntity
  8
WAKU0
  6
BYBLOCK
 62
0
370
    -2
100
AcDb2dPolyline
 66
     1
 10
0.0000000000000000
 20
0.0000000000000000
 30
0.0000000000000000
 70
     1
 40
0.5000000000000000
 41
0.5000000000000000
  0
VERTEX
  5
3EB
100
AcDbEntity
  8
WAKU0
  6
BYBLOCK
 62
0
370
    -2
100
AcDbVertex
100
AcDb2dVertex
 10
122.9983846900337
 20
13.42985691043370
 30
0.0000000000000000
 42
1.000000000000000
  0
VERTEX
  5
3EC
100
AcDbEntity
  8
WAKU0
  6
BYBLOCK
 62
0
370
    -2
100
AcDbVertex
100
AcDb2dVertex
 10
122.4983846900337
 20
13.42985691043370
 30
0.0000000000000000
 42
1.000000000000000
  0
SEQEND
  5
3ED
100
AcDbEntity
  8
WAKU0
  6
BYBLOCK
 62
0
370
    -2
  0
LINE
  5
3EE
100
AcDbEntity
  8
WAKU0
  6
BYBLOCK
 62
0
370
    -2
100
AcDbLine
 10
123.5249538052654
 20
12.98150452271037
 30
0.0000000000000000
 11
122.7483846900338
 21
14.32656168588039
 31
0.0000000000000000
  0
LINE
  5
3EF
100
AcDbEntity
  8
WAKU0
  6
BYBLOCK
 62
0
370
    -2
100
AcDbLine
 10
122.7483846900338
 20
14.32656168588038
 30
0.0000000000000000
 11
121.9718155748021
 21
12.98150452271025
 31
0.0000000000000000
  0
LINE
  5
3F0
100
AcDbEntity
  8
WAKU0
  6
BYBLOCK
 62
0
370
    -2
100
AcDbLine
 10
121.9718155748021
 20
12.98150452271025
 30
0.0000000000000000
 11
123.5249538052654
 21
12.98150452271039
 31
0.0000000000000000
  0
LINE
  5
3F1
100
AcDbEntity
  8
WAKU0
  6
BYBLOCK
 62
0
370
    -2
100
AcDbLine
 10
123.8713639728013
 20
12.78150451227958
 30
0.0000000000000000
 11
122.7483846900337
 21
14.72656168588039
 31
0.0000000000000000
  0
LINE
  5
3F2
100
AcDbEntity
  8
WAKU0
  6
BYBLOCK
 62
0
370
    -2
100
AcDbLine
 10
122.7483846900338
 20
14.72656168588044
 30
0.0000000000000000
 11
121.6254054072662
 21
12.78150451227941
 31
0.0000000000000000
  0
LINE
  5
3F3
100
AcDbEntity
  8
WAKU0
  6
BYBLOCK
 62
0
370
    -2
100
AcDbLine
 10
87.00000000000023
 20
51.49999999999625
 30
0.0000000000000000
 11
126.0000000000001
 21
51.49999999999989
 31
0.0000000000000000
  0
ENDBLK
  5
3F4
100
AcDbEntity
  8
WAKU0
  6
BYBLOCK
 62
12
100
AcDbBlockEnd
  0
ENDSEC
  0
SECTION
  2
ENTITIES
  0
DIMENSION
  5
50
100
AcDbEntity
  8
MAIN0
  6
CONTINUOUS
 62
3
100
AcDbDimension
  2
*D0
 10
101.5834463150638
 20
173.8255758535378
 30
0.0000000000000000
 11
95.69230168182833
 21
174.3255758535378
 31
0.0000000000000000
 70
160
 71
5
  1
\A1;4-4
 42
4.000000
  3
MAIN001
100
AcDbAlignedDimension
 13
105.5834463143899
 23
199.3755745413099
 33
0.0000000000000000
 14
101.5834463150638
 24
199.3755745413439
 34
0.0000000000000000
100
AcDbRotatedDimension
1001
ACAD
1000
DSTYLE
1002
{
1070
   173
1070
     1
1070
     6
1000
_OPEN
1070
     7
1000
_OPEN
1070
    41
1040
2.000000
1070
   289
1070
     0
1002
}
  0
DIMENSION
  5
5B
100
AcDbEntity
  8
MAIN0
  6
CONTINUOUS
 62
3
100
AcDbDimension
  2
*D1
 10
176.1878579273591
 20
213.8755745416304
 30
0.0000000000000000
 11
175.6878579273591
 21
222.6132287718255
 31
0.0000000000000000
 70
160
 71
5
  1
\A1;\U+220510g7
 42
10.000000
  3
MAIN001
100
AcDbAlignedDimension
 13
186.4834463127899
 23
203.8755745416304
 33
0.0000000000000000
 14
186.4834463129198
 24
213.8755745416304
 34
0.0000000000000000
 50
90.00000000000000
100
AcDbRotatedDimension
1001
ACAD
1000
DSTYLE
1002
{
1070
   173
1070
     1
1070
     6
1000
_OPEN
1070
     7
1000
_OPEN
1070
    41
1040
2.000000
1070
   289
1070
     0
1002
}
  0
DIMENSION
  5
66
100
AcDbEntity
  8
MAIN0
  6
CONTINUOUS
 62
3
100
AcDbDimension
  2
*D2
 10
195.3334463129417
 20
235.6012361240809
 30
0.0000000000000000
 11
190.7977780796207
 21
236.1012361240809
 31
0.0000000000000000
 70
160
 71
5
 42
3.500000
  3
MAIN001
100
AcDbAlignedDimension
 13
198.8334463128218
 23
213.8755745415057
 33
0.0000000000000000
 14
195.3334463129417
 24
213.8755745416268
 34
0.0000000000000000
100
AcDbRotatedDimension
1001
ACAD
1000
DSTYLE
1002
{
1070
   173
1070
     1
1070
     6
1000
_OPEN
1070
     7
1000
_OPEN
1070
    41
1040
2.000000
1070
   289
1070
     0
1002
}
  0
DIMENSION
  5
71
100
AcDbEntity
  8
MAIN0
  6
CONTINUOUS
 62
3
100
AcDbDimension
  2
*D3
 10
203.5834463129323
 20
242.8830259290928
 30
0.0000000000000000
 11
210.3472173432574
 21
243.3830259290928
 31
0.0000000000000000
 70
160
 71
5
 42
6.500000
  3
MAIN001
100
AcDbAlignedDimension
 13
197.0834463129463
 23
215.3083585913705
 33
0.0000000000000000
 14
203.5834463129323
 24
228.4755745415677
 34
0.0000000000000000
100
AcDbRotatedDimension
1001
ACAD
1000
DSTYLE
1002
{
1070
   173
1070
     1
1070
     6
1000
_OPEN
1070
     7
1000
_OPEN
1070
    41
1040
2.000000
1070
   289
1070
     0
1002
}
  0
DIMENSION
  5
7C
100
AcDbEntity
  8
MAIN0
  6
CONTINUOUS
 62
3
100
AcDbDimension
  2
*D4
 10
186.0834463129428
 20
250.4640743287202
 30
0.0000000000000000
 11
194.8334463129375
 21
250.9640743287202
 31
0.0000000000000000
 70
32
 71
5
 42
17.500000
  3
MAIN001
100
AcDbAlignedDimension
 13
203.5834463129323
 23
228.4755745415677
 33
0.0000000000000000
 14
186.0834463129428
 24
213.4755745416530
 34
0.0000000000000000
100
AcDbRotatedDimension
1001
ACAD
1000
DSTYLE
1002
{
1070
   173
1070
     1
1070
     6
1000
_OPEN
1070
     7
1000
_OPEN
1070
    41
1040
2.000000
1070
   289
1070
     0
1002
}
  0
DIMENSION
  5
85
100
AcDbEntity
  8
MAIN0
  6
CONTINUOUS
 62
3
100
AcDbDimension
  2
*D5
 10
203.5834463129323
 20
250.4640743287202
 30
0.0000000000000000
 11
213.5834463129332
 21
250.9640743287202
 31
0.0000000000000000
 70
32
 71
5
 42
20.000000
  3
MAIN001
100
AcDbAlignedDimension
 13
223.5834463129342
 23
225.9755745416295
 33
0.0000000000000000
 14
203.5834463129323
 24
228.4755745415677
 34
0.0000000000000000
100
AcDbRotatedDimension
1001
ACAD
1000
DSTYLE
1002
{
1070
   173
1070
     1
1070
     6
1000
_OPEN
1070
     7
1000
_OPEN
1070
    41
1040
2.000000
1002
}
  0
DIMENSION
  5
90
100
AcDbEntity
  8
MAIN0
  6
CONTINUOUS
 62
3
100
AcDbDimension
  2
*D6
 10
203.5834463129641
 20
170.7361944287688
 30
0.0000000000000000
 11
199.4383310441632
 21
171.2361944287688
 31
0.0000000000000000
 70
160
 71
5
 42
3.000000
  3
MAIN001
100
AcDbAlignedDimension
 13
206.5834463129558
 23
197.3755745415658
 33
0.0000000000000000
 14
203.5834463129641
 24
184.2755745415627
 34
0.0000000000000000
100
AcDbRotatedDimension
1001
ACAD
1000
DSTYLE
1002
{
1070
   173
1070
     1
1070
     6
1000
_OPEN
1070
     7
1000
_OPEN
1070
    41
1040
2.000000
1070
   289
1070
     0
1002
}
  0
DIMENSION
  5
9B
100
AcDbEntity
  8
MAIN0
  6
CONTINUOUS
 62
3
100
AcDbDimension
  2
*D7
 10
203.5834463129641
 20
160.6904609432676
 30
0.0000000000000000
 11
199.9111853790332
 21
161.1904609432676
 31
0.0000000000000000
 70
160
 71
5
 42
5.000000
  3
MAIN001
100
AcDbAlignedDimension
 13
208.5834463129678
 23
184.2755745415636
 33
0.0000000000000000
 14
203.5834463129641
 24
184.2755745415627
 34
0.0000000000000000
100
AcDbRotatedDimension
1001
ACAD
1000
DSTYLE
1002
{
1070
   173
1070
     1
1070
     6
1000
_OPEN
1070
     7
1000
_OPEN
1070
    41
1040
2.000000
1070
   289
1070
     0
1002
}
  0
DIMENSION
  5
A4
100
AcDbEntity
  8
MAIN0
  6
CONTINUOUS
 62
3
100
AcDbDimension
  2
*D8
 10
308.5834463114756
 20
236.3493619275866
 30
0.0000000000000000
 11
303.0609186427819
 21
236.8493619275866
 31
0.0000000000000000
 70
160
 71
5
 42
15.000000
  3
MAIN001
100
AcDbAlignedDimension
 13
323.5834463115230
 23
250.5005161476591
 33
0.0000000000000000
 14
308.5834463114756
 24
220.8755745421402
 34
0.0000000000000000
100
AcDbRotatedDimension
1001
ACAD
1000
DSTYLE
1002
{
1070
   173
1070
     1
1070
     6
1000
_OPEN
1070
     7
1000
_OPEN
1070
    41
1040
2.000000
1002
}
  0
DIMENSION
  5
AC
100
AcDbEntity
  8
MAIN0
  6
CONTINUOUS
 62
3
100
AcDbDimension
  2
*D9
 10
323.5834463115230
 20
236.3493619275866
 30
0.0000000000000000
 11
330.3334463114989
 21
236.8493619275866
 31
0.0000000000000000
 70
32
 71
5
 42
13.500000
  3
MAIN001
100
AcDbAlignedDimension
 13
337.0834463114748
 23
221.8755745420186
 33
0.0000000000000000
 14
323.5834463115230
 24
250.5005161476591
 34
0.0000000000000000
100
AcDbRotatedDimension
1001
ACAD
1000
DSTYLE
1002
{
1070
   173
1070
     1
1070
     6
1000
_OPEN
1070
     7
1000
_OPEN
1070
    41
1040
2.000000
1002
}
  0
LINE
  5
AD
100
AcDbEntity
  8
MAIN0
  6
CENTER
 62
3
100
AcDbLine
 10
326.3883884716653
 20
247.8755745416727
 30
0.0000000000000000
 11
321.0809200474795
 21
247.8755745416256
 31
0.0000000000000000
  0
LINE
  5
AE
100
AcDbEntity
  8
MAIN0
  6
CENTER
 62
3
100
AcDbLine
 10
284.5834463114608
 20
211.6805167018275
 30
0.0000000000000000
 11
284.5834463115078
 21
206.3730482776417
 31
0.0000000000000000
  0
LINE
  5
AF
100
AcDbEntity
  8
MAIN0
  6
CENTER
 62
3
100
AcDbLine
 10
320.7785041513059
 20
169.8755745416229
 30
0.0000000000000000
 11
326.0859725754917
 21
169.8755745416700
 31
0.0000000000000000
  0
LINE
  5
B0
100
AcDbEntity
  8
MAIN0
  6
CENTER
 62
3
100
AcDbLine
 10
362.5834463115106
 20
206.0706323814681
 30
0.0000000000000000
 11
362.5834463114635
 21
211.3781008056539
 31
0.0000000000000000
  0
DIMENSION
  5
B8
100
AcDbEntity
  8
MAIN0
  6
CONTINUOUS
 62
3
100
AcDbDimension
  2
*D10
 10
356.1349523225117
 20
169.8755745416700
 30
0.0000000000000000
 11
355.6349523225117
 21
189.3755745418456
 31
0.0000000000000000
 70
32
 71
5
 42
39.000000
  3
MAIN001
100
AcDbAlignedDimension
 13
365.6992467492156
 23
208.8755745420213
 33
0.0000000000000000
 14
326.0859725754917
 24
169.8755745416700
 34
0.0000000000000000
 50
90.00000000000000
100
AcDbRotatedDimension
1001
ACAD
1000
DSTYLE
1002
{
1070
   173
1070
     1
1070
     6
1000
_OPEN
1070
     7
1000
_OPEN
1070
    41
1040
2.000000
1002
}
  0
DIMENSION
  5
C0
100
AcDbEntity
  8
MAIN0
  6
CONTINUOUS
 62
3
100
AcDbDimension
  2
*D11
 10
356.1349523225117
 20
208.8755745420213
 30
0.0000000000000000
 11
355.6349523225117
 21
228.3755745418470
 31
0.0000000000000000
 70
32
 71
5
 42
39.000000
  3
MAIN001
100
AcDbAlignedDimension
 13
326.3883884716653
 23
247.8755745416727
 33
0.0000000000000000
 14
365.6992467492156
 24
208.8755745420213
 34
0.0000000000000000
 50
90.00000000000000
100
AcDbRotatedDimension
1001
ACAD
1000
DSTYLE
1002
{
1070
   173
1070
     1
1070
     6
1000
_OPEN
1070
     7
1000
_OPEN
1070
    41
1040
2.000000
1002
}
  0
DIMENSION
  5
C9
100
AcDbEntity
  8
MAIN0
  6
CONTINUOUS
 62
3
100
AcDbDimension
  2
*D12
 10
284.5834463115078
 20
159.7986427966886
 30
0.0000000000000000
 11
304.0834463114619
 21
160.2986427966886
 31
0.0000000000000000
 70
32
 71
5
 42
39.000000
  3
MAIN001
100
AcDbAlignedDimension
 13
323.5834463114159
 23
164.4369613062759
 33
0.0000000000000000
 14
284.5834463115078
 24
206.3730482776417
 34
0.0000000000000000
100
AcDbRotatedDimension
1001
ACAD
1000
DSTYLE
1002
{
1070
   173
1070
     1
1070
     6
1000
_OPEN
1070
     7
1000
_OPEN
1070
    41
1040
2.000000
1002
}
  0
DIMENSION
  5
D2
100
AcDbEntity
  8
MAIN0
  6
CONTINUOUS
 62
3
100
AcDbDimension
  2
*D13
 10
323.5834463114159
 20
159.7986427966886
 30
0.0000000000000000
 11
343.0834463114632
 21
160.2986427966886
 31
0.0000000000000000
 70
32
 71
5
 42
39.000000
  3
MAIN001
100
AcDbAlignedDimension
 13
362.5834463115106
 23
206.0706323814681
 33
0.0000000000000000
 14
323.5834463114159
 24
164.4369613062759
 34
0.0000000000000000
100
AcDbRotatedDimension
1001
ACAD
1000
DSTYLE
1002
{
1070
   173
1070
     1
1070
     6
1000
_OPEN
1070
     7
1000
_OPEN
1070
    41
1040
2.000000
1002
}
  0
DIMENSION
  5
DA
100
AcDbEntity
  8
MAIN0
  6
CONTINUOUS
 62
3
100
AcDbDimension
  2
*D14
 10
292.4432273622862
 20
228.8755745421095
 30
0.0000000000000000
 11
291.9432273622862
 21
218.8755745416972
 31
0.0000000000000000
 70
32
 71
5
 42
20.000000
  3
MAIN001
100
AcDbAlignedDimension
 13
282.6738768750873
 23
208.8755745412850
 33
0.0000000000000000
 14
316.5834463114701
 24
228.8755745421095
 34
0.0000000000000000
 50
90.00000000000000
100
AcDbRotatedDimension
1001
ACAD
1000
DSTYLE
1002
{
1070
   173
1070
     1
1070
     6
1000
_OPEN
1070
     7
1000
_OPEN
1070
    41
1040
2.000000
1002
}
  0
DIMENSION
  5
E2
100
AcDbEntity
  8
MAIN0
  6
CONTINUOUS
 62
3
100
AcDbDimension
  2
*D15
 10
292.4432273622862
 20
208.8755745412850
 30
0.0000000000000000
 11
291.9432273622862
 21
196.3755745414806
 31
0.0000000000000000
 70
32
 71
5
 42
25.000000
  3
MAIN001
100
AcDbAlignedDimension
 13
317.2437003505209
 23
183.8755745416761
 33
0.0000000000000000
 14
282.6738768750873
 24
208.8755745412850
 34
0.0000000000000000
 50
90.00000000000000
100
AcDbRotatedDimension
1001
ACAD
1000
DSTYLE
1002
{
1070
   173
1070
     1
1070
     6
1000
_OPEN
1070
     7
1000
_OPEN
1070
    41
1040
2.000000
1002
}
  0
DIMENSION
  5
EC
100
AcDbEntity
  8
MAIN0
  6
CONTINUOUS
 62
3
100
AcDbDimension
  2
*D16
 10
314.3769177329349
 20
188.8409876895568
 30
0.0000000000000000
 11
303.0836484930783
 21
189.2489175144887
 31
0.0000000000000000
 70
162
 71
5
 42
0.523599
  3
MAIN001
100
AcDb2LineAngularDimension
 13
308.5834463114937
 23
198.8755745436233
 33
0.0000000000000000
 14
308.5834463114929
 24
199.8755745436233
 34
0.0000000000000000
 15
308.5834463114937
 25
198.8755745436235
 35
0.0000000000000000
 16
311.5823677937517
 26
187.6834472040104
 36
0.0000000000000000
1001
ACAD
1000
DSTYLE
1002
{
1070
   173
1070
     1
1070
     6
1000
_OPEN
1070
     7
1000
_OPEN
1070
    41
1040
2.000000
1002
}
  0
DIMENSION
  5
F6
100
AcDbEntity
  8
MAIN0
  6
CONTINUOUS
 62
3
100
AcDbDimension
  2
*D17
 10
337.0834463114961
 20
195.8755745414366
 30
0.0000000000000000
 11
344.0953526147520
 21
188.4514436040053
 31
0.0000000000000000
 70
162
 71
5
 42
0.523599
  3
MAIN001
100
AcDb2LineAngularDimension
 13
331.7274559525974
 23
186.5987271149128
 33
0.0000000000000000
 14
337.0834463114961
 24
195.8755745414362
 34
0.0000000000000000
 15
337.0834463114952
 25
196.8755745414357
 35
0.0000000000000000
 16
334.3109816909645
 26
185.5285957153483
 36
0.0000000000000000
1001
ACAD
1000
DSTYLE
1002
{
1070
   173
1070
     1
1070
     6
1000
_OPEN
1070
     7
1000
_OPEN
1070
    41
1040
2.000000
1002
}
  0
INSERT
  5
FD
100
AcDbEntity
  8
MAIN0
  6
CONTINUOUS
 62
3
100
AcDbBlockReference
  2
D18
 10
330.0834463114693
 20
228.8755745420496
 30
0.0000000000000000
 50
0.0000000000000000
  0
INSERT
  5
104
100
AcDbEntity
  8
MAIN0
  6
CONTINUOUS
 62
3
100
AcDbBlockReference
  2
D19
 10
308.5834463114755
 20
220.8755745421401
 30
0.0000000000000000
 50
0.0000000000000000
  0
DIMENSION
  5
10A
100
AcDbEntity
  8
MAIN0
  6
CONTINUOUS
 62
3
100
AcDbDimension
  2
*D20
 10
323.5834463114244
 20
169.8755745416480
 30
0.0000000000000000
 11
320.6250891892651
 21
177.5296482640458
 31
0.0000000000000000
 70
164
 71
5
 42
16.500000
  3
MAIN001
100
AcDbRadialDimension
 15
318.5837503756613
 25
185.5998564187294
 35
0.0000000000000000
1001
ACAD
1000
DSTYLE
1002
{
1070
   173
1070
     1
1070
     6
1000
_OPEN
1070
     7
1000
_OPEN
1070
    41
1040
2.000000
1070
   340
1005
10B
1002
}
  0
DIMENSION
  5
112
100
AcDbEntity
  8
MAIN0
  6
CONTINUOUS
 62
3
100
AcDbDimension
  2
*D21
 10
323.5834463115469
 20
247.8755745416478
 30
0.0000000000000000
 11
318.8612138866475
 21
241.6077753406086
 31
0.0000000000000000
 70
164
 71
5
 42
21.500000
  3
MAIN001
100
AcDbRadialDimension
 15
311.7663526401755
 25
229.9143302316888
 35
0.0000000000000000
1001
ACAD
1000
DSTYLE
1002
{
1070
   173
1070
     1
1070
     6
1000
_OPEN
1070
     7
1000
_OPEN
1070
    41
1040
2.000000
1070
   340
1005
10B
1002
}
  0
DIMENSION
  5
118
100
AcDbEntity
  8
MAIN0
  6
CONTINUOUS
 62
3
100
AcDbDimension
  2
*D22
 10
284.5834463114854
 20
208.8755745413019
 30
0.0000000000000000
 11
301.7843278681331
 21
214.2801358081295
 31
0.0000000000000000
 70
164
 71
5
 42
26.500000
  3
MAIN001
100
AcDbRadialDimension
 15
310.0754436771513
 25
216.1149163835474
 35
0.0000000000000000
1001
ACAD
1000
DSTYLE
1002
{
1070
   173
1070
     1
1070
     6
1000
_OPEN
1070
     7
1000
_OPEN
1070
    41
1040
2.000000
1070
   340
1005
10B
1002
}
  0
DIMENSION
  5
11E
100
AcDbEntity
  8
MAIN0
  6
CONTINUOUS
 62
3
100
AcDbDimension
  2
*D23
 10
362.5834463114854
 20
208.8755745419936
 30
0.0000000000000000
 11
343.9882307938857
 21
213.3503385729147
 31
0.0000000000000000
 70
164
 71
5
 42
31.500000
  3
MAIN001
100
AcDbRadialDimension
 15
331.7755071152087
 25
215.4422238000639
 35
0.0000000000000000
1001
ACAD
1000
DSTYLE
1002
{
1070
   173
1070
     1
1070
     6
1000
_OPEN
1070
     7
1000
_OPEN
1070
    41
1040
2.000000
1070
   272
1070
     0
1070
    47
1040
0.000000
1070
    48
1040
0.0
1070
    71
1070
     1
1070
   340
1005
10B
1002
}
  0
MTEXT
  5
11F
100
AcDbEntity
  8
MAIN0
  6
CONTINUOUS
 62
3
100
AcDbMText
 10
315.3609643932870
 20
259.2479429678969
 30
0.0000000000000000
 40
3.099999904632568
 41
0.0000000000000000
 44
0.6677419652551825
 71
     1
 72
     1
  1
{\H0.81x;{A}}
 11
1.000000000000000
 21
0.0000000000000000
 31
0.0000000000000000
  7
STANDARD
  0
MTEXT
  5
120
100
AcDbEntity
  8
MAIN0
  6
CONTINUOUS
 62
3
100
AcDbMText
 10
315.3609643931431
 20
157.2284692591626
 30
0.0000000000000000
 40
3.099999904632568
 41
0.0000000000000000
 44
0.6677419652551825
 71
     1
 72
     1
  1
{\H0.81x;{A}}
 11
1.000000000000000
 21
0.0000000000000000
 31
0.0000000000000000
  7
STANDARD
  0
INSERT
  5
127
100
AcDbEntity
  8
MAIN0
  6
CONTINUOUS
 62
2
100
AcDbBlockReference
  2
M0
 10
0.0000000000000000
 20
0.0000000000000000
 30
0.0000000000000000
 50
0.0000000000000000
  0
INSERT
  5
12E
100
AcDbEntity
  8
MAIN0
  6
CONTINUOUS
 62
2
100
AcDbBlockReference
  2
M1
 10
0.0000000000000000
 20
0.0000000000000000
 30
0.0000000000000000
 50
0.0000000000000000
  0
DIMENSION
  5
138
100
AcDbEntity
  8
MAIN0
  6
CONTINUOUS
 62
3
100
AcDbDimension
  2
*D24
 10
269.0694891132671
 20
80.41497931825217
 30
0.0000000000000000
 11
268.5694891132671
 21
85.57125132702542
 31
0.0000000000000000
 70
160
 71
5
 42
1.500000
  3
MAIN001
100
AcDbAlignedDimension
 13
261.9534833061545
 23
78.91497931825217
 33
0.0000000000000000
 14
261.9534833061545
 24
80.41497931825217
 34
0.0000000000000000
 50
90.00000000000000
100
AcDbRotatedDimension
1001
ACAD
1000
DSTYLE
1002
{
1070
   173
1070
     1
1070
     6
1000
_DOT
1070
     7
1000
_OPEN
1070
    41
1040
2.000000
1070
   289
1070
     0
1002
}
  0
DIMENSION
  5
141
100
AcDbEntity
  8
MAIN0
  6
CONTINUOUS
 62
3
100
AcDbDimension
  2
*D25
 10
269.0694891132671
 20
78.91497931825217
 30
0.0000000000000000
 11
268.5694891132671
 21
76.41497931825217
 31
0.0000000000000000
 70
32
 71
5
 42
5.000000
  3
MAIN001
100
AcDbAlignedDimension
 13
261.9534833061545
 23
73.91497931825217
 33
0.0000000000000000
 14
261.9534833061545
 24
78.91497931825217
 34
0.0000000000000000
 50
90.00000000000000
100
AcDbRotatedDimension
1001
ACAD
1000
DSTYLE
1002
{
1070
   173
1070
     1
1070
     6
1000
_DOT
1070
     7
1000
_DOT
1070
    41
1040
1.000000
1002
}
  0
DIMENSION
  5
14B
100
AcDbEntity
  8
MAIN0
  6
CONTINUOUS
 62
3
100
AcDbDimension
  2
*D26
 10
269.0694891132671
 20
73.91497931825217
 30
0.0000000000000000
 11
268.5694891132671
 21
65.78434194381913
 31
0.0000000000000000
 70
160
 71
5
 42
1.500000
  3
MAIN001
100
AcDbAlignedDimension
 13
261.9534833061545
 23
72.41497931825217
 33
0.0000000000000000
 14
261.9534833061545
 24
73.91497931825217
 34
0.0000000000000000
 50
90.00000000000000
100
AcDbRotatedDimension
1001
ACAD
1000
DSTYLE
1002
{
1070
   173
1070
     1
1070
     6
1000
_OPEN
1070
     7
1000
_DOT
1070
    41
1040
2.000000
1070
   289
1070
     0
1002
}
  0
POINT
  5
14C
100
AcDbEntity
  8
MAIN0
  6
CONTINUOUS
 62
3
100
AcDbPoint
 10
239.5296077708252
 20
88.91497931827540
 30
0.0000000000000000
  0
POINT
  5
14D
100
AcDbEntity
  8
MAIN0
  6
CONTINUOUS
 62
3
100
AcDbPoint
 10
179.5296077708879
 20
93.91497931907388
 30
0.0000000000000000
  0
POINT
  5
14E
100
AcDbEntity
  8
MAIN0
  6
CONTINUOUS
 62
3
100
AcDbPoint
 10
119.5296077721874
 20
98.91497931987162
 30
0.0000000000000000
  0
POINT
  5
14F
100
AcDbEntity
  8
MAIN0
  6
CONTINUOUS
 62
3
100
AcDbPoint
 10
59.52960777214304
 20
103.9149793198719
 30
0.0000000000000000
  0
INSERT
  5
157
100
AcDbEntity
  8
MAIN0
  6
CONTINUOUS
 62
3
100
AcDbBlockReference
  2
D27
 10
261.9534833097113
 20
78.91497931819242
 30
0.0000000000000000
 50
0.0000000000000000
  0
INSERT
  5
15F
100
AcDbEntity
  8
MAIN0
  6
CONTINUOUS
 62
3
100
AcDbBlockReference
  2
D28
 10
261.9534833096717
 20
73.91497931819245
 30
0.0000000000000000
 50
0.0000000000000000
  0
INSERT
  5
167
100
AcDbEntity
  8
MAIN0
  6
CONTINUOUS
 62
3
100
AcDbBlockReference
  2
D29
 10
261.9534833097113
 20
78.91497931819251
 30
0.0000000000000000
 50
0.0000000000000000
  0
INSERT
  5
16F
100
AcDbEntity
  8
MAIN0
  6
CONTINUOUS
 62
3
100
AcDbBlockReference
  2
D30
 10
261.9534833096717
 20
73.91497931819248
 30
0.0000000000000000
 50
0.0000000000000000
  0
INSERT
  5
177
100
AcDbEntity
  8
MAIN0
  6
CONTINUOUS
 62
3
100
AcDbBlockReference
  2
D31
 10
54.19145906563932
 20
78.91497931983389
 30
0.0000000000000000
 50
0.0000000000000000
  0
INSERT
  5
17F
100
AcDbEntity
  8
MAIN0
  6
CONTINUOUS
 62
3
100
AcDbBlockReference
  2
D32
 10
54.19145906559984
 20
73.91497931983389
 30
0.0000000000000000
 50
0.0000000000000000
  0
INSERT
  5
187
100
AcDbEntity
  8
MAIN0
  6
CONTINUOUS
 62
3
100
AcDbBlockReference
  2
D33
 10
54.19145906563935
 20
78.91497931983395
 30
0.0000000000000000
 50
0.0000000000000000
  0
INSERT
  5
18F
100
AcDbEntity
  8
MAIN0
  6
CONTINUOUS
 62
3
100
AcDbBlockReference
  2
D34
 10
54.19145906559984
 20
73.91497931983392
 30
0.0000000000000000
 50
0.0000000000000000
  0
POINT
  5
190
100
AcDbEntity
  8
MAIN0
  6
CONTINUOUS
 62
3
100
AcDbPoint
 10
229.5296077708252
 20
88.91497931827540
 30
0.0000000000000000
  0
POINT
  5
191
100
AcDbEntity
  8
MAIN0
  6
CONTINUOUS
 62
3
100
AcDbPoint
 10
221.5296077708252
 20
88.91497931827540
 30
0.0000000000000000
  0
POINT
  5
192
100
AcDbEntity
  8
MAIN0
  6
CONTINUOUS
 62
3
100
AcDbPoint
 10
167.5296077708879
 20
93.91497931907388
 30
0.0000000000000000
  0
POINT
  5
193
100
AcDbEntity
  8
MAIN0
  6
CONTINUOUS
 62
3
100
AcDbPoint
 10
159.5296077708879
 20
93.91497931907388
 30
0.0000000000000000
  0
POINT
  5
194
100
AcDbEntity
  8
MAIN0
  6
CONTINUOUS
 62
3
100
AcDbPoint
 10
109.5296077721874
 20
98.91497931987162
 30
0.0000000000000000
  0
POINT
  5
195
100
AcDbEntity
  8
MAIN0
  6
CONTINUOUS
 62
3
100
AcDbPoint
 10
101.5296077721874
 20
98.91497931987162
 30
0.0000000000000000
  0
POINT
  5
196
100
AcDbEntity
  8
MAIN0
  6
CONTINUOUS
 62
3
100
AcDbPoint
 10
51.52960777214304
 20
103.9149793198719
 30
0.0000000000000000
  0
POINT
  5
197
100
AcDbEntity
  8
MAIN0
  6
CONTINUOUS
 62
3
100
AcDbPoint
 10
43.52960777214304
 20
103.9149793198719
 30
0.0000000000000000
  0
POINT
  5
198
100
AcDbEntity
  8
MAIN0
  6
CONTINUOUS
 62
3
100
AcDbPoint
 10
337.0834463114961
 20
195.8755745414361
 30
0.0000000000000000
  0
POINT
  5
199
100
AcDbEntity
  8
MAIN0
  6
CONTINUOUS
 62
3
100
AcDbPoint
 10
308.5834463114937
 20
198.8755745436235
 30
0.0000000000000000
  0
DIMENSION
  5
1A1
100
AcDbEntity
  8
MAIN0
  6
CONTINUOUS
 62
3
100
AcDbDimension
  2
*D35
 10
345.1819487010681
 20
195.8755745414361
 30
0.0000000000000000
 11
344.6819487010681
 21
202.3755745417287
 31
0.0000000000000000
 70
32
 71
5
 42
13.000000
  3
MAIN001
100
AcDbAlignedDimension
 13
365.6992467492156
 23
208.8755745420213
 33
0.0000000000000000
 14
337.0834463114961
 24
195.8755745414361
 34
0.0000000000000000
 50
90.00000000000000
100
AcDbRotatedDimension
1001
ACAD
1000
DSTYLE
1002
{
1070
   173
1070
     1
1070
     6
1000
_OPEN
1070
     7
1000
_OPEN
1070
    41
1040
2.000000
1002
}
  0
DIMENSION
  5
1A9
100
AcDbEntity
  8
MAIN0
  6
CONTINUOUS
 62
3
100
AcDbDimension
  2
*D36
 10
300.9727419102740
 20
198.8755745436235
 30
0.0000000000000000
 11
300.4727419102740
 21
203.8755745424543
 31
0.0000000000000000
 70
32
 71
5
 42
10.000000
  3
MAIN001
100
AcDbAlignedDimension
 13
282.6738768750873
 23
208.8755745412850
 33
0.0000000000000000
 14
308.5834463114937
 24
198.8755745436235
 34
0.0000000000000000
 50
90.00000000000000
100
AcDbRotatedDimension
1001
ACAD
1000
DSTYLE
1002
{
1070
   173
1070
     1
1070
     6
1000
_OPEN
1070
     7
1000
_OPEN
1070
    41
1040
2.000000
1002
}
  0
DIMENSION
  5
1B3
100
AcDbEntity
  8
MAIN0
  6
CONTINUOUS
 62
3
100
AcDbDimension
  2
*D37
 10
80.28339029066621
 20
208.8755745414581
 30
0.0000000000000000
 11
79.78339029066621
 21
204.6255745413866
 31
0.0000000000000000
 70
32
 71
5
 42
8.500000
  3
MAIN001
100
AcDbAlignedDimension
 13
100.3398742905069
 23
200.3755745413151
 33
0.0000000000000000
 14
85.59430330750013
 24
208.8755745414581
 34
0.0000000000000000
 50
90.00000000000000
100
AcDbRotatedDimension
1001
ACAD
1000
DSTYLE
1002
{
1070
   173
1070
     1
1070
     6
1000
_DOT
1070
     7
1000
_OPEN
1070
    41
1040
2.000000
1070
   289
1070
     0
1002
}
  0
DIMENSION
  5
1BC
100
AcDbEntity
  8
MAIN0
  6
CONTINUOUS
 62
3
100
AcDbDimension
  2
*D38
 10
80.28339029066621
 20
200.3755745413151
 30
0.0000000000000000
 11
79.78339029066621
 21
195.5428357285279
 31
0.0000000000000000
 70
160
 71
5
 42
1.000000
  3
MAIN001
100
AcDbAlignedDimension
 13
100.3398742905069
 23
199.3755745413151
 33
0.0000000000000000
 14
100.3398742905069
 24
200.3755745413151
 34
0.0000000000000000
 50
90.00000000000000
100
AcDbRotatedDimension
1001
ACAD
1000
DSTYLE
1002
{
1070
   173
1070
     1
1070
     6
1000
_OPEN
1070
     7
1000
_DOT
1070
    41
1040
2.000000
1070
   289
1070
     0
1002
}
  0
DIMENSION
  5
1C5
100
AcDbEntity
  8
MAIN0
  6
CONTINUOUS
 62
3
100
AcDbDimension
  2
*D39
 10
223.5834463129342
 20
258.5438680267931
 30
0.0000000000000000
 11
204.8334463129385
 21
259.0438680267931
 31
0.0000000000000000
 70
32
 71
5
  1
\A1;（37.5）
 42
37.500000
  3
MAIN001
100
AcDbAlignedDimension
 13
186.0834463129428
 23
213.4755745416530
 33
0.0000000000000000
 14
223.5834463129342
 24
225.9755745416295
 34
0.0000000000000000
100
AcDbRotatedDimension
1001
ACAD
1000
DSTYLE
1002
{
1070
   173
1070
     1
1070
     6
1000
_OPEN
1070
     7
1000
_OPEN
1070
    41
1040
2.000000
1070
   340
1005
10B
1002
}
  0
DIMENSION
  5
1CE
100
AcDbEntity
  8
MAIN0
  6
CONTINUOUS
 62
3
100
AcDbDimension
  2
*D40
 10
195.3334463129424
 20
213.8755745416265
 30
0.0000000000000000
 11
193.0124845451093
 21
224.8664289278039
 31
0.0000000000000000
 70
162
 71
5
 42
1.570796
  3
MAIN001
100
AcDb2LineAngularDimension
 13
198.8334463129425
 23
213.8755745416256
 33
0.0000000000000000
 14
198.1263395317564
 24
213.1684677604386
 34
0.0000000000000000
 15
196.0405530941293
 25
213.1684677604403
 35
0.0000000000000000
 16
197.0834463129370
 26
225.0010035143718
 36
0.0000000000000000
1001
ACAD
1000
DSTYLE
1002
{
1070
   173
1070
     1
1070
     6
1000
_OPEN
1070
     7
1000
_OPEN
1070
    41
1040
2.000000
1002
}
  0
LINE
  5
1CF
100
AcDbEntity
  8
MAIN0
  6
CENTER
 62
3
100
AcDbLine
 10
85.59430330750013
 20
208.8755745414581
 30
0.0000000000000000
 11
122.6143052856618
 21
208.8755745411837
 31
0.0000000000000000
  0
LINE
  5
1D0
100
AcDbEntity
  8
MAIN0
  6
CENTER
 62
3
100
AcDbLine
 10
103.5834463143797
 20
232.6907521798282
 30
0.0000000000000000
 11
103.5834463145365
 21
180.8778394613647
 31
0.0000000000000000
  0
ARC
  5
1D1
100
AcDbEntity
  8
MAIN0
  6
CONTINUOUS
 62
3
100
AcDbCircle
 10
94.08344631445192
 20
208.8755745413820
 30
0.0000000000000000
 40
2.000000000000000
100
AcDbArc
 50
90.00000000008345
 51
270.0000000000835
  0
ARC
  5
1D2
100
AcDbEntity
  8
MAIN0
  6
CONTINUOUS
 62
3
100
AcDbCircle
 10
95.08344631445192
 20
208.8755745413835
 30
0.0000000000000000
 40
2.000000000000000
100
AcDbArc
 50
270.0000000000835
 51
450.0000000000835
  0
LINE
  5
1D3
100
AcDbEntity
  8
MAIN0
  6
CONTINUOUS
 62
3
100
AcDbLine
 10
95.08344631447119
 20
210.8755745407031
 30
0.0000000000000000
 11
94.08344631447119
 21
210.8755745407128
 31
0.0000000000000000
  0
LINE
  5
1D4
100
AcDbEntity
  8
MAIN0
  6
CONTINUOUS
 62
3
100
AcDbLine
 10
95.08344631443704
 20
206.8755745413791
 30
0.0000000000000000
 11
94.08344631443704
 21
206.8755745413865
 31
0.0000000000000000
  0
ARC
  5
1D5
100
AcDbEntity
  8
MAIN0
  6
CONTINUOUS
 62
3
100
AcDbCircle
 10
103.5834463145091
 20
218.3755745413247
 30
0.0000000000000000
 40
2.000000000000000
100
AcDbArc
 50
8.345775484160269e-011
 51
180.0000000000835
  0
LINE
  5
1D6
100
AcDbEntity
  8
MAIN0
  6
CONTINUOUS
 62
3
100
AcDbLine
 10
105.5834463138300
 20
217.3755745413057
 30
0.0000000000000000
 11
105.5834463138396
 21
218.3755745413057
 31
0.0000000000000000
  0
ARC
  5
1D7
100
AcDbEntity
  8
MAIN0
  6
CONTINUOUS
 62
3
100
AcDbCircle
 10
103.5834463145105
 20
217.3755745413247
 30
0.0000000000000000
 40
2.000000000000000
100
AcDbArc
 50
180.0000000000835
 51
360.0000000000835
  0
LINE
  5
1D8
100
AcDbEntity
  8
MAIN0
  6
CONTINUOUS
 62
3
100
AcDbLine
 10
101.5834463145062
 20
217.3755745413395
 30
0.0000000000000000
 11
101.5834463145136
 21
218.3755745413395
 31
0.0000000000000000
  0
ARC
  5
1D9
100
AcDbEntity
  8
MAIN0
  6
CONTINUOUS
 62
3
100
AcDbCircle
 10
113.0834463144517
 20
208.8755745412676
 30
0.0000000000000000
 40
2.000000000000000
100
AcDbArc
 50
270.0000000000835
 51
450.0000000000835
  0
LINE
  5
1DA
100
AcDbEntity
  8
MAIN0
  6
CONTINUOUS
 62
3
100
AcDbLine
 10
112.0834463144327
 20
206.8755745419467
 30
0.0000000000000000
 11
113.0834463144327
 21
206.8755745419370
 31
0.0000000000000000
  0
ARC
  5
1DB
100
AcDbEntity
  8
MAIN0
  6
CONTINUOUS
 62
3
100
AcDbCircle
 10
112.0834463144517
 20
208.8755745412662
 30
0.0000000000000000
 40
2.000000000000000
100
AcDbArc
 50
90.00000000008345
 51
270.0000000000835
  0
LINE
  5
1DC
100
AcDbEntity
  8
MAIN0
  6
CONTINUOUS
 62
3
100
AcDbLine
 10
112.0834463144667
 20
210.8755745412707
 30
0.0000000000000000
 11
113.0834463144667
 21
210.8755745412633
 31
0.0000000000000000
  0
ARC
  5
1DD
100
AcDbEntity
  8
MAIN0
  6
CONTINUOUS
 62
3
100
AcDbCircle
 10
103.5834463143946
 20
199.3755745413249
 30
0.0000000000000000
 40
2.000000000000000
100
AcDbArc
 50
180.0000000000835
 51
360.0000000000835
  0
LINE
  5
1DE
100
AcDbEntity
  8
MAIN0
  6
CONTINUOUS
 62
3
100
AcDbLine
 10
101.5834463150734
 20
200.3755745413439
 30
0.0000000000000000
 11
101.5834463150638
 21
199.3755745413439
 31
0.0000000000000000
  0
LINE
  5
1DF
100
AcDbEntity
  8
MAIN0
  6
CENTER
 62
3
100
AcDbLine
 10
100.3398742905069
 20
200.3755745413151
 30
0.0000000000000000
 11
107.3711595634704
 21
200.3755745413364
 31
0.0000000000000000
  0
ARC
  5
1E0
100
AcDbEntity
  8
MAIN0
  6
CONTINUOUS
 62
3
100
AcDbCircle
 10
103.5834463143931
 20
200.3755745413249
 30
0.0000000000000000
 40
2.000000000000000
100
AcDbArc
 50
8.345775484160269e-011
 51
180.0000000000835
  0
LINE
  5
1E1
100
AcDbEntity
  8
MAIN0
  6
CONTINUOUS
 62
3
100
AcDbLine
 10
105.5834463143973
 20
200.3755745413099
 30
0.0000000000000000
 11
105.5834463143899
 21
199.3755745413099
 31
0.0000000000000000
  0
CIRCLE
  5
1E2
100
AcDbEntity
  8
MAIN0
  6
CONTINUOUS
 62
3
100
AcDbCircle
 10
103.5834463144519
 20
208.8755745413249
 30
0.0000000000000000
 40
5.000000000000000
  0
LINE
  5
1E3
100
AcDbEntity
  8
MAIN0
  6
CONTINUOUS
 62
3
100
AcDbLine
 10
118.5834463144443
 20
220.8755745418390
 30
0.0000000000000000
 11
118.5834463144583
 21
198.8755745433221
 31
0.0000000000000000
  0
LINE
  5
1E4
100
AcDbEntity
  8
MAIN0
  6
CONTINUOUS
 62
3
100
AcDbLine
 10
90.08344631444369
 20
221.8755745416759
 30
0.0000000000000000
 11
90.08344631446032
 21
195.8755745410938
 31
0.0000000000000000
  0
LINE
  5
1E5
100
AcDbEntity
  8
MAIN0
  6
CONTINUOUS
 62
3
100
AcDbLine
 10
110.5834463144382
 20
228.8755745417966
 30
0.0000000000000000
 11
97.08344631443890
 21
228.8755745417170
 31
0.0000000000000000
  0
LINE
  5
1E6
100
AcDbEntity
  8
MAIN0
  6
CONTINUOUS
 62
3
100
AcDbLine
 10
109.9231922754530
 20
183.8755745413623
 30
0.0000000000000000
 11
97.01164954460160
 21
183.8755745412863
 31
0.0000000000000000
  0
LINE
  5
1E7
100
AcDbEntity
  8
MAIN0
  6
CONTINUOUS
 62
3
100
AcDbLine
 10
109.9231922754530
 20
183.8755745413623
 30
0.0000000000000000
 11
118.5834463144583
 21
198.8755745433223
 31
0.0000000000000000
  0
LINE
  5
1E8
100
AcDbEntity
  8
MAIN0
  6
CONTINUOUS
 62
3
100
AcDbLine
 10
97.01164954460175
 20
183.8755745412859
 30
0.0000000000000000
 11
90.08344631446013
 21
195.8755745410937
 31
0.0000000000000000
  0
LINE
  5
1E9
100
AcDbEntity
  8
MAIN0
  6
CONTINUOUS
 62
3
100
AcDbLine
 10
118.5834463144444
 20
220.8755745418389
 30
0.0000000000000000
 11
110.5834463144347
 21
228.8755745417965
 31
0.0000000000000000
  0
LINE
  5
1EA
100
AcDbEntity
  8
MAIN0
  6
CONTINUOUS
 62
3
100
AcDbLine
 10
97.08344631443910
 20
228.8755745417171
 30
0.0000000000000000
 11
90.08344631444368
 21
221.8755745416758
 31
0.0000000000000000
  0
ARC
  5
1EB
100
AcDbEntity
  8
MAIN0
  6
HIDDEN
 62
3
100
AcDbCircle
 10
103.5834463143337
 20
247.8755745413247
 30
0.0000000000000000
 40
21.50000000000000
100
AcDbArc
 50
249.2744939683303
 51
291.7549641616361
  0
ARC
  5
1EC
100
AcDbEntity
  8
MAIN0
  6
HIDDEN
 62
3
100
AcDbCircle
 10
103.5834463145699
 20
169.8755745413249
 30
0.0000000000000000
 40
16.49999999999989
100
AcDbArc
 50
65.24944986279553
 51
115.4509478989332
  0
ARC
  5
1ED
100
AcDbEntity
  8
MAIN0
  6
HIDDEN
 62
3
100
AcDbCircle
 10
64.58344631445192
 20
208.8755745416137
 30
0.0000000000000000
 40
31.50000000000006
100
AcDbArc
 50
329.6512211148299
 51
388.7041057864650
  0
ARC
  5
1EE
100
AcDbEntity
  8
MAIN0
  6
HIDDEN
 62
3
100
AcDbCircle
 10
142.5834463144519
 20
208.8755745410357
 30
0.0000000000000000
 40
26.49999999999994
100
AcDbArc
 50
154.9123721585252
 51
203.4413273685493
  0
LINE
  5
1EF
100
AcDbEntity
  8
MAIN0
  6
CENTER
 62
3
100
AcDbLine
 10
59.52960777251320
 20
62.18173714883048
 30
0.0000000000000000
 11
59.52960777187749
 21
133.8610379258154
 31
0.0000000000000000
  0
LINE
  5
1F0
100
AcDbEntity
  8
MAIN0
  6
CENTER
 62
3
100
AcDbLine
 10
84.33806799665764
 20
111.4149793198329
 30
0.0000000000000000
 11
27.44910657003675
 21
111.4149793199222
 31
0.0000000000000000
  0
LINE
  5
1F1
100
AcDbEntity
  8
MAIN0
  6
CONTINUOUS
 62
3
100
AcDbLine
 10
71.52960777256891
 20
126.4149793198818
 30
0.0000000000000000
 11
49.52960777405207
 21
126.4149793198637
 31
0.0000000000000000
  0
LINE
  5
1F2
100
AcDbEntity
  8
MAIN0
  6
CONTINUOUS
 62
3
100
AcDbLine
 10
72.52960777244729
 20
97.91497931988258
 30
0.0000000000000000
 11
46.52960777186527
 21
97.91497931986132
 31
0.0000000000000000
  0
LINE
  5
1F3
100
AcDbEntity
  8
MAIN0
  6
CONTINUOUS
 62
3
100
AcDbLine
 10
79.52960777253827
 20
118.4149793198873
 30
0.0000000000000000
 11
79.52960777247836
 21
104.9149793198881
 31
0.0000000000000000
  0
LINE
  5
1F4
100
AcDbEntity
  8
MAIN0
  6
CONTINUOUS
 62
3
100
AcDbLine
 10
34.52960777210464
 20
117.7547252808365
 30
0.0000000000000000
 11
34.52960777204746
 21
104.8431825499851
 31
0.0000000000000000
  0
LINE
  5
1F5
100
AcDbEntity
  8
MAIN0
  6
CONTINUOUS
 62
3
100
AcDbLine
 10
34.52960777210478
 20
117.7547252808366
 30
0.0000000000000000
 11
49.52960777405207
 21
126.4149793198637
 31
0.0000000000000000
  0
LINE
  5
1F6
100
AcDbEntity
  8
MAIN0
  6
CONTINUOUS
 62
3
100
AcDbLine
 10
34.52960777204726
 20
104.8431825499852
 30
0.0000000000000000
 11
46.52960777186507
 21
97.91497931986115
 31
0.0000000000000000
  0
LINE
  5
1F7
100
AcDbEntity
  8
MAIN0
  6
CONTINUOUS
 62
3
100
AcDbLine
 10
71.52960777256891
 20
126.4149793198817
 30
0.0000000000000000
 11
79.52960777253807
 21
118.4149793198837
 31
0.0000000000000000
  0
LINE
  5
1F8
100
AcDbEntity
  8
MAIN0
  6
CONTINUOUS
 62
3
100
AcDbLine
 10
79.52960777247824
 20
104.9149793198881
 30
0.0000000000000000
 11
72.52960777244709
 21
97.91497931988249
 31
0.0000000000000000
  0
ARC
  5
1F9
100
AcDbEntity
  8
MAIN0
  6
CONTINUOUS
 62
3
100
AcDbCircle
 10
98.52960777207643
 20
111.4149793198106
 30
0.0000000000000000
 40
21.50000000000000
100
AcDbArc
 50
158.2450358384474
 51
200.7255060317532
  0
ARC
  5
1FA
100
AcDbEntity
  8
MAIN0
  6
CONTINUOUS
 62
3
100
AcDbCircle
 10
20.52960777207653
 20
111.4149793199330
 30
0.0000000000000000
 40
16.49999999999989
100
AcDbArc
 50
334.5490521011503
 51
384.7505501372879
  0
ARC
  5
1FB
100
AcDbEntity
  8
MAIN0
  6
CONTINUOUS
 62
3
100
AcDbCircle
 10
59.52960777242237
 20
72.41497931987186
 30
0.0000000000000000
 40
31.50000000000006
100
AcDbArc
 50
61.29589421361852
 51
120.3487788852536
  0
ARC
  5
1FC
100
AcDbEntity
  8
MAIN0
  6
CONTINUOUS
 62
3
100
AcDbCircle
 10
59.52960777173070
 20
150.4149793198719
 30
0.0000000000000000
 40
26.49999999999994
100
AcDbArc
 50
246.5586726315342
 51
295.0876278415582
  0
LINE
  5
1FD
100
AcDbEntity
  8
MAIN0
  6
CENTER
 62
3
100
AcDbLine
 10
119.5296077718926
 20
132.1563152276786
 30
0.0000000000000000
 11
119.5296077724590
 21
68.28911513802905
 31
0.0000000000000000
  0
LINE
  5
1FE
100
AcDbEntity
  8
MAIN0
  6
CENTER
 62
3
100
AcDbLine
 10
92.09467827367703
 20
111.4149793199148
 30
0.0000000000000000
 11
151.0293029681106
 21
111.4149793198223
 31
0.0000000000000000
  0
LINE
  5
1FF
100
AcDbEntity
  8
MAIN0
  6
CONTINUOUS
 62
3
100
AcDbLine
 10
107.5296077715842
 20
96.41497931986172
 30
0.0000000000000000
 11
129.5296077701010
 21
96.41497931987979
 31
0.0000000000000000
  0
LINE
  5
200
100
AcDbEntity
  8
MAIN0
  6
CONTINUOUS
 62
3
100
AcDbLine
 10
106.5296077717058
 20
124.9149793198610
 30
0.0000000000000000
 11
132.5296077722878
 21
124.9149793198822
 31
0.0000000000000000
  0
LINE
  5
201
100
AcDbEntity
  8
MAIN0
  6
CONTINUOUS
 62
3
100
AcDbLine
 10
99.52960777161481
 20
104.4149793198562
 30
0.0000000000000000
 11
99.52960777167473
 21
117.9149793198555
 31
0.0000000000000000
  0
LINE
  5
202
100
AcDbEntity
  8
MAIN0
  6
CONTINUOUS
 62
3
100
AcDbLine
 10
144.5296077720485
 20
105.0752333589070
 30
0.0000000000000000
 11
144.5296077721056
 21
117.9867760897584
 31
0.0000000000000000
  0
LINE
  5
203
100
AcDbEntity
  8
MAIN0
  6
CONTINUOUS
 62
3
100
AcDbLine
 10
144.5296077720483
 20
105.0752333589070
 30
0.0000000000000000
 11
129.5296077701011
 21
96.41497931987993
 31
0.0000000000000000
  0
LINE
  5
204
100
AcDbEntity
  8
MAIN0
  6
CONTINUOUS
 62
3
100
AcDbLine
 10
144.5296077721059
 20
117.9867760897585
 30
0.0000000000000000
 11
132.5296077722880
 21
124.9149793198826
 31
0.0000000000000000
  0
LINE
  5
205
100
AcDbEntity
  8
MAIN0
  6
CONTINUOUS
 62
3
100
AcDbLine
 10
107.5296077715842
 20
96.41497931986208
 30
0.0000000000000000
 11
99.52960777161501
 21
104.4149793198601
 31
0.0000000000000000
  0
LINE
  5
206
100
AcDbEntity
  8
MAIN0
  6
CONTINUOUS
 62
3
100
AcDbLine
 10
99.52960777167471
 20
117.9149793198554
 30
0.0000000000000000
 11
106.5296077717059
 21
124.9149793198610
 31
0.0000000000000000
  0
ARC
  5
207
100
AcDbEntity
  8
MAIN0
  6
CONTINUOUS
 62
3
100
AcDbCircle
 10
80.52960777207665
 20
111.4149793199330
 30
0.0000000000000000
 40
21.50000000000000
100
AcDbArc
 50
338.2450358384474
 51
380.7255060317532
  0
ARC
  5
208
100
AcDbEntity
  8
MAIN0
  6
CONTINUOUS
 62
3
100
AcDbCircle
 10
158.5296077720765
 20
111.4149793198106
 30
0.0000000000000000
 40
16.49999999999989
100
AcDbArc
 50
154.5490521011503
 51
204.7505501372878
  0
ARC
  5
209
100
AcDbEntity
  8
MAIN0
  6
CONTINUOUS
 62
3
100
AcDbCircle
 10
119.5296077717307
 20
150.4149793198716
 30
0.0000000000000000
 40
31.50000000000006
100
AcDbArc
 50
241.2958942136185
 51
300.3487788852536
  0
ARC
  5
20A
100
AcDbEntity
  8
MAIN0
  6
CONTINUOUS
 62
3
100
AcDbCircle
 10
119.5296077724224
 20
72.41497931987169
 30
0.0000000000000000
 40
26.49999999999994
100
AcDbArc
 50
66.55867263153422
 51
115.0876278415582
  0
LINE
  5
20B
100
AcDbEntity
  8
MAIN0
  6
CENTER
 62
3
100
AcDbLine
 10
160.9893247257821
 20
111.4149793189093
 30
0.0000000000000000
 11
198.9942606723757
 21
111.4149793192463
 31
0.0000000000000000
  0
LINE
  5
20C
100
AcDbEntity
  8
MAIN0
  6
CENTER
 62
3
100
AcDbLine
 10
179.5296077708519
 20
70.96297310044116
 30
0.0000000000000000
 11
179.5296077709600
 21
139.8962855534144
 31
0.0000000000000000
  0
LINE
  5
20D
100
AcDbEntity
  8
MAIN0
  6
CONTINUOUS
 62
3
100
AcDbLine
 10
194.5296077709254
 20
99.41497931858139
 30
0.0000000000000000
 11
194.5296077709073
 21
121.4149793170982
 31
0.0000000000000000
  0
LINE
  5
20E
100
AcDbEntity
  8
MAIN0
  6
CONTINUOUS
 62
3
100
AcDbLine
 10
166.0296077709261
 20
98.41497931870302
 30
0.0000000000000000
 11
166.0296077709049
 21
124.4149793192851
 31
0.0000000000000000
  0
LINE
  5
20F
100
AcDbEntity
  8
MAIN0
  6
CONTINUOUS
 62
3
100
AcDbLine
 10
186.5296077709309
 20
91.41497931861200
 30
0.0000000000000000
 11
173.0296077709317
 21
91.41497931867191
 31
0.0000000000000000
  0
LINE
  5
210
100
AcDbEntity
  8
MAIN0
  6
CONTINUOUS
 62
3
100
AcDbLine
 10
185.8693537318802
 20
136.4149793190456
 30
0.0000000000000000
 11
172.9578110010287
 21
136.4149793191028
 31
0.0000000000000000
  0
LINE
  5
211
100
AcDbEntity
  8
MAIN0
  6
CONTINUOUS
 62
3
100
AcDbLine
 10
185.8693537318801
 20
136.4149793190454
 30
0.0000000000000000
 11
194.5296077709072
 21
121.4149793170982
 31
0.0000000000000000
  0
LINE
  5
212
100
AcDbEntity
  8
MAIN0
  6
CONTINUOUS
 62
3
100
AcDbLine
 10
172.9578110010288
 20
136.4149793191029
 30
0.0000000000000000
 11
166.0296077709048
 21
124.4149793192852
 31
0.0000000000000000
  0
LINE
  5
213
100
AcDbEntity
  8
MAIN0
  6
CONTINUOUS
 62
3
100
AcDbLine
 10
194.5296077709253
 20
99.41497931858146
 30
0.0000000000000000
 11
186.5296077709272
 21
91.41497931861221
 31
0.0000000000000000
  0
LINE
  5
214
100
AcDbEntity
  8
MAIN0
  6
CONTINUOUS
 62
3
100
AcDbLine
 10
173.0296077709317
 20
91.41497931867190
 30
0.0000000000000000
 11
166.0296077709260
 21
98.41497931870305
 31
0.0000000000000000
  0
ARC
  5
215
100
AcDbEntity
  8
MAIN0
  6
CONTINUOUS
 62
3
100
AcDbCircle
 10
179.5296077708541
 20
72.41497931907389
 30
0.0000000000000000
 40
21.50000000000000
100
AcDbArc
 50
68.24503583844741
 51
110.7255060317532
  0
ARC
  5
216
100
AcDbEntity
  8
MAIN0
  6
CONTINUOUS
 62
3
100
AcDbCircle
 10
179.5296077709766
 20
150.4149793190738
 30
0.0000000000000000
 40
16.49999999999989
100
AcDbArc
 50
244.5490521011503
 51
294.7505501372879
  0
ARC
  5
217
100
AcDbEntity
  8
MAIN0
  6
CONTINUOUS
 62
3
100
AcDbCircle
 10
140.5296077709154
 20
111.4149793187279
 30
0.0000000000000000
 40
31.50000000000006
100
AcDbArc
 50
331.2958942136185
 51
390.3487788852535
  0
ARC
  5
218
100
AcDbEntity
  8
MAIN0
  6
CONTINUOUS
 62
3
100
AcDbCircle
 10
218.5296077709155
 20
111.4149793194196
 30
0.0000000000000000
 40
26.49999999999994
100
AcDbArc
 50
156.5586726315342
 51
205.0876278415582
  0
LINE
  5
219
100
AcDbEntity
  8
MAIN0
  6
CENTER
 62
3
100
AcDbLine
 10
258.3183811799795
 20
111.4149793184421
 30
0.0000000000000000
 11
217.7947418514285
 21
111.4149793180827
 31
0.0000000000000000
  0
LINE
  5
21A
100
AcDbEntity
  8
MAIN0
  6
CENTER
 62
3
100
AcDbLine
 10
239.5296077708998
 20
136.5073262183744
 30
0.0000000000000000
 11
239.5296077707957
 21
70.16942977627599
 31
0.0000000000000000
  0
LINE
  5
21B
100
AcDbEntity
  8
MAIN0
  6
CONTINUOUS
 62
3
100
AcDbLine
 10
224.5296077708505
 20
123.4149793187678
 30
0.0000000000000000
 11
224.5296077708685
 21
101.4149793202509
 31
0.0000000000000000
  0
LINE
  5
21C
100
AcDbEntity
  8
MAIN0
  6
CONTINUOUS
 62
3
100
AcDbLine
 10
253.0296077708497
 20
124.4149793186463
 30
0.0000000000000000
 11
253.0296077708709
 21
98.41497931806418
 31
0.0000000000000000
  0
LINE
  5
21D
100
AcDbEntity
  8
MAIN0
  6
CONTINUOUS
 62
3
100
AcDbLine
 10
232.5296077708450
 20
131.4149793187372
 30
0.0000000000000000
 11
246.0296077708442
 21
131.4149793186773
 31
0.0000000000000000
  0
LINE
  5
21E
100
AcDbEntity
  8
MAIN0
  6
CONTINUOUS
 62
3
100
AcDbLine
 10
233.1898618098957
 20
86.41497931830355
 30
0.0000000000000000
 11
246.1014045407471
 21
86.41497931824637
 31
0.0000000000000000
  0
LINE
  5
21F
100
AcDbEntity
  8
MAIN0
  6
CONTINUOUS
 62
3
100
AcDbLine
 10
233.1898618098956
 20
86.41497931830375
 30
0.0000000000000000
 11
224.5296077708685
 21
101.4149793202510
 31
0.0000000000000000
  0
LINE
  5
220
100
AcDbEntity
  8
MAIN0
  6
CONTINUOUS
 62
3
100
AcDbLine
 10
246.1014045407470
 20
86.41497931824627
 30
0.0000000000000000
 11
253.0296077708710
 21
98.41497931806410
 31
0.0000000000000000
  0
LINE
  5
221
100
AcDbEntity
  8
MAIN0
  6
CONTINUOUS
 62
3
100
AcDbLine
 10
224.5296077708505
 20
123.4149793187679
 30
0.0000000000000000
 11
232.5296077708485
 21
131.4149793187369
 31
0.0000000000000000
  0
LINE
  5
222
100
AcDbEntity
  8
MAIN0
  6
CONTINUOUS
 62
3
100
AcDbLine
 10
246.0296077708440
 20
131.4149793186770
 30
0.0000000000000000
 11
253.0296077708496
 21
124.4149793186459
 31
0.0000000000000000
  0
ARC
  5
223
100
AcDbEntity
  8
MAIN0
  6
CONTINUOUS
 62
3
100
AcDbCircle
 10
239.5296077709217
 20
150.4149793182752
 30
0.0000000000000000
 40
21.50000000000000
100
AcDbArc
 50
248.2450358384474
 51
290.7255060317532
  0
ARC
  5
224
100
AcDbEntity
  8
MAIN0
  6
CONTINUOUS
 62
3
100
AcDbCircle
 10
239.5296077707992
 20
72.41497931827553
 30
0.0000000000000000
 40
16.49999999999989
100
AcDbArc
 50
64.54905210115031
 51
114.7505501372879
  0
ARC
  5
225
100
AcDbEntity
  8
MAIN0
  6
CONTINUOUS
 62
3
100
AcDbCircle
 10
278.5296077708604
 20
111.4149793186213
 30
0.0000000000000000
 40
31.50000000000006
100
AcDbArc
 50
151.2958942136185
 51
210.3487788852536
  0
ARC
  5
226
100
AcDbEntity
  8
MAIN0
  6
CONTINUOUS
 62
3
100
AcDbCircle
 10
200.5296077708603
 20
111.4149793179297
 30
0.0000000000000000
 40
26.49999999999994
100
AcDbArc
 50
336.5586726315342
 51
385.0876278415582
  0
LINE
  5
227
100
AcDbEntity
  8
MAIN0
  6
CENTER
 62
3
100
AcDbLine
 10
100.3398742905069
 20
199.3755745413151
 30
0.0000000000000000
 11
107.3711595634704
 21
199.3755745413364
 31
0.0000000000000000
  0
LINE
  5
228
100
AcDbEntity
  8
MAIN0
  6
CENTER
 62
3
100
AcDbLine
 10
365.6992467492156
 20
208.8755745420213
 30
0.0000000000000000
 11
282.6738768750873
 21
208.8755745412850
 31
0.0000000000000000
  0
LINE
  5
229
100
AcDbEntity
  8
MAIN0
  6
CONTINUOUS
 62
3
100
AcDbLine
 10
308.5834463114756
 20
220.8755745421402
 30
0.0000000000000000
 11
308.5834463114937
 21
198.8755745436233
 31
0.0000000000000000
  0
LINE
  5
22A
100
AcDbEntity
  8
MAIN0
  6
CONTINUOUS
 62
3
100
AcDbLine
 10
337.0834463114748
 20
221.8755745420186
 30
0.0000000000000000
 11
337.0834463114961
 21
195.8755745414366
 31
0.0000000000000000
  0
LINE
  5
22B
100
AcDbEntity
  8
MAIN0
  6
CONTINUOUS
 62
3
100
AcDbLine
 10
316.5834463114701
 20
228.8755745421095
 30
0.0000000000000000
 11
330.0834463114694
 21
228.8755745420496
 31
0.0000000000000000
  0
LINE
  5
22C
100
AcDbEntity
  8
MAIN0
  6
CONTINUOUS
 62
3
100
AcDbLine
 10
317.2437003505209
 20
183.8755745416761
 30
0.0000000000000000
 11
330.1552430813723
 21
183.8755745416189
 31
0.0000000000000000
  0
LINE
  5
22D
100
AcDbEntity
  8
MAIN0
  6
CONTINUOUS
 62
3
100
AcDbLine
 10
317.2437003505209
 20
183.8755745416760
 30
0.0000000000000000
 11
308.5834463114937
 21
198.8755745436235
 31
0.0000000000000000
  0
LINE
  5
22E
100
AcDbEntity
  8
MAIN0
  6
CONTINUOUS
 62
3
100
AcDbLine
 10
330.1552430813721
 20
183.8755745416185
 30
0.0000000000000000
 11
337.0834463114962
 21
195.8755745414364
 31
0.0000000000000000
  0
LINE
  5
22F
100
AcDbEntity
  8
MAIN0
  6
CONTINUOUS
 62
3
100
AcDbLine
 10
308.5834463114755
 20
220.8755745421401
 30
0.0000000000000000
 11
316.5834463114736
 21
228.8755745421094
 31
0.0000000000000000
  0
LINE
  5
230
100
AcDbEntity
  8
MAIN0
  6
CONTINUOUS
 62
3
100
AcDbLine
 10
330.0834463114692
 20
228.8755745420496
 30
0.0000000000000000
 11
337.0834463114749
 21
221.8755745420185
 31
0.0000000000000000
  0
ARC
  5
231
100
AcDbEntity
  8
MAIN0
  6
CONTINUOUS
 62
3
100
AcDbCircle
 10
323.5834463115469
 20
247.8755745416478
 30
0.0000000000000000
 40
21.50000000000000
100
AcDbArc
 50
248.2450358384474
 51
290.7255060317532
  0
ARC
  5
232
100
AcDbEntity
  8
MAIN0
  6
CONTINUOUS
 62
3
100
AcDbCircle
 10
323.5834463114243
 20
169.8755745416480
 30
0.0000000000000000
 40
16.49999999999989
100
AcDbArc
 50
64.54905210115031
 51
114.7505501372879
  0
ARC
  5
233
100
AcDbEntity
  8
MAIN0
  6
CONTINUOUS
 62
3
100
AcDbCircle
 10
362.5834463114856
 20
208.8755745419936
 30
0.0000000000000000
 40
31.50000000000006
100
AcDbArc
 50
151.2958942136185
 51
210.3487788852536
  0
ARC
  5
234
100
AcDbEntity
  8
MAIN0
  6
CONTINUOUS
 62
3
100
AcDbCircle
 10
284.5834463114855
 20
208.8755745413019
 30
0.0000000000000000
 40
26.49999999999994
100
AcDbArc
 50
336.5586726315342
 51
385.0876278415582
  0
LINE
  5
235
100
AcDbEntity
  8
MAIN0
  6
CENTER
 62
3
100
AcDbLine
 10
323.5834463114285
 20
172.4472540898523
 30
0.0000000000000000
 11
323.5834463113995
 21
153.9495026548475
 31
0.0000000000000000
  0
LINE
  5
236
100
AcDbEntity
  8
MAIN0
  6
CENTER
 62
3
100
AcDbLine
 10
323.5834463115536
 20
252.2233392021138
 30
0.0000000000000000
 11
323.5834463114354
 21
176.8163000312545
 31
0.0000000000000000
  0
LINE
  5
237
100
AcDbEntity
  8
MAIN0
  6
CONTINUOUS
 62
3
100
AcDbLine
 10
206.5834463129516
 20
202.3755745415658
 30
0.0000000000000000
 11
203.5834463129516
 21
202.3755745415658
 31
0.0000000000000000
  0
LINE
  5
238
100
AcDbEntity
  8
MAIN0
  6
CONTINUOUS
 62
3
100
AcDbLine
 10
206.5834463129558
 20
197.3755745415658
 30
0.0000000000000000
 11
203.5834463129558
 21
197.3755745415658
 31
0.0000000000000000
  0
LINE
  5
239
100
AcDbEntity
  8
MAIN0
  6
CONTINUOUS
 62
3
100
AcDbLine
 10
206.5834463129558
 20
197.3755745415658
 30
0.0000000000000000
 11
206.5834463129516
 21
202.3755745415658
 31
0.0000000000000000
  0
POINT
  5
23A
100
AcDbEntity
  8
MAIN0
  6
CONTINUOUS
 62
3
100
AcDbPoint
 10
195.3334463129417
 20
213.8755745416268
 30
0.0000000000000000
  0
POINT
  5
23B
100
AcDbEntity
  8
MAIN0
  6
CONTINUOUS
 62
3
100
AcDbPoint
 10
198.8334463128218
 20
213.8755745415057
 30
0.0000000000000000
  0
POINT
  5
23C
100
AcDbEntity
  8
MAIN0
  6
CONTINUOUS
 62
3
100
AcDbPoint
 10
203.5834463129464
 20
208.8755745415658
 30
0.0000000000000000
  0
LINE
  5
23D
100
AcDbEntity
  8
MAIN0
  6
CONTINUOUS
 62
3
100
AcDbLine
 10
208.5834463129659
 20
186.3755745416299
 30
0.0000000000000000
 11
223.1834463129628
 21
186.3755745416297
 31
0.0000000000000000
  0
LINE
  5
23E
100
AcDbEntity
  8
MAIN0
  6
CONTINUOUS
 62
3
100
AcDbLine
 10
208.5834463129291
 20
226.3755745416298
 30
0.0000000000000000
 11
223.1834463129339
 21
226.3755745416296
 31
0.0000000000000000
  0
LINE
  5
23F
100
AcDbEntity
  8
MAIN0
  6
CONTINUOUS
 62
3
100
AcDbLine
 10
208.1834463129268
 20
228.8755745415673
 30
0.0000000000000000
 11
208.5834463129272
 21
228.4755745415672
 31
0.0000000000000000
  0
LINE
  5
240
100
AcDbEntity
  8
MAIN0
  6
CONTINUOUS
 62
3
100
AcDbLine
 10
223.1834463129339
 20
226.3755745416295
 30
0.0000000000000000
 11
223.5834463129342
 21
225.9755745416295
 31
0.0000000000000000
  0
LINE
  5
241
100
AcDbEntity
  8
MAIN0
  6
CONTINUOUS
 62
3
100
AcDbLine
 10
223.5834463129625
 20
186.7755745416296
 30
0.0000000000000000
 11
223.1834463129628
 21
186.3755745416296
 31
0.0000000000000000
  0
LINE
  5
242
100
AcDbEntity
  8
MAIN0
  6
CONTINUOUS
 62
3
100
AcDbLine
 10
208.5834463129678
 20
184.2755745415637
 30
0.0000000000000000
 11
208.1834463129682
 21
183.8755745415636
 31
0.0000000000000000
  0
LINE
  5
243
100
AcDbEntity
  8
MAIN0
  6
CONTINUOUS
 62
3
100
AcDbLine
 10
208.5834463129678
 20
184.2755745415636
 30
0.0000000000000000
 11
208.5834463129659
 21
186.3755745416299
 31
0.0000000000000000
  0
LINE
  5
244
100
AcDbEntity
  8
MAIN0
  6
CONTINUOUS
 62
3
100
AcDbLine
 10
208.5834463129291
 20
226.3755745416297
 30
0.0000000000000000
 11
208.5834463129272
 21
228.4755745415671
 31
0.0000000000000000
  0
LINE
  5
245
100
AcDbEntity
  8
MAIN0
  6
HIDDEN
 62
3
100
AcDbLine
 10
208.5834463129353
 20
224.0045946318572
 30
0.0000000000000000
 11
223.5834463129357
 21
224.0045946318431
 31
0.0000000000000000
  0
LINE
  5
246
100
AcDbEntity
  8
MAIN0
  6
HIDDEN
 62
3
100
AcDbLine
 10
208.5834463129567
 20
192.9598059638294
 30
0.0000000000000000
 11
223.5834463129580
 21
192.9598059638167
 31
0.0000000000000000
  0
LINE
  5
247
100
AcDbEntity
  8
MAIN0
  6
HIDDEN
 62
3
100
AcDbLine
 10
208.5834463129353
 20
224.0045946318572
 30
0.0000000000000000
 11
208.5834463129567
 21
192.9598059638293
 31
0.0000000000000000
  0
LINE
  5
248
100
AcDbEntity
  8
MAIN0
  6
CONTINUOUS
 62
3
100
AcDbLine
 10
305.5296077721715
 20
147.4149793182691
 30
0.0000000000000000
 11
305.5296077721970
 21
55.51035397322752
 31
0.0000000000000000
  0
LINE
  5
249
100
AcDbEntity
  8
MAIN0
  6
CONTINUOUS
 62
3
100
AcDbLine
 10
305.5296077721723
 20
147.4149793182691
 30
0.0000000000000000
 11
23.77390840022093
 21
147.4149793182691
 31
0.0000000000000000
  0
MTEXT
  5
24A
100
AcDbEntity
  8
MAIN0
  6
CONTINUOUS
 62
3
100
AcDbMText
 10
137.3651196165436
 20
44.03201221063711
 30
0.0000000000000000
 40
3.099999904632568
 41
0.0000000000000000
 44
0.6677419652551825
 71
     1
 72
     1
  1
{\H0.94x;{NTS309＋NTS-QM309へ取り付けた場合の把握範囲}}
 11
1.000000000000000
 21
0.0000000000000000
 31
0.0000000000000000
  7
KNJYOKO
  0
LINE
  5
24B
100
AcDbEntity
  8
MAIN0
  6
CONTINUOUS
 62
3
100
AcDbLine
 10
135.6766811112762
 20
39.93201230617956
 30
0.0000000000000000
 11
228.8746869189716
 21
39.93201230617956
 31
0.0000000000000000
  0
POINT
  5
24C
100
AcDbEntity
  8
MAIN0
  6
CONTINUOUS
 62
3
100
AcDbPoint
 10
137.3651196165436
 20
40.93201230600454
 30
0.0000000000000000
  0
POINT
  5
24D
100
AcDbEntity
  8
MAIN0
  6
CONTINUOUS
 62
3
100
AcDbPoint
 10
147.3651196165436
 20
35.93201230600454
 30
0.0000000000000000
  0
MTEXT
  5
24E
100
AcDbEntity
  8
MAIN0
  6
CONTINUOUS
 62
3
100
AcDbMText
 10
147.3651196165436
 20
38.93201230600454
 30
0.0000000000000000
 40
3.000000000000000
 41
0.0000000000000000
 44
0.8000000000000000
 71
     1
 72
     1
  1
{\H0.63x;{GRIPPING AREA OF NTS311 WITH NTS-QM311}}
 11
1.000000000000000
 21
0.0000000000000000
 31
0.0000000000000000
  7
STANDARD
  0
POINT
  5
24F
100
AcDbEntity
  8
MAIN0
  6
CONTINUOUS
 62
3
100
AcDbPoint
 10
276.8977192231284
 20
72.66250468511299
 30
0.0000000000000000
  0
POINT
  5
250
100
AcDbEntity
  8
MAIN0
  6
CONTINUOUS
 62
3
100
AcDbPoint
 10
276.8977192231284
 20
76.16250468511299
 30
0.0000000000000000
  0
POINT
  5
251
100
AcDbEntity
  8
MAIN0
  6
CONTINUOUS
 62
3
100
AcDbPoint
 10
276.8977192231284
 20
80.16250468511299
 30
0.0000000000000000
  0
MTEXT
  5
252
100
AcDbEntity
  8
MAIN0
  6
CONTINUOUS
 62
3
100
AcDbMText
 10
276.8977192231284
 20
79.16250468511299
 30
0.0000000000000000
 40
3.000000000000000
 41
0.0000000000000000
 44
0.8000000000000000
 71
     1
 72
     1
  1
{\H0.63x;{RECOMMENDED}}
 11
1.000000000000000
 21
0.0000000000000000
 31
0.0000000000000000
  7
STANDARD
  0
MTEXT
  5
253
100
AcDbEntity
  8
MAIN0
  6
CONTINUOUS
 62
3
100
AcDbMText
 10
276.8977192231284
 20
75.66250468511299
 30
0.0000000000000000
 40
3.000000000000000
 41
0.0000000000000000
 44
0.8000000000000000
 71
     1
 72
     1
  1
{\H0.63x;{GRIPPING RANGE}}
 11
1.000000000000000
 21
0.0000000000000000
 31
0.0000000000000000
  7
STANDARD
  0
LEADER
  5
254
100
AcDbEntity
  8
MAIN0
  6
CONTINUOUS
 62
3
100
AcDbLeader
  3
MAIN001
 73
     0
 74
     0
 75
     1
 40
3.099999904632568
 41
20.50100047683719
 76
     3
 10
270.4200671810988
 20
75.63152661401557
 30
0.0000000000000000
 10
274.9717192789184
 20
79.66250468511299
 30
0.0000000000000000
 10
276.8967192231285
 20
79.66250468511299
 30
0.0000000000000000
340
255
213
-0.001000000000033197
223
-0.5000000000000000
233
0.0000000000000000
1001
ACAD
1000
DSTYLE
1002
{
1070
   147
1040
0.0
1070
    77
1070
     1
1070
   341
1005
13
1070
    41
1040
2.000000
1002
}
  0
MTEXT
  5
255
102
{ACAD_REACTORS
330
254
102
}
100
AcDbEntity
  8
MAIN0
  6
CONTINUOUS
 62
3
100
AcDbMText
 10
276.8977192231285
 20
83.26250458974556
 30
0.0000000000000000
 40
3.099999904632568
 41
0.0000000000000000
 44
0.6677419652551825
 71
     1
 72
     1
  1
{\H0.93x;{推奨把握領域}}
 11
1.000000000000000
 21
0.0000000000000000
 31
0.0000000000000000
  7
KNJYOKO
  0
POINT
  5
256
100
AcDbEntity
  8
MAIN0
  6
CONTINUOUS
 62
3
100
AcDbPoint
 10
267.4321145398667
 20
90.37053991596439
 30
0.0000000000000000
  0
MTEXT
  5
257
100
AcDbEntity
  8
MAIN0
  6
CONTINUOUS
 62
3
100
AcDbMText
 10
267.4321145398667
 20
93.37053991596439
 30
0.0000000000000000
 40
3.000000000000000
 41
0.0000000000000000
 44
0.8000000000000000
 71
     1
 72
     1
  1
{\H0.63x;{AT JAW OPENED}}
 11
1.000000000000000
 21
0.0000000000000000
 31
0.0000000000000000
  7
STANDARD
  0
MTEXT
  5
258
100
AcDbEntity
  8
MAIN0
  6
CONTINUOUS
 62
3
100
AcDbMText
 10
267.4321145398667
 20
96.87053991596439
 30
0.0000000000000000
 40
3.000000000000000
 41
0.0000000000000000
 44
0.8000000000000000
 71
     1
 72
     1
  1
{\H0.61x;{GRIPPER'S CENTER}}
 11
1.000000000000000
 21
0.0000000000000000
 31
0.0000000000000000
  7
STANDARD
  0
POINT
  5
259
100
AcDbEntity
  8
MAIN0
  6
CONTINUOUS
 62
3
100
AcDbPoint
 10
267.4321145398667
 20
93.87053991596439
 30
0.0000000000000000
  0
POINT
  5
25A
100
AcDbEntity
  8
MAIN0
  6
CONTINUOUS
 62
3
100
AcDbPoint
 10
267.4321145398667
 20
97.87053991596439
 30
0.0000000000000000
  0
LEADER
  5
25B
100
AcDbEntity
  8
MAIN0
  6
CONTINUOUS
 62
3
100
AcDbLeader
  3
MAIN001
 73
     0
 74
     0
 75
     1
 40
3.099999904632568
 41
30.94100071287153
 76
     3
 10
253.2546129020761
 20
72.41497931837716
 30
0.0000000000000000
 10
265.5061145956566
 20
97.37053991596440
 30
0.0000000000000000
 10
267.4311145398667
 20
97.37053991596440
 30
0.0000000000000000
340
25C
213
0.0000000000000000
223
-0.5000000000000000
233
0.0000000000000000
1001
ACAD
1000
DSTYLE
1002
{
1070
   147
1040
0.0
1070
    77
1070
     1
1070
   341
1005
13
1070
    41
1040
2.000000
1002
}
  0
MTEXT
  5
25C
102
{ACAD_REACTORS
330
25B
102
}
100
AcDbEntity
  8
MAIN0
  6
CONTINUOUS
 62
3
100
AcDbMText
 10
267.4321145398667
 20
100.9705398205970
 30
0.0000000000000000
 40
3.099999904632568
 41
0.0000000000000000
 44
0.6677419652551825
 71
     1
 72
     1
  1
{\H0.94x;{グリッパ開時の中心}}
 11
1.000000000000000
 21
0.0000000000000000
 31
0.0000000000000000
  7
KNJYOKO
  0
POINT
  5
25D
100
AcDbEntity
  8
MAIN0
  6
CONTINUOUS
 62
3
100
AcDbPoint
 10
266.6202737684266
 20
115.1534604625227
 30
0.0000000000000000
  0
POINT
  5
25E
100
AcDbEntity
  8
MAIN0
  6
CONTINUOUS
 62
3
100
AcDbPoint
 10
266.6202737684266
 20
111.1534604625227
 30
0.0000000000000000
  0
MTEXT
  5
25F
100
AcDbEntity
  8
MAIN0
  6
CONTINUOUS
 62
3
100
AcDbMText
 10
266.6202737684266
 20
114.1534604625227
 30
0.0000000000000000
 40
3.000000000000000
 41
0.0000000000000000
 44
0.8000000000000000
 71
     1
 72
     1
  1
{\H0.61x;{GRIPPER'S CENTER}}
 11
1.000000000000000
 21
0.0000000000000000
 31
0.0000000000000000
  7
STANDARD
  0
POINT
  5
260
100
AcDbEntity
  8
MAIN0
  6
CONTINUOUS
 62
3
100
AcDbPoint
 10
266.6202737684266
 20
107.6534604625227
 30
0.0000000000000000
  0
MTEXT
  5
261
100
AcDbEntity
  8
MAIN0
  6
CONTINUOUS
 62
3
100
AcDbMText
 10
266.6202737684266
 20
110.6534604625227
 30
0.0000000000000000
 40
3.000000000000000
 41
0.0000000000000000
 44
0.8000000000000000
 71
     1
 72
     1
  1
{\H0.63x;{AT JAW CLOSED}}
 11
1.000000000000000
 21
0.0000000000000000
 31
0.0000000000000000
  7
STANDARD
  0
LEADER
  5
262
100
AcDbEntity
  8
MAIN0
  6
CONTINUOUS
 62
3
100
AcDbLeader
  3
MAIN001
 73
     0
 74
     0
 75
     1
 40
3.099999904632568
 41
30.94100071287153
 76
     3
 10
252.5938977483749
 20
80.41497931837682
 30
0.0000000000000000
 10
264.6942738242166
 20
114.6534604625228
 30
0.0000000000000000
 10
266.6192737684266
 20
114.6534604625228
 30
0.0000000000000000
340
263
213
-0.001000000000033197
223
-0.5000000000000000
233
0.0000000000000000
1001
ACAD
1000
DSTYLE
1002
{
1070
   147
1040
0.0
1070
    77
1070
     1
1070
   341
1005
13
1070
    41
1040
2.000000
1002
}
  0
MTEXT
  5
263
102
{ACAD_REACTORS
330
262
102
}
100
AcDbEntity
  8
MAIN0
  6
CONTINUOUS
 62
3
100
AcDbMText
 10
266.6202737684267
 20
118.2534603671553
 30
0.0000000000000000
 40
3.099999904632568
 41
0.0000000000000000
 44
0.6677419652551825
 71
     1
 72
     1
  1
{\H0.94x;{グリッパ閉時の中心}}
 11
1.000000000000000
 21
0.0000000000000000
 31
0.0000000000000000
  7
KNJYOKO
  0
MTEXT
  5
264
100
AcDbEntity
  8
MAIN0
  6
CONTINUOUS
 62
3
100
AcDbMText
 10
168.4438029304574
 20
190.0579516516785
 30
0.0000000000000000
 40
4.000000000000000
 41
0.0000000000000000
 44
0.6749999999999999
 71
     1
 72
     1
  1
{\H0.93x;{断面Ａ－Ａ}}
 11
1.000000000000000
 21
0.0000000000000000
 31
0.0000000000000000
  7
KNJYOKO
  0
LINE
  5
265
100
AcDbEntity
  8
MAIN0
  6
CONTINUOUS
 62
3
100
AcDbLine
 10
167.4900776618795
 20
185.5579516517095
 30
0.0000000000000000
 11
191.2075769850819
 21
185.5579516517062
 31
0.0000000000000000
  0
POINT
  5
266
100
AcDbEntity
  8
MAIN0
  6
CONTINUOUS
 62
3
100
AcDbPoint
 10
168.4438029304574
 20
186.0579516516785
 30
0.0000000000000000
  0
POINT
  5
267
100
AcDbEntity
  8
MAIN0
  6
CONTINUOUS
 62
3
100
AcDbPoint
 10
169.4438029304574
 20
182.0579516516785
 30
0.0000000000000000
  0
MTEXT
  5
268
100
AcDbEntity
  8
MAIN0
  6
CONTINUOUS
 62
3
100
AcDbMText
 10
169.4438029304574
 20
185.0579516516785
 30
0.0000000000000000
 40
3.000000000000000
 41
0.0000000000000000
 44
0.8000000000000000
 71
     1
 72
     1
  1
{\H0.63x;{Section A-A}}
 11
1.000000000000000
 21
0.0000000000000000
 31
0.0000000000000000
  7
STANDARD
  0
LINE
  5
269
100
AcDbEntity
  8
MAIN0
  6
CONTINUOUS
 62
3
100
AcDbLine
 10
203.9834463129641
 20
183.8755745415630
 30
0.0000000000000000
 11
208.1834463129682
 21
183.8755745415636
 31
0.0000000000000000
  0
LINE
  5
26A
100
AcDbEntity
  8
MAIN0
  6
CONTINUOUS
 62
3
100
AcDbLine
 10
223.5834463129624
 20
186.7755745416297
 30
0.0000000000000000
 11
223.5834463129342
 21
225.9755745416295
 31
0.0000000000000000
  0
LINE
  5
26B
100
AcDbEntity
  8
MAIN0
  6
CONTINUOUS
 62
3
100
AcDbLine
 10
203.9834463129323
 20
228.8755745415677
 30
0.0000000000000000
 11
208.1834463129268
 21
228.8755745415672
 31
0.0000000000000000
  0
LINE
  5
26C
100
AcDbEntity
  8
MAIN0
  6
CONTINUOUS
 62
3
100
AcDbLine
 10
203.5834463129420
 20
214.2755745415073
 30
0.0000000000000000
 11
203.5834463129323
 21
228.4755745415677
 31
0.0000000000000000
  0
LINE
  5
26D
100
AcDbEntity
  8
MAIN0
  6
CONTINUOUS
 62
3
100
AcDbLine
 10
198.8334463128221
 20
203.8755745416259
 30
0.0000000000000000
 11
203.1834463129502
 21
203.8755745416247
 31
0.0000000000000000
  0
LINE
  5
26E
100
AcDbEntity
  8
MAIN0
  6
CONTINUOUS
 62
3
100
AcDbLine
 10
186.4834463127899
 20
203.8755745416304
 30
0.0000000000000000
 11
195.3334463130645
 21
203.8755745416268
 31
0.0000000000000000
  0
LINE
  5
26F
100
AcDbEntity
  8
MAIN0
  6
CONTINUOUS
 62
3
100
AcDbLine
 10
197.7905530941310
 20
212.8326813228128
 30
0.0000000000000000
 11
198.8334463129425
 21
213.8755745416256
 31
0.0000000000000000
  0
ARC
  5
270
100
AcDbEntity
  8
MAIN0
  6
CONTINUOUS
 62
3
100
AcDbCircle
 10
197.0834463129441
 20
213.5397881039988
 30
0.0000000000000000
 40
1.000000000000000
100
AcDbArc
 50
225.0000000000339
 51
315.0000000000351
  0
LINE
  5
271
100
AcDbEntity
  8
MAIN0
  6
CONTINUOUS
 62
3
100
AcDbLine
 10
196.3763395317579
 20
212.8326813228121
 30
0.0000000000000000
 11
195.3334463129424
 21
213.8755745416265
 31
0.0000000000000000
  0
LINE
  5
272
100
AcDbEntity
  8
MAIN0
  6
CONTINUOUS
 62
3
100
AcDbLine
 10
186.4834463129198
 20
213.8755745416304
 30
0.0000000000000000
 11
195.3334463129419
 21
213.8755745416268
 31
0.0000000000000000
  0
LINE
  5
273
100
AcDbEntity
  8
MAIN0
  6
CONTINUOUS
 62
3
100
AcDbLine
 10
186.0834463129427
 20
213.4755745416530
 30
0.0000000000000000
 11
186.4834463129425
 21
213.8755745416531
 31
0.0000000000000000
  0
LINE
  5
274
100
AcDbEntity
  8
MAIN0
  6
CONTINUOUS
 62
3
100
AcDbLine
 10
186.0834463129424
 20
204.2755745414784
 30
0.0000000000000000
 11
186.4834463129424
 21
203.8755745414781
 31
0.0000000000000000
  0
LINE
  5
275
100
AcDbEntity
  8
MAIN0
  6
CONTINUOUS
 62
3
100
AcDbLine
 10
198.8334463128219
 20
213.8755745415057
 30
0.0000000000000000
 11
203.1834463129423
 21
213.8755745415070
 31
0.0000000000000000
  0
LINE
  5
276
100
AcDbEntity
  8
MAIN0
  6
CONTINUOUS
 62
3
100
AcDbLine
 10
203.5834463129320
 20
228.4755745415680
 30
0.0000000000000000
 11
203.9834463129319
 21
228.8755745415681
 31
0.0000000000000000
  0
LINE
  5
277
100
AcDbEntity
  8
MAIN0
  6
CONTINUOUS
 62
3
100
AcDbLine
 10
203.5834463129641
 20
184.2755745415627
 30
0.0000000000000000
 11
203.9834463129644
 21
183.8755745415627
 31
0.0000000000000000
  0
LINE
  5
278
100
AcDbEntity
  8
MAIN0
  6
CENTER
 62
3
100
AcDbLine
 10
197.0834463129463
 20
210.0678015245243
 30
0.0000000000000000
 11
197.0834463129463
 21
215.3083585913705
 31
0.0000000000000000
  0
ARC
  5
279
100
AcDbEntity
  8
MAIN0
  6
CONTINUOUS
 62
3
100
AcDbCircle
 10
203.1834463129501
 20
203.4755745416247
 30
0.0000000000000000
 40
0.4000000000000000
100
AcDbArc
 50
0.0000000000000000
 51
90.00000000000000
  0
ARC
  5
27A
100
AcDbEntity
  8
MAIN0
  6
CONTINUOUS
 62
3
100
AcDbCircle
 10
203.1834463129421
 20
214.2755745415071
 30
0.0000000000000000
 40
0.4000000000000000
100
AcDbArc
 50
270.0000000000000
 51
360.0000000000000
  0
LINE
  5
27B
100
AcDbEntity
  8
MAIN0
  6
CONTINUOUS
 62
3
100
AcDbLine
 10
203.5834463129641
 20
184.2755745415627
 30
0.0000000000000000
 11
203.5834463129501
 21
203.4755745416251
 31
0.0000000000000000
  0
LINE
  5
27C
100
AcDbEntity
  8
MAIN0
  6
CENTER
 62
3
100
AcDbLine
 10
230.5296077707503
 20
80.41497931844074
 30
0.0000000000000000
 11
261.9534833097231
 21
80.41497931819251
 31
0.0000000000000000
  0
LINE
  5
27D
100
AcDbEntity
  8
MAIN0
  6
CENTER
 62
3
100
AcDbLine
 10
222.5296077706950
 20
72.41497931850395
 30
0.0000000000000000
 11
261.9534833096599
 21
72.41497931819245
 31
0.0000000000000000
  0
LINE
  5
27E
100
AcDbEntity
  8
MAIN0
  6
CONTINUOUS
 62
3
100
AcDbLine
 10
222.5296077706950
 20
73.91497931850395
 30
0.0000000000000000
 11
261.9534833096717
 21
73.91497931819245
 31
0.0000000000000000
  0
LINE
  5
27F
100
AcDbEntity
  8
MAIN0
  6
CENTER
 62
3
100
AcDbLine
 10
168.5296077707744
 20
80.41497931893062
 30
0.0000000000000000
 11
224.4296078661178
 21
80.41497931848895
 31
0.0000000000000000
  0
LINE
  5
280
100
AcDbEntity
  8
MAIN0
  6
CONTINUOUS
 62
3
100
AcDbLine
 10
160.5296077707233
 20
73.91497931899377
 30
0.0000000000000000
 11
216.4296078660624
 21
73.91497931855210
 31
0.0000000000000000
  0
LINE
  5
281
100
AcDbEntity
  8
MAIN0
  6
CENTER
 62
3
100
AcDbLine
 10
160.5296077707233
 20
72.41497931899383
 30
0.0000000000000000
 11
216.4296078660624
 21
72.41497931855221
 31
0.0000000000000000
  0
LINE
  5
282
100
AcDbEntity
  8
MAIN0
  6
CENTER
 62
3
100
AcDbLine
 10
54.19145906565126
 20
80.41497931983389
 30
0.0000000000000000
 11
104.4296078674049
 21
80.41497931943701
 31
0.0000000000000000
  0
LINE
  5
283
100
AcDbEntity
  8
MAIN0
  6
CENTER
 62
3
100
AcDbLine
 10
110.5296077720375
 20
80.41497931938883
 30
0.0000000000000000
 11
162.4296078661418
 21
80.41497931897882
 31
0.0000000000000000
  0
LINE
  5
284
100
AcDbEntity
  8
MAIN0
  6
CONTINUOUS
 62
3
100
AcDbLine
 10
54.19145906559982
 20
73.91497931983392
 30
0.0000000000000000
 11
96.42960786734901
 21
73.91497931950025
 31
0.0000000000000000
  0
LINE
  5
285
100
AcDbEntity
  8
MAIN0
  6
CONTINUOUS
 62
3
100
AcDbLine
 10
102.5296077719816
 20
73.91497931945199
 30
0.0000000000000000
 11
154.4296078660908
 21
73.91497931904192
 31
0.0000000000000000
  0
LINE
  5
286
100
AcDbEntity
  8
MAIN0
  6
CENTER
 62
3
100
AcDbLine
 10
54.19145906558796
 20
72.41497931983392
 30
0.0000000000000000
 11
96.42960786734901
 21
72.41497931950025
 31
0.0000000000000000
  0
LINE
  5
287
100
AcDbEntity
  8
MAIN0
  6
CENTER
 62
3
100
AcDbLine
 10
102.5296077719816
 20
72.41497931945199
 30
0.0000000000000000
 11
154.4296078660907
 21
72.41497931904203
 31
0.0000000000000000
  0
LINE
  5
288
100
AcDbEntity
  8
MAIN0
  6
CONTINUOUS
 62
3
100
AcDbLine
 10
230.5296077707503
 20
78.91497931844074
 30
0.0000000000000000
 11
261.9534833097113
 21
78.91497931819245
 31
0.0000000000000000
  0
LINE
  5
289
100
AcDbEntity
  8
MAIN0
  6
CONTINUOUS
 62
3
100
AcDbLine
 10
168.5296077707744
 20
78.91497931893062
 30
0.0000000000000000
 11
224.4296078661178
 21
78.91497931848895
 31
0.0000000000000000
  0
LINE
  5
28A
100
AcDbEntity
  8
MAIN0
  6
CONTINUOUS
 62
3
100
AcDbLine
 10
54.19145906563941
 20
78.91497931983389
 30
0.0000000000000000
 11
104.4296078674049
 21
78.91497931943701
 31
0.0000000000000000
  0
LINE
  5
28B
100
AcDbEntity
  8
MAIN0
  6
CONTINUOUS
 62
3
100
AcDbLine
 10
110.5296077720375
 20
78.91497931938883
 30
0.0000000000000000
 11
162.4296078661418
 21
78.91497931897882
 31
0.0000000000000000
  0
LINE
  5
28C
100
AcDbEntity
  8
MAIN0
  6
CONTINUOUS
 62
3
100
AcDbLine
 10
186.0834463129499
 20
204.2755745414710
 30
0.0000000000000000
 11
186.0834463129428
 21
213.4755745416530
 31
0.0000000000000000
  0
LINE
  5
28D
100
AcDbEntity
  8
MAIN0
  6
CENTER
 62
3
100
AcDbLine
 10
184.6530981072216
 20
208.8755745415655
 30
0.0000000000000000
 11
189.4692689838278
 21
208.8755745415656
 31
0.0000000000000000
  0
LINE
  5
28E
100
AcDbEntity
  8
MAIN0
  6
CENTER
 62
3
100
AcDbLine
 10
194.8253330493017
 20
208.8755745415656
 30
0.0000000000000000
 11
227.6962895998817
 21
208.8755745415662
 31
0.0000000000000000
  0
LINE
  5
28F
100
AcDbEntity
  8
MAIN0
  6
CONTINUOUS
 62
3
100
AcDbLine
 10
197.7905530941312
 20
204.9184677603185
 30
0.0000000000000000
 11
198.8334463129427
 21
203.8755745415057
 31
0.0000000000000000
  0
ARC
  5
290
100
AcDbEntity
  8
MAIN0
  6
CONTINUOUS
 62
3
100
AcDbCircle
 10
197.0834463129441
 20
204.2113609791323
 30
0.0000000000000000
 40
1.000000000000000
100
AcDbArc
 50
44.99999999996489
 51
134.9999999999663
  0
LINE
  5
291
100
AcDbEntity
  8
MAIN0
  6
CONTINUOUS
 62
3
100
AcDbLine
 10
196.3763395317578
 20
204.9184677603193
 30
0.0000000000000000
 11
195.3334463129424
 21
203.8755745415050
 31
0.0000000000000000
  0
LINE
  5
292
100
AcDbEntity
  8
MAIN0
  6
CONTINUOUS
 62
3
100
AcDbLine
 10
206.5834463129554
 20
220.3755745415655
 30
0.0000000000000000
 11
203.5834463129554
 21
220.3755745415654
 31
0.0000000000000000
  0
LINE
  5
293
100
AcDbEntity
  8
MAIN0
  6
CONTINUOUS
 62
3
100
AcDbLine
 10
206.5834463129554
 20
220.3755745415656
 30
0.0000000000000000
 11
206.5834463129514
 21
215.3755745415656
 31
0.0000000000000000
  0
LINE
  5
294
100
AcDbEntity
  8
MAIN0
  6
CONTINUOUS
 62
3
100
AcDbLine
 10
206.5834463129514
 20
215.3755745415655
 30
0.0000000000000000
 11
203.5834463129514
 21
215.3755745415654
 31
0.0000000000000000
  0
LINE
  5
295
100
AcDbEntity
  8
BM0
  6
CONTINUOUS
 62
3
100
AcDbLine
 10
270.0000000000000
 20
56.00000000000000
 30
0.0000000000000000
 11
410.0000000000000
 21
56.00000000000000
 31
0.0000000000000000
  0
LINE
  5
296
100
AcDbEntity
  8
BM0
  6
CONTINUOUS
 62
3
100
AcDbLine
 10
270.0000000000000
 20
51.00000000000000
 30
0.0000000000000000
 11
410.0000000000000
 21
51.00000000000000
 31
0.0000000000000000
  0
LINE
  5
297
100
AcDbEntity
  8
BM0
  6
CONTINUOUS
 62
3
100
AcDbLine
 10
270.0000000000000
 20
56.00000000000000
 30
0.0000000000000000
 11
270.0000000000000
 21
51.00000000000000
 31
0.0000000000000000
  0
LINE
  5
298
100
AcDbEntity
  8
BM0
  6
CONTINUOUS
 62
3
100
AcDbLine
 10
410.0000000000000
 20
56.00000000000000
 30
0.0000000000000000
 11
410.0000000000000
 21
51.00000000000000
 31
0.0000000000000000
  0
LINE
  5
299
100
AcDbEntity
  8
BM0
  6
CONTINUOUS
 62
3
100
AcDbLine
 10
278.0000000000000
 20
56.00000000000000
 30
0.0000000000000000
 11
278.0000000000000
 21
51.00000000000000
 31
0.0000000000000000
  0
LINE
  5
29A
100
AcDbEntity
  8
BM0
  6
CONTINUOUS
 62
3
100
AcDbLine
 10
328.0000000000000
 20
56.00000000000000
 30
0.0000000000000000
 11
328.0000000000000
 21
51.00000000000000
 31
0.0000000000000000
  0
LINE
  5
29B
100
AcDbEntity
  8
BM0
  6
CONTINUOUS
 62
3
100
AcDbLine
 10
345.0000000000000
 20
56.00000000000000
 30
0.0000000000000000
 11
345.0000000000000
 21
51.00000000000000
 31
0.0000000000000000
  0
LINE
  5
29C
100
AcDbEntity
  8
BM0
  6
CONTINUOUS
 62
3
100
AcDbLine
 10
358.0000000000000
 20
56.00000000000000
 30
0.0000000000000000
 11
358.0000000000000
 21
51.00000000000000
 31
0.0000000000000000
  0
LINE
  5
29D
100
AcDbEntity
  8
BM0
  6
CONTINUOUS
 62
3
100
AcDbLine
 10
374.0000000000000
 20
56.00000000000000
 30
0.0000000000000000
 11
374.0000000000000
 21
51.00000000000000
 31
0.0000000000000000
  0
MTEXT
  5
29E
100
AcDbEntity
  8
BM0
  6
CONTINUOUS
 62
3
100
AcDbMText
 10
381.7499997615814
 20
55.04999995231628
 30
0.0000000000000000
 40
3.099999904632568
 41
0.0000000000000000
 44
0.6870967861020730
 71
     1
 72
     1
  1
{\H0.93x;{記　　　　事}}
 11
1.000000000000000
 21
0.0000000000000000
 31
0.0000000000000000
  7
KNJYOKO
  0
MTEXT
  5
29F
100
AcDbEntity
  8
BM0
  6
CONTINUOUS
 62
3
100
AcDbMText
 10
358.9500001370907
 20
55.00000000000000
 30
0.0000000000000000
 40
3.000000000000000
 41
0.0000000000000000
 44
0.7000000000000000
 71
     1
 72
     1
  1
{\H0.60x;{１個重量　kg}}
 11
1.000000000000000
 21
0.0000000000000000
 31
0.0000000000000000
  7
KNJYOKO
  0
MTEXT
  5
2A0
100
AcDbEntity
  8
BM0
  6
CONTINUOUS
 62
3
100
AcDbMText
 10
346.2500000894070
 20
55.00000000000000
 30
0.0000000000000000
 40
3.000000000000000
 41
0.0000000000000000
 44
0.7000000000000000
 71
     1
 72
     1
  1
{\H0.59x;{１組分個数}}
 11
1.000000000000000
 21
0.0000000000000000
 31
0.0000000000000000
  7
KNJYOKO
  0
MTEXT
  5
2A1
100
AcDbEntity
  8
BM0
  6
CONTINUOUS
 62
3
100
AcDbMText
 10
331.4699998795986
 20
55.04999995231628
 30
0.0000000000000000
 40
3.099999904632568
 41
0.0000000000000000
 44
0.6870967861020730
 71
     1
 72
     1
  1
{\H0.91x;{材　質}}
 11
1.000000000000000
 21
0.0000000000000000
 31
0.0000000000000000
  7
KNJYOKO
  0
MTEXT
  5
2A2
100
AcDbEntity
  8
BM0
  6
CONTINUOUS
 62
3
100
AcDbMText
 10
284.0499995648861
 20
55.04999995231628
 30
0.0000000000000000
 40
3.099999904632568
 41
0.0000000000000000
 44
0.6870967861020730
 71
     1
 72
     1
  1
{\H0.94x;{品　　名　・　規　　格}}
 11
1.000000000000000
 21
0.0000000000000000
 31
0.0000000000000000
  7
KNJYOKO
  0
MTEXT
  5
2A3
100
AcDbEntity
  8
BM0
  6
CONTINUOUS
 62
3
100
AcDbMText
 10
270.7099999189377
 20
55.04999995231628
 30
0.0000000000000000
 40
3.099999904632568
 41
0.0000000000000000
 44
0.6870967861020730
 71
     1
 72
     1
  1
{\H0.89x;{符号}}
 11
1.000000000000000
 21
0.0000000000000000
 31
0.0000000000000000
  7
KNJYOKO
  0
LINE
  5
2A4
100
AcDbEntity
  8
WAKU0
  6
CONTINUOUS
 62
3
100
AcDbLine
 10
240.0000000000000
 20
51.00000000000000
 30
0.0000000000000000
 11
410.0000000000000
 21
51.00000000000000
 31
0.0000000000000000
  0
LINE
  5
2A5
100
AcDbEntity
  8
WAKU0
  6
CONTINUOUS
 62
3
100
AcDbLine
 10
240.0000000000000
 20
51.00000000000000
 30
0.0000000000000000
 11
240.0000000000000
 21
12.00000000000000
 31
0.0000000000000000
  0
LINE
  5
2A6
100
AcDbEntity
  8
WAKU0
  6
CONTINUOUS
 62
3
100
AcDbLine
 10
312.0000000000000
 20
51.00000000000000
 30
0.0000000000000000
 11
312.0000000000000
 21
12.00000000000000
 31
0.0000000000000000
  0
LINE
  5
2A7
100
AcDbEntity
  8
WAKU0
  6
CONTINUOUS
 62
3
100
AcDbLine
 10
332.0000000000000
 20
51.00000000000000
 30
0.0000000000000000
 11
332.0000000000000
 21
12.00000000000000
 31
0.0000000000000000
  0
LINE
  5
2A8
100
AcDbEntity
  8
WAKU0
  6
CONTINUOUS
 62
3
100
AcDbLine
 10
344.0000000000000
 20
51.00000000000000
 30
0.0000000000000000
 11
344.0000000000000
 21
12.00000000000000
 31
0.0000000000000000
  0
LINE
  5
2A9
100
AcDbEntity
  8
WAKU0
  6
CONTINUOUS
 62
3
100
AcDbLine
 10
344.0000000000000
 20
37.00000000000000
 30
0.0000000000000000
 11
410.0000000000000
 21
37.00000000000000
 31
0.0000000000000000
  0
LINE
  5
2AA
100
AcDbEntity
  8
WAKU0
  6
CONTINUOUS
 62
3
100
AcDbLine
 10
332.0000000000000
 20
23.00000000000000
 30
0.0000000000000000
 11
410.0000000000000
 21
23.00000000000000
 31
0.0000000000000000
  0
LINE
  5
2AB
100
AcDbEntity
  8
WAKU0
  6
CONTINUOUS
 62
3
100
AcDbLine
 10
375.0000000000000
 20
51.00000000000000
 30
0.0000000000000000
 11
375.0000000000000
 21
44.00000000000000
 31
0.0000000000000000
  0
LINE
  5
2AC
100
AcDbEntity
  8
WAKU0
  6
CONTINUOUS
 62
3
100
AcDbLine
 10
387.0000000000000
 20
51.00000000000000
 30
0.0000000000000000
 11
387.0000000000000
 21
44.00000000000000
 31
0.0000000000000000
  0
LINE
  5
2AD
100
AcDbEntity
  8
WAKU0
  6
CONTINUOUS
 62
3
100
AcDbLine
 10
312.0000000000000
 20
31.50000000000000
 30
0.0000000000000000
 11
332.0000000000000
 21
31.50000000000000
 31
0.0000000000000000
  0
LINE
  5
2AE
100
AcDbEntity
  8
WAKU0
  6
CONTINUOUS
 62
3
100
AcDbLine
 10
332.0000000000000
 20
44.00000000000000
 30
0.0000000000000000
 11
410.0000000000000
 21
44.00000000000000
 31
0.0000000000000000
  0
LINE
  5
2AF
100
AcDbEntity
  8
WAKU0
  6
CONTINUOUS
 62
3
100
AcDbLine
 10
240.0000000000000
 20
37.00000000000000
 30
0.0000000000000000
 11
312.0000000000000
 21
37.00000000000000
 31
0.0000000000000000
  0
LINE
  5
2B0
100
AcDbEntity
  8
WAKU0
  6
CONTINUOUS
 62
3
100
AcDbLine
 10
240.0000000000000
 20
23.00000000000000
 30
0.0000000000000000
 11
312.0000000000000
 21
23.00000000000000
 31
0.0000000000000000
  0
LINE
  5
2B1
100
AcDbEntity
  8
WAKU0
  6
CONTINUOUS
 62
3
100
AcDbLine
 10
288.0000000000000
 20
37.00000000000000
 30
0.0000000000000000
 11
288.0000000000000
 21
12.00000000000000
 31
0.0000000000000000
  0
LINE
  5
2B2
100
AcDbEntity
  8
WAKU0
  6
CONTINUOUS
 62
3
100
AcDbLine
 10
264.0000000000000
 20
37.00000000000000
 30
0.0000000000000000
 11
264.0000000000000
 21
23.00000000000000
 31
0.0000000000000000
  0
LINE
  5
2B3
100
AcDbEntity
  8
WAKU0
  6
CONTINUOUS
 62
3
100
AcDbLine
 10
300.0000000000000
 20
26.00000000000000
 30
0.0000000000000000
 11
300.0000000000000
 21
23.00000000000000
 31
0.0000000000000000
  0
LINE
  5
2B4
100
AcDbEntity
  8
WAKU0
  6
CONTINUOUS
 62
3
100
AcDbLine
 10
276.0000000000000
 20
26.00000000000000
 30
0.0000000000000000
 11
276.0000000000000
 21
23.00000000000000
 31
0.0000000000000000
  0
LINE
  5
2B5
100
AcDbEntity
  8
WAKU0
  6
CONTINUOUS
 62
3
100
AcDbLine
 10
252.0000000000000
 20
26.00000000000000
 30
0.0000000000000000
 11
252.0000000000000
 21
23.00000000000000
 31
0.0000000000000000
  0
LINE
  5
2B6
100
AcDbEntity
  8
WAKU0
  6
CONTINUOUS
 62
3
100
AcDbLine
 10
258.0000000000000
 20
51.00000000000000
 30
0.0000000000000000
 11
258.0000000000000
 21
37.00000000000000
 31
0.0000000000000000
  0
LINE
  5
2B7
100
AcDbEntity
  8
WAKU0
  6
CONTINUOUS
 62
3
100
AcDbLine
 10
240.0000000000000
 20
45.00000000000000
 30
0.0000000000000000
 11
312.0000000000000
 21
45.00000000000000
 31
0.0000000000000000
  0
LINE
  5
2B8
100
AcDbEntity
  8
WAKU0
  6
HIDDEN
 62
3
100
AcDbLine
 10
360.5000000000000
 20
23.00000000000000
 30
0.0000000000000000
 11
360.5000000000000
 21
12.00000000000000
 31
0.0000000000000000
  0
LINE
  5
2B9
100
AcDbEntity
  8
WAKU0
  6
HIDDEN
 62
3
100
AcDbLine
 10
372.9000000000000
 20
23.00000000000000
 30
0.0000000000000000
 11
372.9000000000000
 21
12.00000000000000
 31
0.0000000000000000
  0
MTEXT
  5
2BA
100
AcDbEntity
  8
WAKU0
  6
CONTINUOUS
 62
3
100
AcDbMText
 10
344.4820000243485
 20
49.04999995231628
 30
0.0000000000000000
 40
3.099999904632568
 41
0.0000000000000000
 44
0.8806452252986423
 71
     1
 72
     1
  1
{\H0.93x;{NTS-HJ309}}
 11
1.000000000000000
 21
0.0000000000000000
 31
0.0000000000000000
  7
STANDARD
  0
MTEXT
  5
2BB
100
AcDbEntity
  8
WAKU0
  6
CONTINUOUS
 62
3
100
AcDbMText
 10
348.4499999843538
 20
34.23333326975504
 30
0.0000000000000000
 40
3.099999904632568
 41
0.0000000000000000
 44
1.038709733984847
 71
     1
 72
     1
  1
{\H0.71x;{ＮＴＳ－ＨＪ３０９　ガイケイ\PＮＴＳ－ＨＪ３０９　ＯＵＴＳＩＤＥ　ＶＩＥＷ}}
 11
1.000000000000000
 21
0.0000000000000000
 31
0.0000000000000000
  7
KNJYOKO
  0
MTEXT
  5
2BC
100
AcDbEntity
  8
WAKU0
  6
CONTINUOUS
 62
3
100
AcDbMText
 10
318.0049998760223
 20
39.29999995231628
 30
0.0000000000000000
 40
3.099999904632568
 41
0.0000000000000000
 44
1.412903306188993
 71
     1
 72
     1
  1
{\H0.90x;{1:1}}
 11
1.000000000000000
 21
0.0000000000000000
 31
0.0000000000000000
  7
STANDARD
  0
MTEXT
  5
2BD
100
AcDbEntity
  8
WAKU0
  6
CONTINUOUS
 62
3
100
AcDbMText
 10
374.4000001549721
 20
20.15000009536743
 30
0.0000000000000000
 40
5.300000190734863
 41
0.0000000000000000
 44
0.8660377154786555
 71
     1
 72
     1
  1
{\H0.90x;{1113}}
 11
1.000000000000000
 21
0.0000000000000000
 31
0.0000000000000000
  7
STANDARD
  0
MTEXT
  5
2BE
100
AcDbEntity
  8
WAKU0
  6
CONTINUOUS
 62
3
100
AcDbMText
 10
362.3000000834465
 20
20.15000009536743
 30
0.0000000000000000
 40
5.300000190734863
 41
0.0000000000000000
 44
0.8660377154786555
 71
     1
 72
     1
  1
{\H0.87x;{85}}
 11
1.000000000000000
 21
0.0000000000000000
 31
0.0000000000000000
  7
STANDARD
  0
MTEXT
  5
2BF
100
AcDbEntity
  8
WAKU0
  6
CONTINUOUS
 62
3
100
AcDbMText
 10
345.5000001192093
 20
20.15000009536743
 30
0.0000000000000000
 40
5.300000190734863
 41
0.0000000000000000
 44
0.8660377154786555
 71
     1
 72
     1
  1
{\H0.89x;{61G}}
 11
1.000000000000000
 21
0.0000000000000000
 31
0.0000000000000000
  7
STANDARD
  0
MTEXT
  5
2C0
100
AcDbEntity
  8
WAKU0
  6
CONTINUOUS
 62
3
100
AcDbMText
 10
400.0000000476837
 20
20.15000009536743
 30
0.0000000000000000
 40
5.300000190734863
 41
0.0000000000000000
 44
0.8660377154786555
 71
     1
 72
     1
  1
{\H0.81x;{0}}
 11
1.000000000000000
 21
0.0000000000000000
 31
0.0000000000000000
  7
STANDARD
  0
MTEXT
  5
2C1
100
AcDbEntity
  8
WAKU0
  6
CONTINUOUS
 62
3
100
AcDbMText
 10
309.1079998898208
 20
49.54999995231628
 30
0.0000000000000000
 40
3.099999904632568
 41
0.0000000000000000
 44
0.7838710287731241
 71
     1
 72
     1
  1
{\H0.81x;{ }}
 11
1.000000000000000
 21
0.0000000000000000
 31
0.0000000000000000
  7
STANDARD
  0
MTEXT
  5
2C2
100
AcDbEntity
  8
WAKU0
  6
CONTINUOUS
 62
3
100
AcDbMText
 10
365.3900001943111
 20
43.50000000000000
 30
0.0000000000000000
 40
3.000000000000000
 41
0.0000000000000000
 44
0.6000000000000000
 71
     1
 72
     1
  1
{\H0.93x;{グリッパ\PＧＲＩＰＰＥＲ}}
 11
1.000000000000000
 21
0.0000000000000000
 31
0.0000000000000000
  7
KNJYOKO
  0
MTEXT
  5
2C3
100
AcDbEntity
  8
WAKU0
  6
CONTINUOUS
 62
3
100
AcDbMText
 10
392.0049998760223
 20
49.04999995231628
 30
0.0000000000000000
 40
3.099999904632568
 41
0.0000000000000000
 44
0.8806452252986423
 71
     1
 72
     1
  1
{\H0.90x;{0.8}}
 11
1.000000000000000
 21
0.0000000000000000
 31
0.0000000000000000
  7
STANDARD
  0
MTEXT
  5
2C4
100
AcDbEntity
  8
WAKU0
  6
CONTINUOUS
 62
3
100
AcDbMText
 10
242.2299998402596
 20
49.54999995231628
 30
0.0000000000000000
 40
3.099999904632568
 41
0.0000000000000000
 44
0.7838710287731241
 71
     1
 72
     1
  1
{\H0.92x;{図面来歴}}
 11
1.000000000000000
 21
0.0000000000000000
 31
0.0000000000000000
  7
KNJYOKO
  0
MTEXT
  5
2C5
100
AcDbEntity
  8
WAKU0
  6
CONTINUOUS
 62
3
100
AcDbMText
 10
302.0049998760223
 20
36.04999995231628
 30
0.0000000000000000
 40
3.099999904632568
 41
0.0000000000000000
 44
0.6870967861020730
 71
     1
 72
     1
  1
{\H0.90x;{CAD}}
 11
1.000000000000000
 21
0.0000000000000000
 31
0.0000000000000000
  7
STANDARD
  0
MTEXT
  5
2C6
100
AcDbEntity
  8
WAKU0
  6
CONTINUOUS
 62
3
100
AcDbMText
 10
290.7099999189377
 20
36.04999995231628
 30
0.0000000000000000
 40
3.099999904632568
 41
0.0000000000000000
 44
0.6870967861020730
 71
     1
 72
     1
  1
{\H0.89x;{設計}}
 11
1.000000000000000
 21
0.0000000000000000
 31
0.0000000000000000
  7
KNJYOKO
  0
MTEXT
  5
2C7
100
AcDbEntity
  8
WAKU0
  6
CONTINUOUS
 62
3
100
AcDbMText
 10
278.7099999189377
 20
36.04999995231628
 30
0.0000000000000000
 40
3.099999904632568
 41
0.0000000000000000
 44
0.6870967861020730
 71
     1
 72
     1
  1
{\H0.89x;{主任}}
 11
1.000000000000000
 21
0.0000000000000000
 31
0.0000000000000000
  7
KNJYOKO
  0
MTEXT
  5
2C8
100
AcDbEntity
  8
WAKU0
  6
CONTINUOUS
 62
3
100
AcDbMText
 10
266.7099999189377
 20
36.04999995231628
 30
0.0000000000000000
 40
3.099999904632568
 41
0.0000000000000000
 44
0.6870967861020730
 71
     1
 72
     1
  1
{\H0.89x;{係長}}
 11
1.000000000000000
 21
0.0000000000000000
 31
0.0000000000000000
  7
KNJYOKO
  0
MTEXT
  5
2C9
100
AcDbEntity
  8
WAKU0
  6
CONTINUOUS
 62
3
100
AcDbMText
 10
254.7099999189377
 20
36.04999995231628
 30
0.0000000000000000
 40
3.099999904632568
 41
0.0000000000000000
 44
0.6870967861020730
 71
     1
 72
     1
  1
{\H0.89x;{課長}}
 11
1.000000000000000
 21
0.0000000000000000
 31
0.0000000000000000
  7
KNJYOKO
  0
MTEXT
  5
2CA
100
AcDbEntity
  8
WAKU0
  6
CONTINUOUS
 62
3
100
AcDbMText
 10
242.7099999189377
 20
36.04999995231628
 30
0.0000000000000000
 40
3.099999904632568
 41
0.0000000000000000
 44
0.6870967861020730
 71
     1
 72
     1
  1
{\H0.89x;{部長}}
 11
1.000000000000000
 21
0.0000000000000000
 31
0.0000000000000000
  7
KNJYOKO
  0
MTEXT
  5
2CB
100
AcDbEntity
  8
WAKU0
  6
CONTINUOUS
 62
3
100
AcDbMText
 10
291.4899998009205
 20
22.04999995231628
 30
0.0000000000000000
 40
3.099999904632568
 41
0.0000000000000000
 44
0.6870967861020730
 71
     1
 72
     1
  1
{\H0.93x;{作成年月日}}
 11
1.000000000000000
 21
0.0000000000000000
 31
0.0000000000000000
  7
KNJYOKO
  0
MTEXT
  5
2CC
100
AcDbEntity
  8
WAKU0
  6
CONTINUOUS
 62
3
100
AcDbMText
 10
255.5500000715256
 20
20.15000009536743
 30
0.0000000000000000
 40
5.300000190734863
 41
0.0000000000000000
 44
0.8660377154786555
 71
     1
 72
     1
  1
{\H0.92x;{北川鉄工所}}
 11
1.000000000000000
 21
0.0000000000000000
 31
0.0000000000000000
  7
KNJYOKO
  0
MTEXT
  5
2CD
100
AcDbEntity
  8
WAKU0
  6
CONTINUOUS
 62
3
100
AcDbMText
 10
244.8199998289347
 20
21.23333326975505
 30
0.0000000000000000
 40
3.099999904632568
 41
0.0000000000000000
 44
0.8451613409338102
 71
     1
 72
     1
  1
{\H0.89x;{株式\P会社}}
 11
1.000000000000000
 21
0.0000000000000000
 31
0.0000000000000000
  7
KNJYOKO
  0
MTEXT
  5
2CE
100
AcDbEntity
  8
WAKU0
  6
CONTINUOUS
 62
3
100
AcDbMText
 10
316.9699998795986
 20
29.54999995231628
 30
0.0000000000000000
 40
3.099999904632568
 41
0.0000000000000000
 44
0.8806452252986423
 71
     1
 72
     1
  1
{\H0.91x;{三角法}}
 11
1.000000000000000
 21
0.0000000000000000
 31
0.0000000000000000
  7
KNJYOKO
  0
MTEXT
  5
2CF
100
AcDbEntity
  8
WAKU0
  6
CONTINUOUS
 62
3
100
AcDbMText
 10
316.9699998795986
 20
49.04999995231628
 30
0.0000000000000000
 40
3.099999904632568
 41
0.0000000000000000
 44
0.8806452252986423
 71
     1
 72
     1
  1
{\H0.91x;{尺　度}}
 11
1.000000000000000
 21
0.0000000000000000
 31
0.0000000000000000
  7
KNJYOKO
  0
MTEXT
  5
2D0
100
AcDbEntity
  8
WAKU0
  6
CONTINUOUS
 62
3
100
AcDbMText
 10
405.7000000476837
 20
49.00000000000000
 30
0.0000000000000000
 40
3.000000000000000
 41
0.0000000000000000
 44
0.9000000000000000
 71
     1
 72
     1
  1
{\H0.63x;{kg}}
 11
1.000000000000000
 21
0.0000000000000000
 31
0.0000000000000000
  7
STANDARD
  0
MTEXT
  5
2D1
100
AcDbEntity
  8
WAKU0
  6
CONTINUOUS
 62
3
100
AcDbMText
 10
377.7099999189377
 20
49.04999995231628
 30
0.0000000000000000
 40
3.099999904632568
 41
0.0000000000000000
 44
0.8806452252986423
 71
     1
 72
     1
  1
{\H0.89x;{重量}}
 11
1.000000000000000
 21
0.0000000000000000
 31
0.0000000000000000
  7
KNJYOKO
  0
MTEXT
  5
2D2
100
AcDbEntity
  8
WAKU0
  6
CONTINUOUS
 62
3
100
AcDbMText
 10
334.7099999189377
 20
21.23333326975504
 30
0.0000000000000000
 40
3.099999904632568
 41
0.0000000000000000
 44
0.8451613409338102
 71
     1
 72
     1
  1
{\H0.89x;{図面\P番号}}
 11
1.000000000000000
 21
0.0000000000000000
 31
0.0000000000000000
  7
KNJYOKO
  0
MTEXT
  5
2D3
100
AcDbEntity
  8
WAKU0
  6
CONTINUOUS
 62
3
100
AcDbMText
 10
334.7099999189377
 20
35.04999995231628
 30
0.0000000000000000
 40
3.099999904632568
 41
0.0000000000000000
 44
2.235483976655898
 71
     1
 72
     1
  1
{\H0.89x;{名称}}
 11
1.000000000000000
 21
0.0000000000000000
 31
0.0000000000000000
  7
KNJYOKO
  0
MTEXT
  5
2D4
100
AcDbEntity
  8
WAKU0
  6
CONTINUOUS
 62
3
100
AcDbMText
 10
334.7099999189377
 20
49.04999995231628
 30
0.0000000000000000
 40
3.099999904632568
 41
0.0000000000000000
 44
0.8806452252986423
 71
     1
 72
     1
  1
{\H0.89x;{形式}}
 11
1.000000000000000
 21
0.0000000000000000
 31
0.0000000000000000
  7
KNJYOKO
  0
LINE
  5
2D5
100
AcDbEntity
  8
WAKU0
  6
HIDDEN
 62
3
100
AcDbLine
 10
407.1599564743885
 20
13.84999990463257
 30
0.0000000000000000
 11
396.9400436209789
 21
13.84999990463257
 31
0.0000000000000000
  0
LINE
  5
2D6
100
AcDbEntity
  8
WAKU0
  6
HIDDEN
 62
3
100
AcDbLine
 10
407.1599564743885
 20
13.84999990463250
 30
0.0000000000000000
 11
402.0500000476851
 21
22.70070406014901
 31
0.0000000000000000
  0
LINE
  5
2D7
100
AcDbEntity
  8
WAKU0
  6
HIDDEN
 62
3
100
AcDbLine
 10
402.0500000476852
 20
22.70070406014902
 30
0.0000000000000000
 11
396.9400436209789
 21
13.84999990463249
 31
0.0000000000000000
  0
POINT
  5
2D8
100
AcDbEntity
  8
WAKU0
  6
CONTINUOUS
 62
3
100
AcDbPoint
 10
270.0000000000000
 20
51.00000000000000
 30
0.0000000000000000
  0
INSERT
  5
315
100
AcDbEntity
  8
WAKU0
  6
CONTINUOUS
 62
2
100
AcDbBlockReference
  2
M2
 10
0.0000000000000000
 20
0.0000000000000000
 30
0.0000000000000000
 50
0.0000000000000000
  0
INSERT
  5
34B
100
AcDbEntity
  8
WAKU0
  6
CONTINUOUS
 62
12
100
AcDbBlockReference
  2
M3
 10
0.0000000000000000
 20
0.0000000000000000
 30
0.0000000000000000
 50
0.0000000000000000
  0
INSERT
  5
377
100
AcDbEntity
  8
WAKU0
  6
CONTINUOUS
 62
12
100
AcDbBlockReference
  2
M4
 10
0.0000000000000000
 20
0.0000000000000000
 30
0.0000000000000000
 50
0.0000000000000000
  0
INSERT
  5
3F5
100
AcDbEntity
  8
WAKU0
  6
CONTINUOUS
 62
12
100
AcDbBlockReference
  2
M5
 10
0.0000000000000000
 20
0.0000000000000000
 30
0.0000000000000000
 50
0.0000000000000000
  0
LINE
  5
3F6
100
AcDbEntity
  8
WAKU0
  6
CONTINUOUS
 62
3
100
AcDbLine
 10
330.4713877753800
 20
15.78041421262812
 30
0.0000000000000000
 11
330.4713877753800
 21
21.78041421262815
 31
0.0000000000000000
  0
LINE
  5
3F7
100
AcDbEntity
  8
WAKU0
  6
CONTINUOUS
 62
3
100
AcDbLine
 10
323.9336941228225
 20
17.28041421262811
 30
0.0000000000000000
 11
323.9336941228225
 21
20.28041421262824
 31
0.0000000000000000
  0
LINE
  5
3F8
100
AcDbEntity
  8
WAKU0
  6
CENTER
 62
12
100
AcDbLine
 10
313.4321805514995
 20
18.78041421262813
 30
0.0000000000000000
 11
331.2765788964694
 21
18.78041421262813
 31
0.0000000000000000
  0
LINE
  5
3F9
100
AcDbEntity
  8
WAKU0
  6
CENTER
 62
12
100
AcDbLine
 10
317.4474565857986
 20
14.55921662918448
 30
0.0000000000000000
 11
317.4474565857986
 21
22.89865102149943
 31
0.0000000000000000
  0
LINE
  5
3FA
100
AcDbEntity
  8
WAKU0
  6
CONTINUOUS
 62
3
100
AcDbLine
 10
323.9336941228225
 20
20.28041421262797
 30
0.0000000000000000
 11
330.4713877753800
 21
21.78041421262795
 31
0.0000000000000000
  0
LINE
  5
3FB
100
AcDbEntity
  8
WAKU0
  6
CONTINUOUS
 62
3
100
AcDbLine
 10
323.9336941228225
 20
17.28041421262811
 30
0.0000000000000000
 11
330.4713877753799
 21
15.78041421262812
 31
0.0000000000000000
  0
CIRCLE
  5
3FC
100
AcDbEntity
  8
WAKU0
  6
CONTINUOUS
 62
3
100
AcDbCircle
 10
317.4474565857986
 20
18.78041421262813
 30
0.0000000000000000
 40
1.499999999999972
  0
CIRCLE
  5
3FD
100
AcDbEntity
  8
WAKU0
  6
CONTINUOUS
 62
3
100
AcDbCircle
 10
317.4474565857986
 20
18.78041421262813
 30
0.0000000000000000
 40
2.999999999999979
  0
ENDSEC
  0
SECTION
  2
OBJECTS
  0
DICTIONARY
  5
455
100
AcDbDictionary
  3
ACAD_GROUP
350
456
  3
ACAD_LAYOUT
350
457
  3
ACAD_MLINESTYLE
350
458
  0
DICTIONARY
  5
456
102
{ACAD_REACTORS
330
455
102
}
330
455
100
AcDbDictionary
  0
DICTIONARY
  5
457
102
{ACAD_REACTORS
330
455
102
}
330
455
100
AcDbDictionary
  3
Model
350
459
  3
ﾚｲｱｳﾄ1
350
45A
  3
ﾚｲｱｳﾄ2
350
45B
  0
DICTIONARY
  5
458
102
{ACAD_REACTORS
330
455
102
}
330
455
100
AcDbDictionary
  3
STANDARD
350
45C
  0
LAYOUT
  5
459
102
{ACAD_REACTORS
330
457
102
}
330
457
100
AcDbPlotSettings
 70
11952
  4
A3
 44
297.000000
 45
420.000000
 73
  1
 72
  1
100
AcDbLayout
  1
Model
 71
0
330
41D
  0
LAYOUT
  5
45A
102
{ACAD_REACTORS
330
457
102
}
330
457
100
AcDbPlotSettings
100
AcDbLayout
  1
ﾚｲｱｳﾄ1
 71
1
330
41E
  0
LAYOUT
  5
45B
102
{ACAD_REACTORS
330
457
102
}
330
457
100
AcDbPlotSettings
100
AcDbLayout
  1
ﾚｲｱｳﾄ2
 71
2
330
41F
  0
MLINESTYLE
  5
45C
102
{ACAD_REACTORS
330
458
102
}
330
458
100
AcDbMlineStyle
  2
STANDARD
 70
     0
  3

 62
   256
 51
90.00
 52
90.00
 71
     2
 49
0.50
 62
   256
  6
BYLAYER
 49
-0.50
 62
   256
  6
BYLAYER
  0
ENDSEC
  0
EOF
